#TITLE:Solar Blade;
#SUBTITLE:;
#ARTIST:Iglooghost;
#TITLETRANSLIT:;
#SUBTITLETRANSLIT:;
#ARTISTTRANSLIT:;
#GENRE:Wonky;
#CREDIT:;
#BANNER:solarblade-bn.png;
#BACKGROUND:solarblade-bg-wide.png;
#LYRICSPATH:;
#CDTITLE:;
#MUSIC:Solar Blade.ogg;
#OFFSET:0.010000;
#SAMPLESTART:48.377998;
#SAMPLELENGTH:20.000000;
#SELECTABLE:YES;
#BPMS:0.000000=165.000000
;
#STOPS:0.000000=1.843000
;
#BGCHANGES:;
#KEYSOUNDS:;
#ATTACKS:;

//---------------dance-single - ----------------
#NOTES:
     dance-single:
     :
     Challenge:
     12:
     0.960789,1.051346,0.139149,0.463829,1.136381,870.000000,852.000000,18.000000,60.000000,19.000000,1.000000,0.960789,1.051346,0.139149,0.463829,1.136381,870.000000,852.000000,18.000000,60.000000,19.000000,1.000000:
// measure 0
0000
0000
0000
4010
,  // measure 1
0000
0000
0000
0000
0000
0000
0000
0000
0000
0000
0000
0000
0000
0000
0000
0000
0000
0000
0000
0000
0000
0000
0000
0000
3001
0000
0000
0000
0000
0000
1000
0000
0000
0000
0000
0000
0100
0000
0000
0000
0010
0000
0001
0000
0000
1000
0000
0000
,  // measure 2
0010
0100
1000
0100
0001
1000
2001
0000
,  // measure 3
0000
0000
3010
0100
0001
1000
0100
0000
0010
0000
0001
0010
0001
0010
0001
1000
,  // measure 4
0010
0000
0000
0000
0200
0000
0310
0000
0002
0000
0013
0000
1000
0100
0010
0100
,  // measure 5
2000
0000
0000
0000
3001
0000
0100
0000
0001
0000
1000
0100
0010
0001
1000
0010
,  // measure 6
1000
0100
0020
0001
0130
1000
2010
3001
,  // measure 7
0100
0000
0001
0000
0020
0000
0000
0000
0031
1000
0001
0100
0010
1000
0001
0010
,  // measure 8
0200
0000
0000
0300
1001
0000
0000
0000
0001
1000
0010
1000
0001
0010
0100
0000
,  // measure 9
1000
0001
0100
0001
1000
0000
0100
1000
0020
0000
0230
0000
0302
0000
2003
0000
,  // measure 10
3020
0000
0000
0000
1030
0000
0100
0000
0001
0100
0010
0001
1000
0010
1000
0001
,  // measure 11
0100
0010
1000
0001
0010
0100
1000
0001
0100
0001
1000
0100
1000
0001
0100
0010
,  // measure 12
1000
0000
0000
0010
0000
0010
1000
0000
0001
0000
0100
0000
0001
0000
0000
0000
,  // measure 13
1000
0000
0000
0100
0010
0000
0001
0000
0000
1000
0010
0000
0100
0000
0001
0000
,  // measure 14
2010
0000
0000
3000
0001
0000
2100
0000
0000
3000
0001
0000
0010
0000
0102
0000
,  // measure 15
1003
0010
0100
0012
1003
0102
2013
3001
,  // measure 16
1000
0000
0100
00M0
0100
0000
0001
0000
0010
0001
0100
0010
1000
0000
0001
0000
,  // measure 17
1000
0001
0100
0001
1000
0100
1000
0001
0010
0001
1000
0010
0100
0001
0010
0100
,  // measure 18
1000
0000
0100
0000
0001
00M0
0001
0000
1000
0010
1000
0001
0010
0100
1000
0001
,  // measure 19
0100
0001
1000
0100
0010
0100
1000
0001
0100
0010
1000
0001
0010
0001
1000
0010
,  // measure 20
0200
0000
0000
0000
0000
0000
0000
0000
0000
0000
0000
0000
0010
0000
0000
0000
0301
0000
0000
000M
0000
0000
0000
0000
0020
0000
0000
0000
0000
0000
0000
0000
,  // measure 21
1030
0000
0000
1000
0001
0000
1000
0000
0001
0000
0010
0000
0100
1000
0001
0100
,  // measure 22
0020
0000
0000
0000
1000
0000
0130
0001
1000
0100
1000
0001
0100
0010
0100
0001
,  // measure 23
1000
0100
0010
0100
1000
0001
0100
0010
1000
0001
0010
0100
1000
0001
0100
0001
,  // measure 24
2000
0000
0000
0020
0030
0000
0020
0030
,  // measure 25
3001
0000
0010
0100
0000
1000
0001
0000
,  // measure 26
0101
0000
0001
0000
1000
0100
0010
0001
1000
0010
1000
0001
0010
0100
0010
0001
,  // measure 27
0100
0000
0010
0000
1000
0001
0010
0001
1000
0000
0010
0000
0100
0000
0001
0000
,  // measure 28
1000
0000
0000
0000
0001
0000
0000
0000
0010
0000
0000
0100
0000
0000
0010
0000
,  // measure 29
0001
1000
0000
0000
0000
0000
0000
0000
0010
0000
0000
0000
0000
0000
0000
0000
0100
0000
0010
0000
1000
0000
0001
0000
0010
0000
0001
0000
1000
0000
0000
0000
,  // measure 30
0001
0000
0100
0000
1000
00M0
1000
0000
0001
0000
0010
0000
0002
0000
0013
0001
,  // measure 31
1000
0010
1000
0001
0010
0001
1000
0100
1000
0001
0100
0001
1000
0100
0010
0001
,  // measure 32
1000
0000
0010
0M00
0010
0000
0001
0000
0100
0001
0010
0100
1000
0000
0001
0000
,  // measure 33
0100
0010
1000
0001
0100
0001
1000
0100
1000
0001
0010
0001
1000
0010
0100
0001
,  // measure 34
1000
0000
0100
0000
0001
0000
1000
0000
0010
0000
0001
0000
2000
0000
3010
0100
,  // measure 35
0001
1000
0100
1000
0001
0100
0001
1000
0010
0100
0010
1000
0001
0010
0100
1000
,  // measure 36
0001
0000
0100
00M0
0100
0000
1000
0000
0010
1000
0100
0010
0001
0000
1000
0000
,  // measure 37
0010
0100
0001
1000
0100
0010
0100
1000
0001
0100
0010
0100
0001
1000
0100
0010
,  // measure 38
0001
0000
0100
0000
1000
00M0
1000
0000
0001
0000
0010
0000
0002
0000
1003
0010
,  // measure 39
0100
0001
1000
0100
0010
0100
1000
0001
0100
0001
1000
0100
1000
0001
0100
0001
,  // measure 40
1000
0000
0010
0M00
0010
0000
0001
0000
0100
0001
0010
0100
1000
0000
0001
0000
,  // measure 41
0100
0010
1000
0001
0010
0100
0010
0001
1000
0010
0100
0010
1000
0001
0010
0100
,  // measure 42
1000
0000
0100
0000
0001
00M0
0001
0000
1000
0010
1000
0001
0010
0001
1000
0010
,  // measure 43
0100
0001
1000
0100
0010
0100
1000
0001
0100
0010
1000
0001
0010
0001
1000
0010
,  // measure 44
0100
M000
0100
0000
1000
0000
0001
0010
0001
0000
1000
0000
0012
0000
0000
0000
,  // measure 45
0010
0000
0000
0000
1000
0000
0010
0000
1003
0100
0001
0100
1000
0001
0100
0010
,  // measure 46
1000
0000
0001
0010
0001
1000
0010
0100
0001
0000
1000
0000
0102
1000
0000
0100
,  // measure 47
0000
0000
1000
0000
0100
0000
1003
0000
0001
0100
1000
0100
0001
0010
0100
1000
,  // measure 48
0010
0M00
0010
0000
0001
0000
0000
0000
1000
0000
0010
0000
0100
0001
1000
0001
,  // measure 49
0010
0000
0010
0100
1000
0000
1000
0000
1000
0001
0100
0010
0100
0001
1000
0100
,  // measure 50
0010
0000
0001
0000
1000
0000
0010
0100
0010
0000
1000
0000
0001
0010
0100
0010
,  // measure 51
0001
1000
0010
0100
2000
0000
3100
0001
1000
0100
0010
0000
0001
1000
0001
0100
,  // measure 52
0010
1000
0001
0010
,  // measure 53
0002
0000
0000
0000
1003
0010
0100
0000
,  // measure 54
0001
0000
0010
0000
0100
1000
0000
0001
,  // measure 55
1000
0001
0100
0000
0020
0000
0030
0000
,  // measure 56
0000
0000
0000
1000
0000
0000
0000
0000
0000
0000
0001
0000
0000
0000
0000
0000
0000
0000
0010
0000
0000
0000
0000
0000
0000
0000
0100
0000
0000
0000
0000
0000
,  // measure 57
1000
0000
0000
0000
0001
0010
0001
0000
,  // measure 58
1000
0010
0100
0000
0001
0000
1000
0000
,  // measure 59
0100
0000
0001
0100
0010
0001
1000
0010
,  // measure 60
2100
0000
0000
0000
3001
0000
0000
0010
0000
0000
0001
0000
1000
0001
0010
0001
,  // measure 61
0100
0000
0010
0000
1000
0000
0001
0100
0010
0000
1000
0000
0001
0010
0100
1000
,  // measure 62
0012
0000
1003
0000
0100
0000
1000
0001
0100
0000
0010
0000
0100
0001
1000
0001
,  // measure 63
0010
0000
0001
1000
0010
0000
0010
0100
0001
0000
0001
0010
0100
0010
0001
1000
,  // measure 64
0012
0000
1003
0000
0200
0000
0000
1300
0001
0000
0100
0000
0001
1000
0010
0100
,  // measure 65
0001
0010
0100
1000
0001
0000
0010
0001
0100
0010
1000
0000
0001
0100
0010
1000
,  // measure 66
0102
0000
2003
0000
3020
0000
0130
0000
0002
0000
2003
0000
3100
0010
0100
1000
,  // measure 67
0001
0000
0001
0100
0010
0000
0010
1000
0001
0000
0001
0010
0100
1000
0001
0100
,  // measure 68
0010
0000
1000
0100
0010
0001
0010
0001
1000
0010
1000
0010
0100
0001
0100
0001
,  // measure 69
1000
0100
1000
0100
0010
0001
0010
0001
1000
0010
1000
0010
0100
0001
0100
0001
,  // measure 70
0010
0M00
0010
0000
1000
0001
0010
0100
0010
0001
1000
0000
0010
0100
0001
1000
,  // measure 71
0200
0000
1300
0001
0100
0010
0100
0001
1000
0100
0010
0100
1000
0001
0100
0010
,  // measure 72
2000
0000
0000
0000
3100
0000
0001
0000
1000
0000
0010
0000
0001
1000
0010
0100
,  // measure 73
0001
1000
0100
1000
0001
0000
0100
0010
0100
0001
1000
0000
0100
0010
0001
1000
,  // measure 74
0100
00M0
0100
0000
0001
0000
1000
0000
0010
0000
0100
0000
0001
1000
0100
1000
,  // measure 75
0001
0000
0100
0010
1000
0001
0010
0000
0001
1000
0010
0100
0010
1000
0001
0010
,  // measure 76
0400
0000
0000
0000
1300
0001
0020
000M
,  // measure 77
2030
3002
0203
0010
0302
2003
3200
0320
,  // measure 78
0031
0000
1000
0010
0000
1000
0002
0000
,  // measure 79
2003
3200
0010
2300
3002
0203
0310
MMMM
,  // measure 80
1001
0000
0000
1000
0000
0000
0100
0000
0000
0010
0000
0000
0001
0000
1000
0000
,  // measure 81
0010
0000
0000
0100
0000
0000
0001
0000
1000
0100
1000
0001
0100
0001
1000
0000
,  // measure 82
0001
0000
0100
0000
1000
00M0
1000
0000
0001
0000
0010
0000
0200
0000
0310
0001
,  // measure 83
1000
0010
0100
0010
1000
0001
0010
0001
1000
0010
0100
0001
1000
0100
1000
0001
,  // measure 84
0020
0000
0000
0000
,  // measure 85
0030
0000
0000
0000
;

//---------------dance-single - ----------------
#NOTES:
     dance-single:
     :
     Hard:
     10:
     0.708996,0.755655,0.077305,0.602978,0.463829,642.000000,632.000000,10.000000,78.000000,15.000000,1.000000,0.708996,0.755655,0.077305,0.602978,0.463829,642.000000,632.000000,10.000000,78.000000,15.000000,1.000000:
0000
0000
0000
2001
,
0000
0000
0000
0000
3001
1000
0020
0000
,
0130
0001
1000
0100
0010
0100
2000
0000
,
0000
0000
3001
0100
0010
1000
0001
0000
0010
0000
0001
1000
0001
1000
0001
0000
,
0100
0000
0000
0000
0020
0000
1030
0000
0002
0000
0013
0000
0100
1000
0001
0100
,
0020
0000
0000
2030
,
3100
0010
0002
1003
0010
0100
0210
0000
,
0000
0000
0000
0000
0000
0000
0000
0000
0310
1000
0001
0010
0000
0001
1000
0010
,
0200
0000
0000
0300
0101
0000
0000
0000
0001
1000
0100
0000
0000
0000
0010
0001
,
1000
0000
0000
0000
0001
1000
0010
0000
0200
0000
0302
0000
2003
0000
3002
0000
,
0023
0000
0130
0000
0010
0000
0001
1000
,
0010
0000
0100
0000
0010
0000
1000
0100
,
0010
0000
0001
1000
0010
0100
0001
0000
,
1000
0000
0100
1000
0000
0010
0100
0001
,
2010
0000
0000
3000
0001
0000
2100
0000
0000
3000
0001
0000
0010
0000
0102
0000
,
1003
0010
0100
0012
1003
0102
2013
3001
,
1000
0000
0100
00M0
0100
0000
0001
0000
0010
0001
0100
0000
0010
0000
1000
0000
,
0001
1000
0010
0000
1000
0001
1000
0000
0001
0010
0100
0000
1000
0010
0100
0000
,
0001
0000
1000
0000
0100
00M0
0100
0000
0001
0000
0010
0000
0200
0000
1300
0001
,
0100
0010
1000
0100
0010
0001
0100
0010
,
2000
0000
3001
0020
,
0130
0000
0000
1000
0001
0000
0100
0000
0010
0000
1000
0000
0100
0000
0010
0000
,
0002
0000
0000
0000
1003
0000
0010
0100
0002
0000
0000
0000
0000
0003
1000
0100
,
0020
0000
0032
0000
,
2003
0000
0000
0020
0030
0000
0020
0030
,
3001
0000
0010
0100
0000
1000
0001
0000
,
1000
0000
0010
0000
0100
0001
1000
0000
0100
0010
0001
1000
0010
0100
0001
2000
,
0000
0000
3100
0000
0010
0100
1000
0001
0100
0000
0010
0000
1000
0000
0200
0000
,
0310
0000
0000
0000
0001
0000
0000
0000
1000
0000
0000
0010
0000
0000
0100
0000
,
0001
0000
0000
0000
1000
0000
0000
0000
0001
0000
0010
0001
0000
1000
0010
0000
,
0100
0000
0001
0000
0010
0M00
0010
0000
1000
0000
0001
0000
0020
0000
0130
1000
,
0001
0100
0010
1000
0001
0010
0100
1000
,
0001
0000
0100
00M0
0100
0000
1000
0000
0010
1000
0100
0000
0010
0000
0001
0000
,
1000
0010
1000
0000
0001
0010
0001
0000
1000
0100
1000
0000
0001
0100
0001
0000
,
1000
0000
0100
0000
0001
0000
1000
0000
0010
0000
0001
0000
2000
0000
3010
0100
,
0001
0000
1000
0100
0010
0000
0001
0100
0010
0000
1000
0010
0100
0000
0001
0000
,
1000
0000
0100
00M0
0100
0000
0001
0000
0100
0001
0010
0000
0100
0000
1000
0000
,
0010
0100
0001
0000
1000
0010
0100
0000
0001
1000
0100
0000
1000
0001
0010
0000
,
0001
0000
1000
0000
0010
0M00
0010
0000
0001
0000
1000
0000
0020
0000
1030
0010
,
0100
0000
0001
0010
0001
0000
1000
0001
0100
0000
0001
1000
0010
0000
1000
0000
,
0001
0000
0100
00M0
0100
0000
1000
0000
0100
1000
0010
0000
0100
0000
0001
0000
,
1000
0100
0010
0000
0001
1000
0010
0000
0100
0001
1000
0000
0001
0010
0100
0000
,
1000
0000
0001
0000
0010
0M00
0010
0000
1000
0000
0001
0000
0020
0000
0031
1000
,
0010
0000
0100
0001
1000
0000
0001
0010
0100
0000
1000
0010
0100
0000
0001
1000
,
0100
M000
0100
0000
0001
0000
0000
0000
1000
0000
0010
0000
0200
0000
0000
0000
,
0010
0000
0000
0000
0001
0000
0010
0000
1300
0001
0010
0000
0100
0000
1000
0000
,
0001
0000
1000
0010
1000
0000
0001
0000
0010
0000
0100
0000
2000
0010
0000
0001
,
0000
0000
0100
0000
0001
0000
0010
0000
3001
1000
0100
0000
1000
0000
0001
0000
,
0010
0M00
0010
0000
1000
0000
0000
0000
0001
0000
0010
0000
0100
0000
0010
0001
,
1000
0000
0010
0100
0001
0000
0001
0000
0001
0000
0001
0000
0001
0000
0000
0000
,
1000
0000
0100
0000
1000
0000
0010
0000
0100
0000
0001
0000
1000
0001
0010
0001
,
1000
0100
0002
0000
0203
0000
1300
0001
,
0100
0001
1000
0010
,
2000
0000
0000
0000
3001
0010
0100
0000
,
1000
0000
0010
0000
0100
0001
0000
1000
,
0001
1000
0100
0000
0020
0000
0030
0000
,
0000
0001
0000
0000
0000
1000
0000
0000
0000
0010
0000
0000
0000
0100
0000
0000
,
0001
0000
0000
0000
1000
0010
1000
0000
,
0001
0010
0100
0000
1000
0000
0001
0000
,
0100
0000
1000
0100
0010
1000
0001
0010
,
0012
0000
0000
0000
1003
0000
0000
0010
0000
0000
0100
0000
0001
1000
0100
1000
,
0001
0000
0010
0000
0001
0000
0100
0000
0010
0000
1000
0000
0001
0010
0001
1000
,
0020
0000
1030
0000
0100
0000
0000
0000
0010
0000
0001
0000
0100
0001
1000
0001
,
0010
0000
0100
1000
0001
0000
0001
0000
0001
0000
0001
0000
1000
0000
0010
0000
,
0200
0000
0301
0000
2000
0000
0000
0000
3200
0000
0000
0000
0310
0001
1000
0000
,
0010
0100
0010
0000
1000
0000
0001
0010
0001
0000
1000
0000
0001
0100
0010
1000
,
0200
0000
0320
0000
0032
0000
0000
0000
2003
0000
3020
0000
0230
0000
0301
1000
,
0100
0000
0010
0001
1000
0000
0010
0100
0001
0000
1000
0100
0010
0000
0001
0100
,
0040
4030
3004
0043
,
0430
4300
3004
4003
,
3010
0000
1000
0000
0100
0000
0000
0000
0010
0000
0001
0000
2000
0000
3010
0100
,
0001
0000
1000
0001
0100
0000
0100
0000
0100
0000
0100
0000
0001
0000
1000
0000
,
0002
0000
0013
1000
0001
0100
1000
0001
,
0020
0032
0203
0000
0320
2030
3002
0000
,
0103
0000
0001
0000
0010
0000
0000
0000
0001
0000
1000
0000
0010
0000
0100
0001
,
1000
0000
0001
1000
0010
0000
0010
0000
0100
0001
1000
0001
0010
0000
0100
0000
,
4000
0000
0000
0000
3001
1000
0020
0000
,
2030
3002
0023
0000
0032
2003
3020
0230
,
0301
0000
1000
0010
0000
1000
0002
0000
,
2003
3200
0000
2300
3002
0203
0310
MMMM
,
1000
0000
0000
0100
0000
0000
0010
0000
0000
0001
0000
0000
1000
0000
0010
0000
,
0100
0000
0000
0010
0000
0000
1000
0000
0001
0100
0001
1000
0100
1000
0001
0000
,
1000
0000
0001
0000
0100
00M0
0100
0000
1000
0000
0010
0000
0200
0000
0310
1000
,
0001
0000
0010
0100
1000
0000
0001
0100
0010
0000
1000
0001
0100
0000
0001
1000
,
0020
0000
0000
0000
,
0030
0000
0000
0000
;

//---------------dance-single - ----------------
#NOTES:
     dance-single:
     :
     Medium:
     8:
     0.567638,0.591382,0.085035,0.602978,0.077305,514.000000,503.000000,11.000000,78.000000,10.000000,0.000000,0.567638,0.591382,0.085035,0.602978,0.077305,514.000000,503.000000,11.000000,78.000000,10.000000,0.000000:
0000
0000
0000
2001
,
0000
0000
0000
0000
3001
1000
0200
0000
,
0300
0010
0001
1000
0000
0000
2010
0000
,
0000
3001
0010
0100
0010
0001
1000
0001
,
1000
0000
0020
1000
0130
0000
0001
1000
,
0200
0000
0000
0320
,
0031
1000
0020
0000
0130
0000
0210
0000
,
0000
0000
0000
0000
0310
1000
0001
0010
,
0001
0000
1001
0000
0001
0100
0000
0010
,
1000
0000
0001
0010
0200
2300
3002
2003
,
3020
0000
0130
0000
0010
0000
1000
0001
,
0010
0000
0100
0000
1000
0000
0001
0100
,
0010
0000
1000
0001
0010
0100
0010
0000
,
0001
0000
1000
0010
0000
0100
0001
1000
,
2100
0000
0000
0000
3000
0000
2001
0000
0000
3000
0001
0000
0000
0000
0012
0000
,
0000
1003
0000
1010
0000
1001
2100
0000
,
3001
0000
0100
00M0
0100
0000
1000
0000
0001
0000
0010
0000
0001
0000
1000
0000
,
0010
0100
0001
1000
0100
0010
0100
1000
,
0001
0000
1000
0000
0100
00M0
0100
0000
0001
0000
0010
0000
0200
0000
0000
0000
,
1300
0001
0100
0010
1000
0001
0010
0001
,
2000
0000
3001
0020
,
0130
0000
1000
0001
0100
0001
1000
0010
,
0200
0000
0301
0000
0200
0000
0000
0310
,
2000
0000
3002
0000
,
0023
0000
0000
0001
0000
0000
0001
0000
,
0130
0000
1000
0001
0000
0100
0010
0000
,
1000
0010
0100
0010
1000
0001
0010
0100
,
0002
0000
0103
1000
0001
0100
0010
1000
,
0100
0000
0000
0000
0010
0000
0000
0000
0001
0000
0000
1000
0000
0000
0010
0000
,
0000
0000
0000
0000
0100
0000
0000
0000
0010
0000
0000
1000
0000
0000
0001
0000
,
0010
0000
0001
0000
0100
00M0
0100
0000
1000
0000
0001
0000
0020
0000
0000
0000
,
0031
1000
0010
0100
0010
1000
0001
0100
,
0001
0000
0010
0M00
0010
0000
1000
0000
0001
0000
0010
0000
0100
0000
1000
0000
,
0001
0100
0010
1000
0001
0010
0001
1000
,
0010
0100
1000
0001
0010
1000
0002
0000
,
0103
0001
1000
0100
0010
0100
1000
0001
,
1000
0000
0100
00M0
0100
0000
0001
0000
1000
0000
0010
0000
0100
0000
0010
0000
,
1000
0001
0010
0100
1000
0001
0100
0001
,
1000
0000
0001
0000
0010
0M00
0010
0000
1000
0000
0001
0000
0020
0000
0000
0000
,
0130
0010
0001
1000
0010
0100
0001
1000
,
0001
0000
0100
00M0
0100
0000
1000
0000
0010
0000
0100
0000
0001
0000
1000
0000
,
0100
1000
0001
0010
0100
1000
0001
0100
,
0010
0000
1000
0000
0010
0M00
0010
0000
0001
0000
1000
0000
0020
0000
0000
0000
,
0130
0001
1000
0100
0010
0100
1000
0001
,
0100
0001
0010
0000
0001
1000
0020
0000
,
1030
0000
0001
1000
0100
0010
0001
1000
,
0010
0000
0000
0000
0100
0000
0000
0000
0001
0000
0000
0000
2000
0000
0000
3001
,
0000
0010
0001
1000
0010
0100
0001
0010
,
0100
1000
0001
0000
1000
0010
0100
0010
,
1000
0001
1000
1000
0100
0100
0010
0000
,
0001
0100
0001
1000
0000
0000
0001
0010
,
0001
1000
0020
0000
0230
0000
0301
1000
,
0100
0010
0001
1000
,
0020
0000
0000
0000
1030
0001
1000
0000
,
0100
0000
0010
0000
0001
1000
0000
0010
,
0100
0010
1000
0000
0002
0000
0003
0000
,
0000
1000
0000
0000
0000
0001
0000
0000
0000
0010
0000
0000
0000
0100
0000
0000
,
1000
0000
0000
0000
0001
0100
0001
0000
,
1000
0100
1000
0000
0001
0000
0100
0000
,
0010
0000
1000
0100
0010
0001
1000
0010
,
2010
0000
0000
0000
3001
0000
0000
0010
0000
0000
0100
0000
1000
0000
0010
0000
,
0100
0001
0000
1000
0200
0310
0001
1000
,
0010
1000
0001
0000
0010
0100
1000
0001
,
0100
0010
1000
1000
0001
0001
0010
0000
,
0200
1300
0002
0000
0203
0000
0310
1000
,
0100
0010
0001
0100
0010
1000
0100
1000
,
0002
2003
3002
0000
2003
3020
0230
0000
,
0310
1000
0001
0010
,
0200
0320
0032
2003
,
3020
0230
0302
2003
,
3100
1000
0001
0000
0010
0001
2000
3010
,
0100
0001
1000
1000
0001
0001
0010
0100
,
2000
0000
3010
0001
1000
0100
0001
1000
,
0020
1030
0200
0000
0320
0032
2003
0000
,
3010
0100
0001
0000
1000
0001
0010
0100
,
1000
0001
1000
1000
0010
0010
0100
0001
,
2000
0000
0000
0000
3001
0010
0200
0000
,
0320
0032
2003
0000
3020
0230
0302
2003
,
3001
0000
1000
0010
0000
1000
0002
0000
,
0023
0230
0000
2300
3002
0203
0310
00M0
,
0001
0000
0000
1000
0000
0000
0100
0000
0000
1000
0000
0000
0010
0000
0100
0000
,
0001
0000
0000
1000
0000
0000
0100
0000
1000
0000
0001
0000
0100
0000
0010
0000
,
1000
0000
0001
0000
0100
00M0
0100
0000
1000
0000
0001
0000
0010
0000
0100
0000
,
0010
0001
1000
0100
1000
0001
0100
0010
,
2000
0000
0000
0000
,
3000
0000
0000
0000
;

//---------------dance-single - ----------------
#NOTES:
     dance-single:
     :
     Easy:
     5:
     0.283819,0.389616,0.007730,0.139149,0.000000,257.000000,256.000000,1.000000,18.000000,0.000000,0.000000,0.283819,0.389616,0.007730,0.139149,0.000000,257.000000,256.000000,1.000000,18.000000,0.000000,0.000000:
0000
0000
0000
2001
,
0000
0000
3001
0100
,
0000
0001
1000
0200
,
0000
0000
0310
0001
,
1000
0010
0200
0000
,
0302
0000
0000
1003
,
0100
0010
0100
2000
,
0000
0000
3001
0100
,
0010
1000
0001
0000
,
1000
0000
0100
0010
,
0001
1000
0010
1000
,
0001
0010
0100
1000
,
0001
0000
0000
0000
,
1000
0000
0000
0010
0000
0000
0100
0000
,
0001
0000
0000
1000
0000
0000
0000
0100
,
0000
0000
0000
0010
0000
0001
1000
0000
,
0010
0000
0100
0000
0001
1000
0001
0000
,
0010
0100
1000
0001
,
0100
0000
0010
0100
0001
0000
1000
0000
,
0100
1000
0001
0100
,
0020
0000
0130
0000
,
0001
0000
1000
0100
,
0020
0000
0032
0000
,
2003
0000
3020
0000
,
0130
0000
0000
0000
,
0001
0000
0000
0000
,
1000
0000
0100
0010
,
0001
0100
0001
1000
,
0100
0000
0000
0000
,
1000
0000
0001
0100
,
0010
0000
0100
0001
1000
0000
0100
0000
,
0010
0001
1000
0010
,
1000
0000
0001
0000
0010
0001
0100
0000
,
0010
1000
0001
0010
,
0100
1000
0001
0100
0010
0000
1000
0000
,
0001
0010
0100
0010
,
0001
0000
1000
0000
0010
0100
0001
0000
,
1000
0100
1000
0001
,
0100
0000
0010
1000
0001
0000
0010
0000
,
0001
1000
0010
0100
,
0001
0000
1000
0000
0100
1000
0001
0000
,
0100
0010
1000
0001
,
1000
0000
0100
0010
0100
0000
1000
0000
,
0001
0100
0010
1000
,
0001
0000
1000
0002
,
0000
0000
0013
0100
,
1000
0000
0001
0200
,
0000
0000
0310
1000
,
0001
0010
0001
1000
,
0010
0100
0010
1000
,
0001
0000
0010
0000
,
0001
1000
0010
0100
,
0001
0000
0000
0000
,
2000
0000
0000
0000
,
3000
0000
0000
0000
,
0001
0000
0010
0000
,
0100
0000
1000
0000
,
0001
0000
0100
0000
,
0010
0000
0100
0000
,
0001
0000
1000
0000
,
0100
0010
0001
0000
,
1000
0000
0010
0000
,
0100
0001
1000
0000
,
0100
0000
0010
0000
,
0001
1000
0010
0000
,
0100
0000
0010
0000
,
1000
0001
0010
0001
,
1000
0010
0100
0001
,
2000
0000
3200
0000
,
0320
0000
0032
0000
,
1003
0010
0100
0000
,
0001
0000
1000
0001
,
2000
0000
3010
0100
,
0001
1000
0100
0010
,
0001
0000
1000
0010
,
0100
0000
0001
1000
,
0001
0000
1000
0100
,
0010
0000
0001
0000
,
1000
0000
0000
0010
0000
0000
0100
0000
,
0001
0000
1000
0100
,
1000
0000
0000
0001
0000
0000
0100
0000
,
0010
0000
0000
1000
0001
0000
0010
0000
,
0100
1000
0001
0100
,
0001
1000
0010
0100
,
0001
0000
0000
0000
;

//---------------dance-single - ----------------
#NOTES:
     dance-single:
     :
     Beginner:
     2:
     0.141357,0.162340,0.000000,0.000000,0.000000,128.000000,128.000000,0.000000,0.000000,0.000000,0.000000,0.141357,0.162340,0.000000,0.000000,0.000000,128.000000,128.000000,0.000000,0.000000,0.000000,0.000000:
0000
0000
0000
0001
,
0000
0000
1000
0000
,
0010
0000
0000
0100
,
0000
0000
0000
0000
,
0001
0000
0000
1000
,
0000
0000
0000
0000
,
0100
0000
0000
0010
,
0000
0000
0001
0000
,
1000
0000
0000
0000
,
0010
0000
0000
0000
,
0100
0000
0001
0000
,
1000
0000
0100
0000
,
0010
0000
0000
0000
,
0001
0000
0000
0000
,
1000
0000
0000
1000
0000
0000
0000
0001
,
0000
0000
0000
1000
0000
0000
0000
0000
,
0100
0000
0010
0000
,
0001
0000
1000
0000
,
0010
0000
0100
0000
,
0010
0000
1000
0000
,
0001
0000
0000
0000
,
1000
0000
0000
0000
,
0001
0000
0010
0000
,
0100
0000
1000
0000
,
0001
0000
0000
0000
,
0100
0000
0000
0000
,
0001
0000
0000
0000
,
1000
0000
0000
0000
,
0100
0000
0000
0000
,
0010
0000
0000
0000
,
0001
0000
0000
0000
,
1000
0000
0000
0000
,
0010
0000
0100
0000
,
0010
0000
1000
0000
,
0001
0000
0010
0000
,
0100
0000
1000
0000
,
0001
0000
0100
0000
,
0001
0000
1000
0000
,
0100
0000
0010
0000
,
0001
0000
1000
0000
,
0010
0000
0100
0000
,
0001
0000
1000
0000
,
0100
0000
0010
0000
,
0100
0000
1000
0000
,
0001
0000
0000
0000
,
1000
0000
0000
0000
,
0010
0000
0000
0000
,
0100
0000
0000
0000
,
0001
0000
1000
0000
,
0100
0000
0010
0000
,
0001
0000
1000
0000
,
0001
0000
0100
0000
,
0010
0000
0000
0000
,
1000
0000
0000
0000
,
0001
0000
0000
0000
,
0010
0000
0000
0000
,
0100
0000
0000
0000
,
1000
0000
0000
0000
,
0001
0000
0000
0000
,
0100
0000
0000
0000
,
0010
0000
1000
0000
,
0001
0000
0010
0000
,
0100
0000
0010
0000
,
0001
0000
0000
0000
,
1000
0000
0010
0000
,
0100
0000
0001
0000
,
1000
0000
0000
0000
,
0001
0000
0010
0000
,
0100
0000
1000
0000
,
0001
0000
0100
0000
,
0010
0000
0000
0000
,
1000
0000
0001
0000
,
0010
0000
0001
0000
,
1000
0000
0010
0000
,
0100
0000
0001
0000
,
1000
0000
0100
0000
,
0010
0000
0000
0000
,
0001
0000
0000
0000
,
1000
0000
0000
0000
,
0010
0000
0000
0000
,
0100
0000
0000
0000
,
0001
0000
1000
0000
,
0100
0000
0010
0000
,
0001
0000
1000
0000
,
0010
0000
0000
0000
;
