#TITLE:Smokin Out The Window;
#SUBTITLE:;
#ARTIST:Bruno Mars, Anderson .Paak, Silk Sonic;
#TITLETRANSLIT:;
#SUBTITLETRANSLIT:;
#ARTISTTRANSLIT:;
#GENRE:RnB;
#CREDIT:Feraligatr;
#BANNER:;
#BACKGROUND:sotw-bg.png;
#LYRICSPATH:;
#CDTITLE:;
#MUSIC:sotw.ogg;
#OFFSET:0.815000;
#SAMPLESTART:110.315002;
#SAMPLELENGTH:23.414000;
#SELECTABLE:YES;
#DISPLAYBPM:82.000000;
#BPMS:0.000000=82.000000
;
#STOPS:
;
#BGCHANGES:;
#KEYSOUNDS:;
#ATTACKS:;

//---------------dance-single - Feraligatr----------------
#NOTES:
     dance-single:
     Feraligatr:
     Challenge:
     9:
     0.561368,0.525308,0.246479,0.542253,0.742958,558.000000,519.000000,35.000000,77.000000,0.000000,10.000000,0.561368,0.525308,0.246479,0.542253,0.742958,558.000000,519.000000,35.000000,77.000000,0.000000,10.000000:
0000
0000
0000
0000
,
0000
0000
0000
0000
,
0000
0000
0000
0000
,
1000
0000
0000
0000
0000
0000
0000
0000
0000
0000
0000
0000
0000
0000
0000
0000
1000
0000
0000
0000
0000
0000
0000
0000
0000
0000
0000
0000
0000
0000
0000
0000
1000
0000
0000
0000
0000
0000
0000
0000
0000
0000
0000
0000
0000
0000
0000
0000
1000
0001
0000
0000
0100
0000
0000
0000
0000
0000
0000
0000
0000
0000
0000
0000
,
0110
0000
0100
0000
0010
1000
0001
0000
0100
0100
1000
0000
0100
0100
0001
0000
,
0100
0100
0010
0001
1000
0010
0002
0000
0013
0100
0002
1000
0010
0000
2003
0000
,
0100
0000
3001
1000
0200
0000
0320
0000
0032
0000
0103
0100
1000
0001
0100
0000
,
0020
0000
0130
0001
1000
0100
0002
0000
0103
0010
0002
1000
0100
0000
2003
0000
,
0001
0000
3010
1000
0100
0100
0002
0000
1003
0001
0100
0000
0020
0000
1030
0001
,
0020
0000
0031
1000
0010
1000
0100
0010
0200
0000
1300
0000
0001
1000
0010
0200
,
0001
0000
0000
0000
0320
0000
0000
0000
1030
0000
0001
0000
0010
0000
0200
0000
0000
0000
0000
0000
1300
0000
0001
0000
0100
0000
0000
0001
0000
1000
0000
0100
,
0020
0030
0011
0000
1111
0000
0110
0011
,
0010
0001
0100
1000
0000
0000
0100
0001
0010
1000
0000
0000
0010
0001
0100
0100
,
1000
0000
0010
1000
0100
0100
0001
0000
0010
0100
1000
0010
0001
1000
0100
0002
,
0010
0000
2003
0000
3100
0001
0100
0020
0001
0000
0130
0000
1000
0001
0100
0001
,
1000
0100
0000
0000
0010
0000
0000
0000
0001
0000
0000
0000
1000
0000
0000
0000
0010
0000
0000
0000
0000
0000
0000
0000
0100
0000
0000
0000
0000
0000
0000
0000
0011
0000
0000
0000
1100
0000
0000
0000
0000
0000
0000
0000
0000
0000
0000
0000
0011
0000
0000
0000
1100
0000
0000
0000
0000
0000
0000
0000
0000
0000
0000
0000
,
1001
0000
0001
0000
0010
0000
0100
2000
0000
0000
3010
0200
0001
0000
0310
1000
,
0001
0000
0000
0010
0000
0000
0001
0000
0000
0000
0000
0000
1000
0000
0001
0000
0010
0000
0100
0000
1000
0000
0000
0000
0000
0002
0000
0000
0000
0000
0000
0000
0000
0000
0000
0000
1003
0000
0000
0010
0000
0000
0001
0000
0000
2000
0000
0000
,
0100
0000
0000
0000
3100
0000
0000
0000
0010
0000
0000
0000
1000
0000
0000
0000
0001
0000
1000
0000
0100
0000
0000
0000
0010
0000
0000
0000
0001
0000
1000
0010
,
0200
0000
0301
1000
0200
0000
0310
0001
1000
0001
0200
0000
0010
0002
0300
1003
,
1100
0000
0000
0000
0100
0000
0000
0000
0010
0000
0000
0000
0001
0000
1000
0000
0020
0000
1000
0000
0130
0000
0000
0000
0010
0000
0000
0000
1000
0000
0001
0100
,
0001
0000
0000
1000
0000
0000
0200
0000
0000
0000
0000
0000
0010
0000
0000
0000
0000
0000
1300
0000
0000
0001
0000
0000
1000
0000
0000
0010
0000
0000
0100
0000
0001
0000
1000
0000
0100
0000
0010
0000
0001
0000
0100
0000
0010
0000
1000
0000
,
0200
0000
0000
0010
0001
0020
0002
0000
0000
0000
0030
0313
0001
2000
0000
3000
,
1020
0000
0000
0000
0000
0000
0000
0000
0000
0100
0000
0000
0001
0000
0000
0200
0000
0000
0002
0000
0000
0000
0000
0000
0000
0000
0000
0000
0000
0000
0000
0000
0000
0300
0000
0000
0133
0000
0010
0000
1000
0000
0001
0000
0010
0000
0001
0000
,
0100
0000
0000
0010
0000
0000
1010
0000
0000
1000
0000
0000
1001
0000
0000
0001
0000
0000
0011
0000
0000
1000
0001
0100
,
0011
1000
0000
1000
0000
1000
0101
1000
0000
1000
0000
1000
0011
0001
0200
0000
,
0010
0000
0301
0000
1000
0100
0100
0001
0020
0000
0130
1000
0001
0010
0010
1000
,
0200
0000
0310
0001
0100
1000
0002
0000
0013
0100
1000
0100
0010
0100
1000
0100
,
0110
0000
0001
0000
1000
0010
0010
0001
0200
0000
0310
1000
0100
0100
0002
0000
,
2003
0000
3010
1000
0100
0001
2000
0000
3010
0100
0002
0000
0103
0010
2000
0000
,
3010
0100
1000
0000
0001
1000
0010
0100
1000
0100
0002
0000
1003
0000
0100
0010
,
2000
0000
3001
0200
0000
1300
0010
0200
0002
0000
0000
0303
4000
0040
0000
3000
,
0130
0000
0000
0000
0001
0000
0000
0000
1000
0000
0100
0000
0010
0000
0001
0000
0100
0000
0010
0000
0000
0000
0100
0001
0020
0000
0000
0000
0130
0000
2000
0000
,
0000
3002
0000
0003
0101
0000
0000
0000
1111
0000
0000
0000
0110
0000
1010
0000
,
0010
1000
0100
0001
0000
0000
0100
1000
0010
0001
0000
0000
0010
1000
0100
0100
,
0001
0000
0010
0001
0100
0100
1000
0000
0010
0100
0001
0010
1000
0001
0100
2000
,
0010
0000
3002
0000
0103
1000
0100
0020
1000
0000
0130
0000
0001
1000
0100
1000
,
0001
0100
0000
0000
0010
0000
0000
0000
1000
0000
0000
0000
0001
0000
0000
0000
0010
0000
0000
0000
0000
0000
0000
0000
0100
0000
0000
0000
0000
0000
0000
0000
1010
0000
0000
0000
0101
0000
0000
0000
0000
0000
0000
0000
0000
0000
0000
0000
1010
0000
0000
0000
0101
0000
0000
0000
0000
0000
0000
0000
0000
0000
0000
0000
,
1001
0000
1000
0000
0010
0000
0100
0001
0100
0100
0010
0001
0100
0001
0010
0010
,
2000
0000
0000
0000
3200
0000
0000
0000
0310
0000
0001
0000
2000
0000
0000
0000
3010
0000
0100
0001
2000
0000
0000
0000
3001
0000
0010
0000
1000
0000
0002
0000
,
0100
0000
0103
0000
0010
0000
0001
0000
1000
0000
0010
1000
0001
0100
0001
0010
,
0200
0000
0000
0000
1300
0000
0001
0000
0200
0000
0000
0000
0310
0000
1000
0000
0001
0000
1000
0000
0100
0000
0010
0000
0001
0000
0200
0000
0000
0000
0310
1000
,
0001
0000
0000
0000
0010
0000
0000
0000
0100
0000
0000
0000
1000
0000
0001
0000
0020
0000
0001
0000
0130
0000
0000
0000
0010
0000
0000
0000
0001
0000
1000
0100
,
1000
0000
0000
0001
0000
0000
0200
0000
0000
0000
0000
0000
0010
0000
0000
0000
0000
0000
0301
0000
0000
1000
0000
0000
0001
0000
0000
0010
0000
0000
0100
0000
1000
0000
0001
0000
0100
0000
0010
0000
1000
0000
0100
0000
0010
0000
0001
0000
,
0200
0000
0000
0010
1000
0020
2000
0000
0000
0000
0030
3310
1000
0002
0000
0003
,
0021
0000
0000
0000
0000
0000
0000
0000
0000
0100
0000
0000
1000
0000
0000
0200
0000
0000
2000
0000
0000
0000
0000
0000
0000
0000
0000
0000
0000
0000
0000
0000
0000
0300
0000
0000
3130
0000
0010
0000
0001
0000
1000
0000
0010
0000
1000
0000
,
0100
0000
0000
0010
0000
0000
0011
0000
0000
0001
0000
0000
1001
0000
0000
1000
0000
0000
1010
0000
0000
0001
1000
0100
,
1010
0001
0000
0001
0000
0001
1100
0001
0000
0001
0000
0001
1010
1000
0200
0000
,
0000
0300
0000
0000
0000
0000
0000
0000
;

//---------------dance-single - Feraligatr----------------
#NOTES:
     dance-single:
     Feraligatr SH:
     Hard:
     8:
     0.422535,0.440581,0.084507,0.767606,0.464789,420.000000,408.000000,12.000000,109.000000,0.000000,0.000000,0.422535,0.440581,0.084507,0.767606,0.464789,420.000000,408.000000,12.000000,109.000000,0.000000,0.000000:
0000
0000
0000
0000
,
0000
0000
0000
0000
,
0000
0000
0000
0000
,
1000
0000
0000
0000
1000
0000
0000
0000
1000
0000
0000
0000
1000
0001
0000
0000
,
0101
0000
1000
0000
0010
0100
0001
0000
1000
0100
1000
0000
0001
0100
0001
0000
,
1000
0100
0010
0001
0100
0001
0020
0000
0000
0000
0230
0000
0000
0000
2300
0000
,
0001
0000
3100
1000
0002
0000
0203
0000
0320
0000
1030
0001
1000
0100
0010
0000
,
0002
0000
1003
0010
0100
0001
0020
0000
0000
0000
0230
0000
0000
0000
2300
0000
,
0001
0000
3100
1000
0001
0100
0020
0000
1030
0001
1000
0000
0200
0000
0310
0001
,
2000
0000
3000
0010
0000
0000
0100
0001
2000
0000
3000
0000
0001
0010
0100
2000
,
0000
0000
3002
0000
0103
0010
1000
0002
0000
0000
1003
0100
0020
0000
0000
0000
,
0032
0003
1000
0000
1001
0000
0001
0100
,
0001
0010
0100
1000
0000
0000
1000
0100
0010
0001
0000
0000
1000
0010
0100
0001
,
0010
0000
0001
0100
0010
1000
0100
0000
0000
0010
0001
1000
0010
0100
0001
2000
,
0000
0000
0200
0000
3300
1000
0001
0200
0000
0000
0020
0000
0330
1000
0100
0020
,
0000
0031
0100
0020
0000
0000
1030
0001
0000
0010
0000
0100
0000
2000
0000
3000
,
1001
0000
0001
0000
0100
0000
0010
2000
0000
0000
3100
0020
0000
0000
0000
0000
,
0031
1000
0001
0000
0100
0000
0010
1000
0001
1000
0100
0000
0010
0001
0200
0000
,
0000
0000
0310
1000
0001
0010
0100
1000
,
0020
0000
0130
0001
2000
0000
3100
0000
0010
0000
0200
0000
1300
0020
0000
0030
,
1010
1000
0001
0010
0200
0300
1000
0002
,
0000
0103
0020
0000
0000
0000
1030
0001
1000
0100
0010
0001
1000
0020
0000
0030
,
0210
0000
0000
0301
0100
0002
0200
0000
0000
0000
0003
0310
1000
0002
0000
0003
,
0021
0000
0000
0130
0010
0200
0020
0000
0000
0000
0000
0300
0031
0000
2000
0000
,
0010
0001
3200
0320
0001
0230
1300
0002
,
0100
0000
1000
0000
0203
0000
0320
0000
0100
0000
2030
0000
3001
1000
0200
0000
,
0010
0000
1300
0000
0001
0100
0001
1000
0200
0000
1300
0100
1000
0001
1000
0010
,
0200
0000
0301
1000
0100
1000
0020
0000
0100
0000
0130
0000
0100
0000
0100
0000
,
0110
0000
0010
0000
1000
0001
1000
0100
0020
0000
0031
1000
0001
0100
0020
0000
,
2030
0000
3001
0010
0100
1000
0020
0000
1030
0010
2000
0000
3001
0010
0002
0000
,
1003
0000
0001
0000
0100
0010
1000
0001
0010
0100
2000
0000
3001
0000
1000
0100
,
0020
0000
0031
2000
0000
3001
0100
0010
2000
0000
0000
3000
0004
0000
0000
0000
,
0013
0000
0100
0000
1000
0001
0100
0010
1000
0001
0000
0010
0200
0000
1300
0002
,
0000
0203
0000
0000
0310
0000
0000
0000
1001
0000
0000
0000
1000
0000
0010
0000
,
1000
0100
0010
0001
0000
0000
0001
0010
0100
1000
0000
0000
0001
0100
0010
1000
,
0100
0000
1000
0010
0100
0001
0010
0000
0000
0100
1000
0001
0100
0010
1000
0002
,
0000
0000
0020
0000
0033
0001
1000
0020
0000
0000
0200
0000
0330
0001
0010
0200
,
0000
1300
0010
0200
0000
0000
0301
2000
0000
0000
3100
0020
0000
0032
0000
0003
,
1001
0000
1000
0000
0010
0000
0100
0002
0000
0000
0013
0200
0000
0000
0000
0000
,
2300
0000
3002
0000
0103
0010
2000
0000
3002
0000
0013
0000
0100
1000
0020
0000
,
0000
0000
0130
0001
1000
0100
0010
0001
,
0200
0000
0310
0000
2000
0000
3001
1000
0200
0000
0310
0000
0001
0200
0000
0300
,
0101
0001
1000
0100
0020
0030
0001
2000
,
0000
3010
0200
0000
0000
0000
0301
1000
0001
0010
0100
1000
0001
0200
0000
0300
,
0120
0000
0000
1030
0010
2000
0020
0000
0000
0000
3000
0130
0001
2000
0000
3000
,
1200
0000
0000
0310
0100
0020
0200
0000
0000
0000
0000
0030
1300
0000
0002
0000
,
0100
1000
0023
0230
1000
0320
0031
2000
,
0010
0000
0001
0000
3020
0000
0230
0000
0010
0000
0302
0000
1003
0001
0020
0000
,
0000
0030
0000
0000
0000
0000
0000
0000
;

//---------------dance-single - Feraligatr----------------
#NOTES:
     dance-single:
     Feraligatr SM:
     Medium:
     6:
     0.273642,0.288072,0.098592,0.309859,0.014085,272.000000,258.000000,14.000000,44.000000,0.000000,0.000000,0.273642,0.288072,0.098592,0.309859,0.014085,272.000000,258.000000,14.000000,44.000000,0.000000,0.000000:
0000
0000
0000
0000
,
0000
0000
0000
0000
,
0000
0000
0000
0000
,
1000
1000
1000
1000
,
1001
0000
1000
0100
0010
0001
1000
0001
,
0100
0010
1000
0200
0000
0320
0000
0032
,
0000
1003
0001
0100
0010
1000
0001
0010
,
0100
1000
0001
0200
0000
0320
0000
2030
,
0000
3001
1000
0100
1000
0001
0100
0010
,
1000
0000
0001
0010
0100
1000
0001
0100
,
0020
1030
0001
0010
0200
1300
0001
0000
,
0000
0000
1000
0000
1001
0000
0001
1000
,
0001
0100
0001
1000
0100
1000
0001
0100
,
0010
1000
0100
0010
0000
0001
1000
0010
,
0200
0000
0301
1000
0100
0010
0001
0000
,
1001
0000
0000
0000
1000
0000
0001
0000
0100
0010
0000
0000
0100
0010
0000
0000
,
1001
1000
0100
0010
0001
1000
0020
0000
,
0130
0000
0001
1000
0100
0000
0010
0002
,
0000
0000
1003
0010
0100
0001
1000
0200
,
0010
0000
0310
0000
0010
0001
1000
0000
,
1010
0010
0100
0001
2000
3000
0100
0020
,
0000
0032
0000
0003
0000
0000
1000
0010
,
2010
0000
0000
3001
,
0021
0000
0000
0000
0000
0000
0130
2000
,
0000
0000
3001
0200
0000
0310
0000
2000
,
0000
0000
3001
0020
0000
0130
1000
0020
,
0000
0030
1000
0100
0020
0031
0100
0001
,
0020
0130
1000
0020
0100
0130
0100
0100
,
0101
0000
0001
1000
0200
0310
0001
0010
,
0200
1300
0001
0200
0310
0100
0010
0100
,
0001
0000
1000
0100
0010
0001
0000
1000
,
0020
0000
0130
0001
1000
0000
0200
0000
,
0310
0000
0001
1000
0010
0000
1000
0100
,
0010
0000
0001
0000
1001
0000
1000
0001
,
1000
0010
1000
0001
0010
0001
1000
0010
,
0100
0001
0010
0100
0000
1000
0001
0100
,
0020
0000
1030
0001
0010
0100
1000
0000
,
1001
0000
0000
0000
0001
0000
1000
0000
0010
0100
0000
0000
0010
0100
0000
0000
,
1001
0001
0010
0100
1000
0001
0200
0000
,
0310
0000
1000
0001
0010
0000
0100
2000
,
0000
0000
3001
0100
0010
1000
0001
0020
,
0100
0000
0130
0000
0100
1000
0001
0000
,
0101
0100
0010
1000
0002
0003
0010
0200
,
0000
2300
0000
3000
0000
0000
0001
0100
,
0102
0000
0000
1003
,
1200
0000
0000
0000
0000
0000
0310
0002
,
0000
0000
1003
0020
0000
0130
0000
0002
,
0000
0000
1003
0200
0000
0310
0001
2000
,
0000
3000
0000
0000
0000
0000
0000
0000
;

//---------------dance-single - Feraligatr----------------
#NOTES:
     dance-single:
     Feraligatr SE:
     Easy:
     5:
     0.181087,0.235387,0.169014,0.049296,0.000000,180.000000,156.000000,24.000000,7.000000,0.000000,0.000000,0.181087,0.235387,0.169014,0.049296,0.000000,180.000000,156.000000,24.000000,7.000000,0.000000,0.000000:
// measure 0
0000
0000
0000
0000
,  // measure 1
0000
0000
0000
0000
,  // measure 2
0000
0000
0000
0000
,  // measure 3
1000
1000
1000
1000
,  // measure 4
1001
0001
0100
0010
,  // measure 5
1000
0001
0010
0000
,  // measure 6
0100
1000
0001
0100
,  // measure 7
0010
1000
0001
0000
,  // measure 8
0010
0100
1000
0001
,  // measure 9
0100
0010
1000
0000
,  // measure 10
0001
0010
0100
1000
,  // measure 11
0000
0001
1001
1000
,  // measure 12
0001
0000
0000
1000
0000
0000
0001
0000
,  // measure 13
0000
0010
0000
0000
0100
0000
1000
0000
,  // measure 14
0001
0000
0100
0000
,  // measure 15
1010
1000
1001
1001
,  // measure 16
0011
0000
0010
0000
0100
1000
0001
0000
,  // measure 17
0100
0010
1000
0001
,  // measure 18
0010
0000
0100
1000
0100
1000
0100
0020
,  // measure 19
0001
0030
0001
0000
0001
0000
0001
0000
,  // measure 20
1001
1000
0010
0000
,  // measure 21
0100
0001
1000
0000
,  // measure 22
1200
0000
0000
0300
,  // measure 23
0201
0000
0000
0300
,  // measure 24
1000
0001
0010
0100
,  // measure 25
1100
0000
0000
1100
0000
0000
1100
0000
,  // measure 26
0000
0001
0100
0001
,  // measure 27
0100
0001
0010
0010
,  // measure 28
0110
0100
1000
0001
,  // measure 29
0100
0010
1000
0000
,  // measure 30
0001
0010
0100
0010
,  // measure 31
0001
1000
0010
0200
,  // measure 32
0301
1000
0100
0010
,  // measure 33
0001
1000
1001
0001
,  // measure 34
1000
0000
0000
0001
0000
0000
1000
0000
,  // measure 35
0000
0100
0000
0000
0010
0000
0001
0000
,  // measure 36
1000
0000
0010
0000
,  // measure 37
0101
0001
1001
1001
,  // measure 38
1100
0000
0100
0000
0010
0001
1000
0000
,  // measure 39
0010
0100
0001
1000
,  // measure 40
0100
0000
0010
0001
0010
0001
0010
0200
,  // measure 41
1000
0300
1000
0000
1000
0000
1000
0000
,  // measure 42
1001
0001
0100
0000
,  // measure 43
0010
1000
0001
0000
,  // measure 44
0021
0000
0000
0030
,  // measure 45
1020
0000
0000
0030
,  // measure 46
0001
1000
0100
0010
,  // measure 47
0011
0000
0000
0011
0000
0000
0011
0000
;

//---------------dance-single - Feraligatr----------------
#NOTES:
     dance-single:
     Feraligatr SN:
     Beginner:
     2:
     0.105634,0.134507,0.070423,0.000000,0.000000,105.000000,95.000000,10.000000,0.000000,0.000000,0.000000,0.105634,0.134507,0.070423,0.000000,0.000000,105.000000,95.000000,10.000000,0.000000,0.000000,0.000000:
// measure 0
0000
0000
0000
0000
,  // measure 1
0000
0000
0000
0000
,  // measure 2
0000
0000
0000
0000
,  // measure 3
1000
1000
1000
1000
,  // measure 4
1000
0000
0001
0000
,  // measure 5
0100
0000
0010
0000
,  // measure 6
1000
0000
0001
0000
,  // measure 7
0010
0000
0100
0000
,  // measure 8
0010
0000
0001
0000
,  // measure 9
1000
0000
0010
0000
,  // measure 10
0100
0000
0001
0000
,  // measure 11
0000
1000
1000
1000
,  // measure 12
1001
0000
0000
0001
,  // measure 13
0000
0000
1000
0100
,  // measure 14
0010
0000
0001
0000
,  // measure 15
1000
0000
0110
0000
,  // measure 16
1001
0000
0001
0000
,  // measure 17
1000
0000
0100
0000
,  // measure 18
0010
0000
0001
0000
,  // measure 19
1000
1000
1000
1000
,  // measure 20
0100
0000
0010
0000
,  // measure 21
0001
0000
1000
0000
,  // measure 22
0110
0000
0000
0000
,  // measure 23
1001
0000
0000
0000
,  // measure 24
1000
0000
0100
0000
,  // measure 25
1000
0000
0010
0000
,  // measure 26
0100
0000
0000
0000
,  // measure 27
0000
0000
0001
0001
,  // measure 28
0001
0000
1000
0000
,  // measure 29
0100
0000
0010
0000
,  // measure 30
0001
0000
1000
0000
,  // measure 31
0010
0000
0100
0000
,  // measure 32
0001
0000
1000
0000
,  // measure 33
0100
1000
1000
1000
,  // measure 34
1001
0000
0000
1000
,  // measure 35
0000
0000
0001
0100
,  // measure 36
0010
0000
1000
0000
,  // measure 37
0001
0000
0110
0000
,  // measure 38
1001
0000
1000
0000
,  // measure 39
0001
0000
0100
0000
,  // measure 40
0010
0000
1000
0000
,  // measure 41
0001
0001
0001
0001
,  // measure 42
0100
0000
0010
0000
,  // measure 43
1000
0000
0001
0000
,  // measure 44
0110
0000
0000
0000
,  // measure 45
1001
0000
0000
0000
,  // measure 46
0001
0000
0100
0000
,  // measure 47
0001
0000
0010
0001
;
