#VERSION:0.83;
#TITLE:Shower Beer;
#SUBTITLE:;
#ARTIST:Smigonaut;
#TITLETRANSLIT:;
#SUBTITLETRANSLIT:;
#ARTISTTRANSLIT:;
#GENRE:;
#ORIGIN:;
#CREDIT:;
#BANNER:Shower Beer-bn.png;
#BACKGROUND:Shower Beer-bg-wide.png;
#PREVIEWVID:;
#JACKET:Shower Beer-jacket.png;
#CDIMAGE:;
#DISCIMAGE:;
#LYRICSPATH:;
#CDTITLE:cd-title-Benpai.png;
#MUSIC:Shower Beer.ogg;
#OFFSET:0.008000;
#SAMPLESTART:54.846657;
#SAMPLELENGTH:13.713797;
#SELECTABLE:YES;
#DISPLAYBPM:140.000000;
#BPMS:0.000=140.000,
31.000=69.000,
31.063=191.500,
32.000=140.000,
78.000=105.000,
79.000=210.000,
80.000=140.000,
133.000=210.000,
133.250=105.000,
133.500=210.000,
133.750=105.000,
134.250=210.000,
134.500=140.000,
134.750=210.000,
135.250=140.000,
174.000=105.000,
175.000=210.000,
176.000=140.000;
#STOPS:31.000=0.080,
134.750=0.071;
#DELAYS:;
#WARPS:;
#TIMESIGNATURES:0.000=4=4;
#TICKCOUNTS:0.000=4;
#COMBOS:0.000=1;
#SPEEDS:0.000=1.000=0.000=0;
#SCROLLS:0.000=1.000;
#FAKES:;
#LABELS:0.000=Song Start;
#BGCHANGES:31.000=Shower Beer-bg-wide-nice69.png=2.000=0=0=1=====,
31.500=Shower Beer-bg-wide.png=1.000=0=0=1=====,
63.000=Shower Beer-bg-wide-well-done.png=2.000=0=0=1=====,
63.750=Shower Beer-bg-wide.png=1.000=0=0=1=====,
159.000=Shower Beer-bg-wide-woah.png=1.000=0=0=1=====,
160.000=Shower Beer-bg-wide.png=1.000=0=0=1=====,
99999=-nosongbg-=1.000=0=0=0 // don't automatically add -songbackground-
;
#KEYSOUNDS:;
#ATTACKS:
;

//---------------dance-single - Benpai----------------
#NOTEDATA:;
#CHARTNAME:Benpai;
#STEPSTYPE:dance-single;
#DESCRIPTION:Benpai;
#CHARTSTYLE:;
#DIFFICULTY:Challenge;
#METER:11;
#RADARVALUES:0.895485,1.411776,0.087061,0.174122,1.558392,720.000000,710.000000,10.000000,20.000000,25.000000,0.000000,5.000000,0.000000,0.000000,0.895485,1.411776,0.087061,0.174122,1.558392,720.000000,710.000000,10.000000,20.000000,25.000000,0.000000,5.000000,0.000000,0.000000;
#CREDIT:Benpai;
#DISPLAYBPM:140.000000;
#NOTES:
// measure 0
0000
0000
0000
0000
,  // measure 1
0000
0000
0000
0000
,  // measure 2
0000
0000
0000
0000
,  // measure 3
0000
0000
0000
0000
,  // measure 4
0000
0000
0000
0000
,  // measure 5
0000
0000
0000
0000
,  // measure 6
0000
0000
0000
0000
,  // measure 7
0000
0000
0000
00M0
,  // measure 8
0001
1000
0001
1000
0001
1000
0001
1000
0010
0000
0400
0300
0000
0000
0001
0000
,  // measure 9
0000
0000
1000
0001
1000
0001
1000
0001
0010
0100
1000
0100
0000
0000
0000
0000
,  // measure 10
0010
0100
0010
0100
0010
0100
0010
0100
1000
0000
0000
0000
0000
000M
00M0
0000
,  // measure 11
0000
0000
0100
0010
0100
0010
0100
0010
0001
0000
1000
0010
0100
0001
0010
0100
,  // measure 12
1000
0001
1000
0001
1000
0001
1000
0001
0010
0000
0100
0000
0001
0000
0100
0000
,  // measure 13
1000
0000
0001
1000
0001
1000
0001
1000
0020
0000
0130
0010
2000
0000
3002
0000
,  // measure 14
0013
0100
0010
0100
0010
0100
0010
0100
1000
0001
0100
0010
1000
0010
0100
0001
,  // measure 15
0010
0100
1000
0100
0001
0100
0010
0001
1000
0010
0100
0001
M000
0000
M000
0000
,  // measure 16
1000
0001
1000
0001
1000
0001
1000
0001
0100
0000
0040
0030
0000
0000
1000
0000
,  // measure 17
0000
0000
0001
1000
0001
1000
0001
1000
1200
0000
0300
0120
0000
0030
0012
0000
,  // measure 18
0103
0010
0100
0010
0100
0010
0100
0010
1000
0000
0000
0000
0000
000M
0000
0M00
,  // measure 19
0000
0000
0010
0100
0010
0100
0010
0100
M002
0000
0000
0000
0000
0000
0000
0000
,  // measure 20
1003
0001
1000
0001
1000
0001
1000
0001
0010
0000
0100
0000
0001
0000
0100
0000
,  // measure 21
1000
0000
0001
1000
0001
1000
0001
1000
0020
0000
0130
0001
2000
0000
3002
0000
,  // measure 22
0013
0100
0010
0100
0010
0100
0010
0100
1000
0000
0000
0000
0000
000M
0000
00M0
,  // measure 23
0000
0000
0000
0000
0000
0000
0100
0000
0000
0010
0000
0000
0100
0000
0000
0010
0000
0000
0100
0000
0000
0010
0000
0000
0011
0000
0000
0000
0000
0000
0000
0000
1001
0000
0000
0000
0000
0000
0000
0000
0101
0000
0000
0000
0000
0000
0000
0000
,  // measure 24
0001
1000
0010
0000
0100
0001
0000
0001
1000
0000
0100
0010
0000
0010
0001
0000
,  // measure 25
0100
0010
1000
0000
0001
1000
0000
1000
0100
0000
0010
0001
1000
0010
1000
0001
,  // measure 26
0100
0001
0010
0000
0100
1000
0000
1000
0001
0000
1000
0010
0000
0010
0100
0000
,  // measure 27
0001
1000
0100
0000
0010
0001
0000
0001
0100
0000
0010
1000
0001
0100
0001
1000
,  // measure 28
0100
1000
0010
0000
0100
0001
0000
0001
1000
0000
0100
0010
0000
0010
0001
1000
,  // measure 29
0010
1000
0001
0100
0010
0000
1000
0001
0010
0001
1000
0100
1000
0010
0100
0001
,  // measure 30
1000
0000
0010
0000
1000
0000
0001
0000
0000
0010
0000
0000
0100
0000
0000
0010
0000
0000
0001
0000
0000
1000
0000
0000
0001
0000
0000
0000
0000
0000
0100
0000
0000
0001
0000
0000
0000
0000
0000
0010
0000
0000
0000
0000
0000
0100
0000
0000
,  // measure 31
1000
0000
0000
0000
0000
0000
0000
0000
0000
0000
0000
0000
0000
0000
0000
0000
0000
0000
0000
0000
0000
0000
0000
0000
0001
0000
0000
0000
0000
0000
0000
0000
0000
0000
0000
0000
0100
0000
0000
0000
0000
0000
0000
0000
0000
0000
0000
0000
0000
0000
0000
0000
0000
0000
0000
0000
0000
0000
0000
0000
0010
0000
0000
0000
0000
0000
0000
0000
0000
0000
0000
0000
1000
0000
0000
0000
0000
0000
0000
0000
0000
0000
0000
0000
0000
0000
0000
0000
0000
0000
0000
0000
0000
0000
0000
0000
0001
0000
0000
0000
0000
0000
0000
0000
0000
0000
0000
0000
0010
0000
0000
0000
0000
0000
0000
0000
0000
0000
0000
0000
0000
0000
0000
0000
0000
0000
0000
0000
0000
0000
0000
0000
0100
0000
0000
0000
0000
0000
0000
0000
0000
0000
0000
0000
0010
0000
0000
0000
0000
0000
0000
0000
0000
0000
0000
0000
0000
0000
0100
0000
0000
0000
0000
0000
0010
0000
0000
0000
0000
0000
0100
0000
0000
0000
0000
0000
0010
0000
0000
0000
0000
0100
0000
0000
0000
0000
0000
0000
0000
0000
0000
0000
,  // measure 32
1000
0000
0001
0000
1000
0000
0001
0000
1000
0000
0001
0000
1000
0000
0000
0000
0010
0000
0000
0000
0100
0000
0000
0000
0001
0000
0000
0000
0000
0000
0040
0000
0000
0030
0000
0000
0000
0000
0000
0000
0000
0000
0100
0000
0000
0000
0000
0000
,  // measure 33
0000
0000
0000
0000
1000
0000
0001
0000
0100
0000
0000
0000
0100
0000
0000
0000
002M
0000
0000
0000
0000
0000
1M30
0000
0000
0000
0000
0001
0000
0000
0000
0000
,  // measure 34
0010
0000
0000
0000
0000
0000
0000
0000
0100
0000
0000
0000
0000
0000
0000
0000
0010
0000
0000
0000
0000
0000
0000
0000
0001
0000
0000
0000
0000
0000
0000
0000
0000
0000
0000
0000
0000
0000
0000
0000
0000
0000
0000
0000
0000
0000
0000
0000
1000
0000
0000
0000
0000
0000
0000
0000
0010
0000
0000
0000
0000
0000
0000
0000
1000
0000
0000
0000
0000
0000
0000
0000
0001
0000
0000
0000
0000
0000
0000
0000
0000
0000
0000
0000
0100
0000
0000
0000
0000
0000
0000
0000
0000
0000
0000
0000
0010
0000
0000
0000
0000
0000
0000
0000
0000
0000
0000
0000
0000
0000
0000
0000
0000
0000
0000
0000
0000
0000
0000
0000
0000
0000
0000
0000
0000
0000
0000
0000
0000
0000
0000
0000
0000
0000
0000
0000
0000
0000
0000
0000
0000
0000
0000
0000
0000
0000
0000
0000
0000
0000
0000
0000
0000
0000
0000
0000
0000
0000
0000
0000
0000
0000
M000
0000
0000
0000
0000
0000
0000
0000
0000
0000
0000
0000
0000
0000
0000
0000
0000
0000
000M
0000
0000
0000
0000
0000
0000
0000
0000
0000
0000
0000
,  // measure 35
0000
0000
0000
0000
0000
0000
0010
0000
1000
0000
0001
0000
1000
0000
0000
0100
0000
0000
0010
0000
0000
0001
0000
0000
0100
0000
0000
0000
0000
0000
0001
0000
0000
1000
0000
0000
0001
0000
0010
0000
0100
0000
1000
0000
0001
0000
0100
0000
,  // measure 36
0001
1100
0002
0003
0010
0100
0001
0100
,  // measure 37
1000
0000
0000
0000
0000
0000
0001
0000
0000
1000
0000
0000
0001
0000
0000
1000
0000
0000
0001
0000
0000
1000
0000
0000
0010
0000
0000
0000
0000
0000
0100
0000
0000
0001
0000
0000
1000
0000
0100
0000
0010
0000
0001
0000
0100
0000
0001
0000
,  // measure 38
1000
0000
0100
0000
1000
0000
0010
0000
0000
0000
0000
0000
0100
0000
0001
0000
1000
0000
0100
0000
0000
0010
0000
0000
0004
0000
0000
0000
0000
0000
0000
0000
0000
0000
0000
0000
1003
0000
0000
0010
0000
0000
0100
0000
0000
0010
0000
0000
,  // measure 39
1000
0100
0010
0001
0100
0001
0100
0001
1000
0100
0010
0001
MMM0
0000
0000
0000
,  // measure 40
1000
0000
0001
0000
1000
0000
0001
0000
1000
0000
0001
0000
0100
0000
0000
0000
0010
0000
0000
0000
1000
0000
0000
0000
0100
0000
0000
0000
0000
0000
0040
0000
0000
0030
0000
0000
0000
0000
0000
0000
0000
0000
0001
0000
0000
0000
0000
0000
,  // measure 41
0000
0000
0000
0000
0000
0000
1000
0000
0001
0000
1000
0000
0010
0000
0100
0000
0001
0000
0010
0000
0001
0000
1000
0000
0020
0000
0000
0000
0000
0000
0030
0000
0000
0210
0000
0000
0000
0000
0000
0300
0000
0000
0102
0000
0000
0000
0000
0000
,  // measure 42
1003
0000
0000
0000
0000
0000
0000
0000
0010
0000
0000
0000
0000
0000
0000
0000
1000
0000
0000
0000
0000
0000
0000
0000
0001
0000
0000
0000
0000
0000
0000
0000
0000
0000
0000
0000
0000
0000
0000
0000
0000
0000
0000
0000
0000
0000
0000
0000
0100
0000
0000
0000
0000
0000
0000
0000
0010
0000
0000
0000
0000
0000
0000
0000
1000
0000
0000
0000
0000
0000
0000
0000
0001
0000
0000
0000
0000
0000
0000
0000
0000
0000
0000
0000
0010
0000
0000
0000
0000
0000
0000
0000
0000
0000
0000
0000
0100
0000
0000
0000
0000
0000
0000
0000
0000
0000
0000
0000
0000
0000
0000
0000
0000
0000
0000
0000
0000
0000
0000
0000
0000
0000
0000
0000
0000
0000
0000
0000
0000
0000
0000
0000
0000
0000
0000
0000
0000
0000
0000
0000
0000
0000
0000
0000
0000
0000
0000
0000
0000
0000
0000
0000
0000
0000
0000
0000
0000
0000
0000
0000
0000
0000
000M
0000
0000
0000
0000
0000
0000
0000
0000
0000
0000
0000
0000
0000
0000
0000
0000
0000
M000
0000
0000
0000
0000
0000
0000
0000
0000
0000
0000
0000
,  // measure 43
0000
0000
0000
0000
0000
0000
1000
0000
0001
0000
1000
0000
0001
0000
0000
0010
0000
0000
0100
0000
0000
1000
0000
0000
0002
0000
0000
0000
0000
0000
0000
0000
0000
0000
0000
0000
0000
0000
0000
0000
0000
0000
0000
0000
0000
0000
0000
0000
,  // measure 44
0103
0010
0100
0010
0100
0010
0100
0010
1000
0000
0100
0000
0001
0000
0100
0000
,  // measure 45
0010
0000
0001
1000
0001
1000
0001
1000
0020
0000
0130
0001
0020
0000
0230
0000
,  // measure 46
1300
0000
0000
0000
0000
0000
0000
0000
0001
0000
0000
0000
0000
0000
0000
0000
0100
0000
0000
0000
0000
0000
0000
0000
0010
0000
0000
0000
0000
0000
0000
0000
0000
0000
0000
0000
1000
0000
0000
0000
0000
0000
0000
0000
0000
0000
0000
0000
0001
0000
0000
0000
0000
0000
0000
0000
0010
0000
0000
0000
0000
0000
0000
0000
0100
0000
0000
0000
0000
0000
0000
0000
1000
0000
0000
0000
0000
0000
0000
0000
0010
0000
0000
0000
0000
0000
0000
0000
1000
0000
0000
0000
0000
0000
0000
0000
0001
0000
0000
0000
0000
0000
0000
0000
0000
0000
0000
0000
0000
0000
0000
0000
0000
0000
0000
0000
0000
0000
0000
0000
0000
0000
0000
0000
0000
0000
0000
0000
0000
0000
0000
0000
0000
0000
0000
0000
0000
0000
0000
0000
0000
0000
0000
0000
0000
0000
0000
0000
0000
0000
0000
0000
0000
0000
0000
0000
0000
0000
0000
0000
0000
0000
00M0
0000
0000
0000
0000
0000
0000
0000
0000
0000
0000
0000
0000
0000
0000
0000
0000
0000
0M00
0000
0000
0000
0000
0000
0000
0000
0000
0000
0000
0000
,  // measure 47
0000
0000
0000
0000
0000
0000
0100
0000
0000
0001
0000
0000
1000
0000
0000
0001
0000
0000
0010
0000
0000
0100
0000
0000
1100
0000
0000
0000
0000
0000
0000
0000
1000
0000
0001
0000
0100
0000
0000
0000
0010
0000
0000
0000
0100
0000
0000
0000
,  // measure 48
0001
1000
0010
1000
0001
0010
0100
1000
0001
0010
0001
1000
0100
1000
0001
0100
,  // measure 49
0010
1000
0001
0010
0100
1000
0001
0100
0001
1000
0100
1000
0001
0100
0001
0010
,  // measure 50
0100
0010
0001
1000
0010
1000
0001
0100
0001
1000
0100
0010
0001
0100
0001
1000
,  // measure 51
0100
1000
0001
0100
0010
1000
0001
1000
0100
0010
0001
1000
0010
1000
0001
0010
,  // measure 52
0100
1000
0010
0100
0001
1000
0100
1000
0001
0010
0001
1000
0010
0100
0001
1000
,  // measure 53
0100
0010
0001
1000
0001
0100
0010
1000
0001
0010
0001
1000
0010
0100
0001
1000
,  // measure 54
0100
1000
0001
0100
0001
0010
0100
1000
0010
1000
0001
0010
0001
1000
0010
0100
,  // measure 55
0010
1000
0001
0100
0010
0100
0001
0010
0100
0010
0001
1000
0010
1000
0001
0010
,  // measure 56
0001
0100
0000
0010
1000
0000
0001
1000
0000
0100
0010
0000
0100
1000
0000
0001
,  // measure 57
0100
0000
0010
1000
0000
0100
0010
0000
0100
1000
0000
0010
0100
0000
0001
0100
,  // measure 58
0001
0010
0100
0000
0100
1000
0000
0001
0100
0000
0001
1000
0000
0100
1000
0000
,  // measure 59
0000
0010
0100
0000
0001
1000
0000
0100
1000
0000
0010
0100
0000
0001
1000
0000
,  // measure 60
0001
0010
0001
0010
0001
0010
0100
1000
0100
1000
0100
1000
0001
1000
0001
1000
0001
1000
0010
0100
0010
0100
0010
0100
,  // measure 61
0001
1000
0001
1000
0001
1000
0100
1000
0100
1000
0100
1000
0001
0100
0001
0100
0001
0100
0010
1000
0010
1000
0010
1000
,  // measure 62
0001
1000
0010
0100
0000
0010
1000
0100
0010
0001
0100
0000
0001
1000
0100
1000
,  // measure 63
0001
0100
0010
1000
0100
0010
0100
1000
0001
0100
0001
1000
0001
1000
0001
0100
,  // measure 64
0020
0000
0000
0000
,  // measure 65
0000
0000
0000
0030
0000
0000
0000
0000
,  // measure 66
00M0
00M0
00M0
00M0
0000
0000
0000
0000
0000
0000
0000
0000
0000
0000
0000
0000
;

//---------------dance-single - 32nd Drills----------------
#NOTEDATA:;
#CHARTNAME:32nd Drills;
#STEPSTYPE:dance-single;
#DESCRIPTION:32nd Drills;
#CHARTSTYLE:;
#DIFFICULTY:Edit;
#METER:14;
#RADARVALUES:0.915384,1.872764,0.087061,0.165416,1.628041,736.000000,726.000000,10.000000,19.000000,25.000000,0.000000,5.000000,0.000000,0.000000,0.915384,1.872764,0.087061,0.165416,1.628041,736.000000,726.000000,10.000000,19.000000,25.000000,0.000000,5.000000,0.000000,0.000000;
#CREDIT:32nd Drills;
#DISPLAYBPM:140.000000;
#NOTES:
0000
0000
0000
0000
,
0000
0000
0000
0000
,
0000
0000
0000
0000
,
0000
0000
0000
0000
,
0000
0000
0000
0000
,
0000
0000
0000
0000
,
0000
0000
0000
0000
,
0000
0000
0000
00M0
,
0001
1000
0001
1000
0001
1000
0001
1000
0010
0000
0400
0300
0000
0000
0001
0000
,
0000
0000
1000
0001
1000
0001
1000
0001
0010
0100
1000
0100
0000
0000
0000
0000
,
0010
0100
0010
0100
0010
0100
0010
0100
1000
0000
0000
0000
0000
000M
00M0
0000
,
0000
0000
0100
0010
0100
0010
0100
0010
0001
0000
1000
0010
0100
0001
0010
0100
,
1000
0001
1000
0001
1000
0001
1000
0001
0010
0000
0100
0000
0001
0000
0100
0000
,
1000
0000
0001
1000
0001
1000
0001
1000
0020
0000
0130
0010
2000
0000
3002
0000
,
0013
0100
0010
0100
0010
0100
0010
0100
1000
0001
0100
0010
1000
0010
0100
0001
,
0010
0100
1000
0100
0001
0100
0010
0001
1000
0010
0100
0001
M000
0000
M000
0000
,
1000
0001
1000
0001
1000
0001
1000
0001
0100
0000
0040
0030
0000
0000
1000
0000
,
0000
0000
0001
1000
0001
1000
0001
1000
1200
0000
0300
0120
0000
0030
0012
0000
,
0103
0010
0100
0010
0100
0010
0100
0010
1000
0000
0000
0000
0000
000M
0000
0M00
,
0000
0000
0010
0100
0010
0100
0010
0100
M002
0000
0000
0000
0000
0000
0000
0000
,
1003
0001
1000
0001
1000
0001
1000
0001
0010
0000
0100
0000
0001
0000
0100
0000
,
1000
0000
0001
1000
0001
1000
0001
1000
0020
0000
0130
0001
2000
0000
3002
0000
,
0013
0100
0010
0100
0010
0100
0010
0100
1000
0000
0000
0000
0000
000M
0000
00M0
,
0000
0000
0000
0000
0000
0000
0100
0000
0000
0010
0000
0000
0100
0000
0000
0010
0000
0000
0100
0000
0000
0010
0000
0000
0011
0000
0000
0000
0000
0000
0000
0000
1001
0000
0000
0000
0000
0000
0000
0000
0101
0000
0000
0000
0000
0000
0000
0000
,
0001
1000
0010
0000
0100
0001
0000
0001
1000
0000
0100
0010
0000
0010
0001
0000
,
0100
0010
1000
0000
0001
1000
0000
1000
0100
0000
0010
0001
1000
0010
1000
0001
,
0100
0001
0010
0000
0100
1000
0000
1000
0001
0000
1000
0010
0000
0010
0100
0000
,
0001
1000
0100
0000
0010
0001
0000
0001
0100
0000
0010
1000
0001
0100
0001
1000
,
0100
1000
0010
0000
0100
0001
0000
0001
1000
0000
0100
0010
0000
0010
0001
1000
,
0010
1000
0001
0100
0010
0000
1000
0001
0010
0001
1000
0100
1000
0010
0100
0001
,
1000
0000
0010
0000
1000
0000
0001
0000
0000
0010
0000
0000
0100
0000
0000
0010
0000
0000
0001
0000
0000
1000
0000
0000
0001
0000
0000
0000
0000
0000
0100
0000
0000
0001
0000
0000
0000
0000
0000
0010
0000
0000
0000
0000
0000
0100
0000
0000
,
1000
0000
0000
0000
0000
0000
0000
0000
0000
0000
0000
0000
0000
0000
0000
0000
0000
0000
0000
0000
0000
0000
0000
0000
0001
0000
0000
0000
0000
0000
0000
0000
0000
0000
0000
0000
0100
0000
0000
0000
0000
0000
0000
0000
0000
0000
0000
0000
0000
0000
0000
0000
0000
0000
0000
0000
0000
0000
0000
0000
0010
0000
0000
0000
0000
0000
0000
0000
0000
0000
0000
0000
1000
0000
0000
0000
0000
0000
0000
0000
0000
0000
0000
0000
0000
0000
0000
0000
0000
0000
0000
0000
0000
0000
0000
0000
0001
0000
0000
0000
0000
0000
0000
0000
0000
0000
0000
0000
0010
0000
0000
0000
0000
0000
0000
0000
0000
0000
0000
0000
0000
0000
0000
0000
0000
0000
0000
0000
0000
0000
0000
0000
0100
0000
0000
0000
0000
0000
0000
0000
0000
0000
0000
0000
0010
0000
0000
0000
0000
0000
0000
0000
0000
0000
0000
0000
0000
0000
0100
0000
0000
0000
0000
0000
0010
0000
0000
0000
0000
0000
0100
0000
0000
0000
0000
0000
0010
0000
0000
0000
0000
0100
0000
0000
0000
0000
0000
0000
0000
0000
0000
0000
,
1000
0000
0001
0000
1000
0000
0001
0000
1000
0000
0001
0000
1000
0000
0000
0000
0010
0000
0000
0000
0100
0000
0000
0000
0001
0000
0000
0000
0000
0000
0040
0000
0000
0030
0000
0000
0000
0000
0000
0000
0000
0000
0100
0000
0000
0000
0000
0000
,
0000
0000
0000
0000
1000
0000
0001
0000
0100
0000
0000
0000
0100
0000
0000
0000
002M
0000
0000
0000
0000
0000
1M30
0000
0000
0000
0000
0001
0000
0000
0000
0000
,
0010
0000
0000
0000
0000
0000
0000
0000
0100
0000
0000
0000
0000
0000
0000
0000
0010
0000
0000
0000
0000
0000
0000
0000
0001
0000
0000
0000
0000
0000
0000
0000
0000
0000
0000
0000
0000
0000
0000
0000
0000
0000
0000
0000
0000
0000
0000
0000
1000
0000
0000
0000
0000
0000
0000
0000
0010
0000
0000
0000
0000
0000
0000
0000
1000
0000
0000
0000
0000
0000
0000
0000
0001
0000
0000
0000
0000
0000
0000
0000
0000
0000
0000
0000
0100
0000
0000
0000
0000
0000
0000
0000
0000
0000
0000
0000
0010
0000
0000
0000
0000
0000
0000
0000
0000
0000
0000
0000
0000
0000
0000
0000
0000
0000
0000
0000
0000
0000
0000
0000
0000
0000
0000
0000
0000
0000
0000
0000
0000
0000
0000
0000
0000
0000
0000
0000
0000
0000
0000
0000
0000
0000
0000
0000
0000
0000
0000
0000
0000
0000
0000
0000
0000
0000
0000
0000
0000
0000
0000
0000
0000
0000
M000
0000
0000
0000
0000
0000
0000
0000
0000
0000
0000
0000
0000
0000
0000
0000
0000
0000
000M
0000
0000
0000
0000
0000
0000
0000
0000
0000
0000
0000
,
0000
0000
0000
0000
0000
0000
0010
0000
1000
0000
0001
0000
1000
0000
0000
0100
0000
0000
0010
0000
0000
0001
0000
0000
0100
0000
0000
0000
0000
0000
0001
0000
0000
1000
0000
0000
0001
0000
0010
0000
0100
0000
1000
0000
0001
0000
0100
0000
,
0001
1100
0002
0003
0010
0100
0001
0100
,
1000
0000
0000
0000
0000
0000
0001
0000
0000
1000
0000
0000
0001
0000
0000
1000
0000
0000
0001
0000
0000
1000
0000
0000
0010
0000
0000
0000
0000
0000
0100
0000
0000
0001
0000
0000
1000
0000
0100
0000
0010
0000
0001
0000
0100
0000
0001
0000
,
1000
0000
0100
0000
1000
0000
0010
0000
0000
0000
0000
0000
0100
0000
0001
0000
1000
0000
0100
0000
0000
0010
0000
0000
0004
0000
0000
0000
0000
0000
0000
0000
0000
0000
0000
0000
1003
0000
0000
0010
0000
0000
0100
0000
0000
0010
0000
0000
,
1000
0100
0010
0001
0100
0001
0100
0001
1000
0100
0010
0001
MMM0
0000
0000
0000
,
1000
0000
0001
0000
1000
0000
0001
0000
1000
0000
0001
0000
0100
0000
0000
0000
0010
0000
0000
0000
1000
0000
0000
0000
0100
0000
0000
0000
0000
0000
0040
0000
0000
0030
0000
0000
0000
0000
0000
0000
0000
0000
0001
0000
0000
0000
0000
0000
,
0000
0000
0000
0000
0000
0000
1000
0000
0001
0000
1000
0000
0010
0000
0100
0000
0001
0000
0010
0000
0001
0000
1000
0000
0020
0000
0000
0000
0000
0000
0030
0000
0000
0210
0000
0000
0000
0000
0000
0300
0000
0000
0101
0000
0000
0000
0000
0000
,
1000
0000
0000
0000
0000
0000
0000
0000
0010
0000
0000
0000
0000
0000
0000
0000
1000
0000
0000
0000
0000
0000
0000
0000
0001
0000
0000
0000
0000
0000
0000
0000
0000
0000
0000
0000
0000
0000
0000
0000
0000
0000
0000
0000
0000
0000
0000
0000
0100
0000
0000
0000
0000
0000
0000
0000
0010
0000
0000
0000
0000
0000
0000
0000
1000
0000
0000
0000
0000
0000
0000
0000
0001
0000
0000
0000
0000
0000
0000
0000
0000
0000
0000
0000
0010
0000
0000
0000
0000
0000
0000
0000
0000
0000
0000
0000
0100
0000
0000
0000
0000
0000
0000
0000
0000
0000
0000
0000
0000
0000
0000
0000
0000
0000
0000
0000
0000
0000
0000
0000
0000
0000
0000
0000
0000
0000
0000
0000
0000
0000
0000
0000
0000
0000
0000
0000
0000
0000
0000
0000
0000
0000
0000
0000
0000
0000
0000
0000
0000
0000
0000
0000
0000
0000
0000
0000
0000
0000
0000
0000
0000
0000
000M
0000
0000
0000
0000
0000
0000
0000
0000
0000
0000
0000
0000
0000
0000
0000
0000
0000
M000
0000
0000
0000
0000
0000
0000
0000
0000
0000
0000
0000
,
0000
0000
0000
0000
0000
0000
1000
0000
0001
0000
1000
0000
0001
0000
0000
0010
0000
0000
0100
0000
0000
1000
0000
0000
0002
0000
0000
0000
0000
0000
0000
0000
0000
0000
0000
0000
0000
0000
0000
0000
0000
0000
0000
0000
0000
0000
0000
0000
,
0103
0010
0100
0010
0100
0010
0100
0010
1000
0000
0100
0000
0001
0000
0100
0000
,
0010
0000
0001
1000
0001
1000
0001
1000
0020
0000
0130
0001
0020
0000
0230
0000
,
1300
0000
0000
0000
0000
0000
0000
0000
0001
0000
0000
0000
0000
0000
0000
0000
0100
0000
0000
0000
0000
0000
0000
0000
0010
0000
0000
0000
0000
0000
0000
0000
0000
0000
0000
0000
1000
0000
0000
0000
0000
0000
0000
0000
0000
0000
0000
0000
0001
0000
0000
0000
0000
0000
0000
0000
0010
0000
0000
0000
0000
0000
0000
0000
0100
0000
0000
0000
0000
0000
0000
0000
1000
0000
0000
0000
0000
0000
0000
0000
0010
0000
0000
0000
0000
0000
0000
0000
1000
0000
0000
0000
0000
0000
0000
0000
0001
0000
0000
0000
0000
0000
0000
0000
0000
0000
0000
0000
0000
0000
0000
0000
0000
0000
0000
0000
0000
0000
0000
0000
0000
0000
0000
0000
0000
0000
0000
0000
0000
0000
0000
0000
0000
0000
0000
0000
0000
0000
0000
0000
0000
0000
0000
0000
0000
0000
0000
0000
0000
0000
0000
0000
0000
0000
0000
0000
0000
0000
0000
0000
0000
0000
00M0
0000
0000
0000
0000
0000
0000
0000
0000
0000
0000
0000
0000
0000
0000
0000
0000
0000
0M00
0000
0000
0000
0000
0000
0000
0000
0000
0000
0000
0000
,
0000
0000
0000
0000
0000
0000
0100
0000
0000
0001
0000
0000
1000
0000
0000
0001
0000
0000
0010
0000
0000
0100
0000
0000
1100
0000
0000
0000
0000
0000
0000
0000
1000
0000
0001
0000
0100
0000
0000
0000
0010
0000
0000
0000
0100
0000
0000
0000
,
0001
1000
0010
1000
0001
0010
0100
1000
0001
0010
0001
1000
0100
1000
0001
0100
,
0010
1000
0001
0010
0100
1000
0001
0100
0001
1000
0100
1000
0001
0100
0001
0010
,
0100
0010
0001
1000
0010
1000
0001
0100
0001
1000
0100
0010
0001
0100
0001
1000
,
0100
1000
0001
0100
0010
1000
0001
1000
0100
0010
0001
1000
0010
1000
0001
0010
,
0100
1000
0010
0100
0001
1000
0100
1000
0001
0010
0001
1000
0010
0100
0001
1000
,
0100
0010
0001
1000
0001
0100
0010
1000
0001
0010
0001
1000
0010
0100
0001
1000
,
0100
1000
0001
0100
0001
0010
0100
1000
0010
1000
0001
0010
0001
1000
0010
0100
,
0010
1000
0001
0100
0010
0100
0001
0010
0100
0010
0001
1000
0010
1000
0001
0010
,
0001
0100
0000
0010
1000
0000
0001
1000
0000
0100
0010
0000
0100
1000
0000
0001
,
0100
0000
0010
1000
0000
0100
0010
0000
0100
1000
0000
0010
0100
0000
0001
0100
,
0001
0010
0100
0000
0100
1000
0000
0001
0100
0000
0001
1000
0000
0100
1000
0000
,
0000
0010
0100
0000
0001
1000
0000
0100
1000
0000
0010
0100
0000
0001
1000
0000
,
0010
1000
0010
1000
0010
1000
0010
1000
0100
0010
0100
0010
0100
0010
0100
0010
0001
1000
0001
1000
0001
1000
0001
1000
0001
0010
0001
0010
0001
0010
0001
0010
,
0100
1000
0100
1000
0100
1000
0100
1000
0001
0100
0001
0100
0001
0100
0001
0100
0010
1000
0010
1000
0010
1000
0010
1000
0001
0010
0001
0010
0001
0010
0001
0010
,
0001
1000
0010
0100
0000
0010
1000
0100
0010
0001
0100
0000
0001
1000
0100
1000
,
0001
0100
0010
1000
0100
0010
0100
1000
0001
0100
0001
1000
0001
1000
0001
0100
,
0020
0000
0000
0000
,
0000
0000
0000
0030
0000
0000
0000
0000
,
00M0
00M0
00M0
00M0
0000
0000
0000
0000
0000
0000
0000
0000
0000
0000
0000
0000
;

//---------------dance-single - sangyule----------------
#NOTEDATA:;
#CHARTNAME:;
#STEPSTYPE:dance-single;
#DESCRIPTION:sangyule;
#CHARTSTYLE:;
#DIFFICULTY:Beginner;
#METER:1;
#RADARVALUES:0.083330,0.139298,0.000000,0.000000,0.000000,67.000000,67.000000,0.000000,0.000000,0.000000,0.000000,0.000000,0.000000,0.000000,0.083330,0.139298,0.000000,0.000000,0.000000,67.000000,67.000000,0.000000,0.000000,0.000000,0.000000,0.000000,0.000000,0.000000;
#CREDIT:sangyule;
#DISPLAYBPM:140.000000;
#NOTES:
0000
0000
0000
0000
,
0000
0000
0000
0000
,
0000
0000
0000
0000
,
0000
0000
0000
0000
,
0000
0000
0000
0000
,
0000
0000
0000
0000
,
0000
0000
0000
0000
,
0000
0000
0000
0000
,
0000
0000
1000
0000
,
0000
0000
1000
0000
,
0000
0000
0001
0000
,
0000
0000
0001
0000
,
0000
0000
0010
0000
,
0000
0000
0010
0000
,
0000
0000
0100
0000
,
0000
0000
0100
0000
,
0000
0000
1000
0000
,
0000
0000
1000
0000
,
0000
0000
0001
0000
,
0000
0000
0001
0000
,
0000
0000
1000
0000
,
0000
0000
1000
0000
,
0000
0000
0100
0000
,
0000
0000
0010
0000
,
0001
0000
0000
0000
,
1000
0000
0000
0000
,
0010
0000
0000
0000
,
0100
0000
0000
0000
,
0001
0000
0000
0000
,
1000
0000
0000
0000
,
0100
0000
0000
0000
,
0010
0000
0000
0000
,
0001
0000
0001
0000
,
0000
0000
0001
0000
,
0000
0000
1000
0000
,
0000
0000
1000
0000
,
0010
0000
0010
0000
,
0000
0000
0010
0000
,
0000
0000
0100
0000
,
0000
0000
0001
0000
,
0000
0000
1000
0000
,
0000
0000
1000
0000
,
0000
0000
0100
0000
,
0000
0000
0100
0000
,
0000
0000
0010
0000
,
0000
0000
0010
0000
,
0000
0000
0001
0000
,
0000
0000
0001
0000
,
1000
0000
0000
0000
,
0010
0000
0000
0000
,
0100
0000
0000
0000
,
0001
0000
0000
0000
,
1000
0000
0000
0000
,
0100
0000
0000
0000
,
0010
0000
0000
0000
,
0001
0000
0000
0000
,
1000
0000
1000
0000
,
1000
0000
1000
0000
,
0001
0000
0001
0000
,
0001
0000
0001
0000
,
0100
0000
0100
0000
,
0100
0000
0100
0000
,
0010
0000
0010
0000
,
0010
0000
0010
0000
,
1000
0000
0000
0000
;

//---------------dance-single - sangyule----------------
#NOTEDATA:;
#CHARTNAME:;
#STEPSTYPE:dance-single;
#DESCRIPTION:sangyule;
#CHARTSTYLE:;
#DIFFICULTY:Easy;
#METER:2;
#RADARVALUES:0.171635,0.250736,0.296007,0.060943,0.000000,138.000000,104.000000,34.000000,7.000000,0.000000,0.000000,0.000000,0.000000,0.000000,0.171635,0.250736,0.296007,0.060943,0.000000,138.000000,104.000000,34.000000,7.000000,0.000000,0.000000,0.000000,0.000000,0.000000;
#CREDIT:sangyule;
#DISPLAYBPM:140.000000;
#NOTES:
0000
0000
0000
0000
,
0000
0000
0000
0000
,
0000
0000
0000
0000
,
0000
0000
0000
0000
,
0000
0000
0000
0000
,
0000
0000
0000
0000
,
0000
0000
0000
0000
,
0000
0000
0000
0000
,
1000
0000
1100
0000
,
0000
0000
1100
0000
,
0001
0000
0101
0000
,
0000
0000
0101
0100
,
0010
0000
1010
0000
,
0000
0000
2010
0000
,
3001
0000
0011
0000
,
0000
0000
0011
0000
,
1000
0000
1001
0000
,
0000
0000
1001
0000
,
0010
0000
0110
0000
,
0000
0000
0220
0330
,
1000
0000
1001
0000
,
0000
0000
1002
0000
,
0103
0000
0110
0000
,
0000
0000
0110
0000
,
1001
0000
0001
0000
,
0100
0000
0010
0000
,
1000
0000
0001
0000
,
0100
0000
0010
0000
,
1000
0000
0001
0000
,
0010
0000
0100
0000
,
1000
0000
0001
0000
,
0100
0000
0010
0000
,
1000
0000
1100
0000
,
0000
0000
1100
0000
,
0001
0000
0101
0000
,
0000
0000
0101
0000
,
1000
1000
1010
0000
,
0000
0000
1010
0000
,
0001
0000
0011
0000
,
0000
0000
0011
1000
,
0001
0000
1001
0000
,
0000
0000
1001
0000
,
0010
0000
0110
0000
,
0000
0000
0220
0330
,
1000
0000
1001
0000
,
0000
0000
2001
0000
,
3100
0000
0110
0000
,
0000
0000
0110
0000
,
1001
0000
1000
0000
,
0010
0000
0100
0000
,
0001
0000
1000
0000
,
0100
0000
0010
0000
,
0001
0000
1000
0000
,
0010
0000
0100
0000
,
0001
0000
1000
0000
,
0100
0000
0010
0000
,
0001
0000
0001
0000
,
0001
0000
0001
0000
,
1000
0000
1000
0000
,
1000
0000
1000
0000
,
0010
0010
0100
0100
,
0001
0001
1000
1000
,
0100
0000
0100
0000
,
0010
0000
0010
0000
,
0001
0000
0000
0000
;

//---------------dance-single - sangyule----------------
#NOTEDATA:;
#CHARTNAME:;
#STEPSTYPE:dance-single;
#DESCRIPTION:sangyule;
#CHARTSTYLE:;
#DIFFICULTY:Medium;
#METER:6;
#RADARVALUES:0.334563,0.473612,0.252477,0.069649,0.021765,269.000000,240.000000,29.000000,8.000000,8.000000,0.000000,0.000000,0.000000,0.000000,0.334563,0.473612,0.252477,0.069649,0.021765,269.000000,240.000000,29.000000,8.000000,8.000000,0.000000,0.000000,0.000000,0.000000;
#CREDIT:sangyule;
#DISPLAYBPM:140.000000;
#NOTES:
0000
0000
0000
0000
,
0000
0000
0000
0000
,
0000
0000
0000
0000
,
0000
0000
0000
0000
,
0000
0000
0000
0000
,
0000
0000
0000
0000
,
0000
0000
0000
0000
,
0000
0000
0000
0MM0
,
1000
0001
0011
0000
,
0000
1000
0000
0000
1010
0000
0000
0000
,
0010
0100
0101
0000
,
0000
0001
1000
0000
1001
0000
0001
0010
,
0100
0000
1000
0000
1001
0001
1000
0010
,
0100
0001
0102
0000
,
1003
0010
1010
0000
,
0000
1000
0001
0000
1001
0000
0MM0
0000
,
0001
0010
0110
0000
,
0000
1000
0010
0000
1010
0000
0000
0000
,
1000
0001
0101
0000
,
0000
0100
0001
0000
0020
0000
0000
0000
,
0130
0000
1000
0000
1100
0100
1000
0001
,
0100
0010
1020
0000
,
1030
0100
0110
0000
,
0000
0000
0000
0010
0000
0000
0001
0000
0000
0000
0000
0000
0100
0000
0000
0000
0001
0000
0000
0000
0100
0000
0000
0000
,
0001
1000
0100
0010
,
0001
1000
0001
0000
0100
0000
0010
0000
,
1000
0001
0010
0100
,
1000
0001
1000
0000
0010
0000
0100
0000
,
0001
0010
0100
1000
,
0010
0100
0001
0000
1000
0000
0001
0000
,
0010
0001
0100
0010
,
1000
0100
1000
0000
0010
0000
0200
0000
,
0310
0100
0110
0000
,
0000
1000
0010
0000
1010
0000
0000
0000
,
1000
0100
1100
0000
,
0000
1000
0001
0000
1001
0000
1000
0010
,
0100
0000
0001
0000
0101
0100
0010
1000
,
0001
1000
0000
0000
1001
0000
0000
0000
,
0001
0000
0010
0000
0110
0000
0100
1000
,
0100
1000
1001
MMMM
,
0100
0010
0110
0000
,
0000
0000
1000
0000
0001
0000
0000
0000
1001
0000
0000
0001
0000
0000
0010
0000
,
0100
1000
1001
0000
,
0000
0001
0100
0000
0201
0000
0000
0000
,
0310
0000
1000
0000
1010
0010
0100
0001
,
1000
0100
0120
0000
,
0031
1000
1001
0000
,
0000
0000
0000
0001
0000
0000
1000
0000
0000
0000
0000
0000
0001
0000
0000
0000
1000
0000
0000
0000
0001
0000
0000
0000
,
0100
0010
1000
0001
,
0010
0100
0010
0000
0001
0000
1000
0000
,
0010
0100
0001
1000
,
0100
1000
0100
0000
0010
0000
0001
0000
,
0100
0010
1000
0001
,
0010
0001
0010
0000
0100
0000
1000
0000
,
0010
0100
0001
1000
,
0100
0010
0100
0000
0020
0000
0000
0000
,
0031
1000
0001
0000
1000
0001
1000
0000
,
0001
0100
0001
0000
1000
0100
1000
0000
,
0100
0010
0100
0000
0010
0001
0010
0000
,
0001
1000
0001
0000
0100
0010
0100
0000
,
0001
1000
0001
1000
0001
0100
0001
0100
,
0010
0100
0010
0100
0010
1000
0010
1000
,
0001
1000
0100
0000
0010
0000
0001
1000
,
0001
0100
0020
0000
,
1030
0000
0000
0000
;

//---------------dance-single - sangyule----------------
#NOTEDATA:;
#CHARTNAME:;
#STEPSTYPE:dance-single;
#DESCRIPTION:sangyule;
#CHARTSTYLE:;
#DIFFICULTY:Hard;
#METER:9;
#RADARVALUES:0.560922,0.696488,0.278595,0.060943,0.313420,451.000000,419.000000,32.000000,7.000000,8.000000,0.000000,4.000000,0.000000,0.000000,0.560922,0.696488,0.278595,0.060943,0.313420,451.000000,419.000000,32.000000,7.000000,8.000000,0.000000,4.000000,0.000000,0.000000;
#CREDIT:sangyule;
#DISPLAYBPM:140.000000;
#NOTES:
0000
0000
0000
0000
,
0000
0000
0000
0000
,
0000
0000
0000
0000
,
0000
0000
0000
0000
,
0000
0000
0000
0000
,
0000
0000
0000
0000
,
0000
0000
0000
0000
,
0000
0000
0000
0MM0
,
1000
0100
0010
0001
0101
0000
0000
0000
,
0000
0100
0010
1000
1001
0000
0000
0000
,
0001
0010
0100
1000
1010
0000
0000
0000
,
0000
0000
0010
0000
0100
0000
0001
0000
1001
0000
0000
0000
1000
0100
1000
0001
,
0100
0010
1000
0001
0011
0010
1000
0010
,
0001
0100
0010
1000
2010
0000
3004
0000
,
0013
0100
1000
0100
1100
1000
0010
0100
,
0001
0010
0001
0100
0110
0000
M00M
0000
,
0001
0010
0100
1000
1100
0000
0000
0000
,
0000
0000
0100
0000
1000
0000
0001
0000
1001
0000
0000
1000
0000
0000
0010
0000
,
0100
0001
1000
0100
0110
0000
0000
0000
,
0000
0010
0001
0100
0020
0000
0000
0000
,
1030
0001
0010
0001
0101
0100
1000
0100
,
0001
1000
0100
0010
0012
0000
0103
0010
,
1000
0100
1000
0001
0101
0000
0000
0000
,
0000
0000
0000
0100
0000
0000
0010
0000
0000
1000
0000
0000
1001
0000
0000
0000
0101
0000
0000
0000
1100
0000
0000
0000
,
1000
0100
0010
0001
0100
0010
1000
0001
,
0010
0100
0010
0001
0100
0010
1000
0100
,
1000
0010
0100
0001
0010
0100
1000
0010
,
0100
0001
0100
0010
1000
0100
0010
0001
,
0100
0010
0100
0001
0010
0100
1000
0001
,
0010
0100
0001
0100
1000
0001
0100
0010
,
1000
0001
1000
0000
0100
0000
0010
0000
0001
0000
0100
0000
0010
0000
1000
0000
,
0001
0010
0100
1000
0010
0100
0004
0000
,
1003
0000
0000
0100
0000
0000
1000
0000
0000
0000
0000
0000
0001
0000
0000
0000
0100
0000
0000
0000
0010
0000
0000
0000
1010
0000
0000
0000
0000
0000
0000
0000
0000
0000
0000
0000
0000
0000
0000
0000
0000
0000
0000
0000
0000
0000
0000
0000
,
0000
0000
1000
0001
1000
0000
0100
0000
0110
0000
0000
0000
0000
0000
0000
0000
,
0001
0010
0001
0000
1000
0010
1000
0000
1001
0000
0000
0000
0000
0000
0000
0000
,
0000
0000
0001
0100
0010
0000
1000
0000
1010
0000
0000
0000
0010
0100
0001
1000
,
0100
0010
0000
0000
0001
0000
0000
0000
0101
0000
0100
0000
1000
0000
0100
0000
,
0001
1000
0100
0010
0014
0000
4003
0000
,
3010
0100
0010
0000
1000
0001
1000
0000
1100
0000
0100
0000
0010
0001
0010
0001
,
1000
0010
0100
0001
1001
0000
MMMM
0000
,
1000
0000
0000
0100
0000
0000
1000
0000
0000
0000
0000
0000
0001
0000
0000
0000
0010
0000
0000
0000
0100
0000
0000
0000
1100
0000
0000
0000
0000
0000
0000
0000
0000
0000
0000
0000
0000
0000
0000
0000
0000
0000
0000
0000
0000
0000
0000
0000
,
0000
0000
1000
0001
1000
0001
0100
0000
0110
0000
0000
0010
0000
0000
1000
0000
,
0001
0010
0001
0000
1000
0010
1000
0000
1010
0000
0000
0000
0000
0000
0000
0000
,
0000
0000
0010
0100
0001
0000
1000
0000
1200
0000
0000
0000
0000
0000
0000
0000
,
0310
0001
1000
0100
0110
0010
1000
0010
,
0001
0100
0010
1000
1002
0000
0103
0010
,
1000
0001
1000
0000
0100
0010
0001
0000
0101
0000
0000
0000
0000
0000
0000
0000
,
0000
0000
0000
0100
0000
0000
0010
0000
0000
1000
0000
0000
0001
0000
0000
0000
0010
0100
1000
0000
0001
0000
1000
0000
,
0010
0100
0001
0010
0100
1000
0010
0100
,
0001
0010
0100
1000
0010
0100
0001
1000
,
0100
0010
0001
0100
0010
1000
0100
0010
,
0001
0100
0010
1000
0100
0010
0001
1000
,
0001
0100
0010
1000
0001
0010
0100
1000
,
0010
0100
0001
0010
0100
1000
0001
0100
,
0001
1000
0100
0010
1000
0010
0100
0001
,
1000
0010
0001
0100
2000
0000
3100
0001
,
1000
0100
0000
1000
0001
0000
1000
0100
0000
1000
0001
0000
0100
0010
0000
1000
,
0010
0000
0100
0001
0000
0010
0100
0000
1000
0001
0000
0100
0010
0000
1000
0001
,
0000
0010
0100
0000
1000
0100
0000
1000
0001
0000
0100
0001
0000
0100
0010
0000
,
1000
0100
0010
0000
0001
1000
0000
0010
1000
0000
0100
0010
0000
0001
0010
0000
,
0001
1000
0001
1000
0010
1000
0001
0010
0001
0100
0010
0100
,
0001
1000
0001
0010
0100
1000
0010
0100
0001
0010
0100
1000
,
0001
0100
0010
0001
0010
1000
0001
1000
,
0100
0010
0100
1000
0002
0000
0000
0000
,
0103
0000
0000
0000
;
