#VERSION:0.83;
#TITLE:Secrets;
#SUBTITLE:;
#ARTIST:Regard, RAYE;
#TITLETRANSLIT:;
#SUBTITLETRANSLIT:;
#ARTISTTRANSLIT:;
#GENRE:House;
#ORIGIN:;
#CREDIT:Feraligatr;
#BANNER:secrets-bn.png;
#BACKGROUND:secrets-bg-wide.png;
#PREVIEWVID:;
#JACKET:secrets-jacket.png;
#CDIMAGE:FeraligatrV5-cd.png;
#DISCIMAGE:;
#LYRICSPATH:;
#CDTITLE:;
#MUSIC:Regard, RAYE - Secrets.ogg;
#OFFSET:-0.996000;
#SAMPLESTART:48.390999;
#SAMPLELENGTH:20.167999;
#SELECTABLE:YES;
#DISPLAYBPM:119.000000;
#BPMS:0.000=119.000;
#STOPS:;
#DELAYS:;
#WARPS:;
#TIMESIGNATURES:0.000=4=4;
#TICKCOUNTS:0.000=4;
#COMBOS:0.000=1;
#SPEEDS:0.000=1.000=0.000=0;
#SCROLLS:0.000=1.000;
#FAKES:;
#LABELS:0.000=Song Start;
#BGCHANGES:;
#KEYSOUNDS:;
#ATTACKS:
;

//---------------dance-single - Feraligatr----------------
#NOTEDATA:;
#CHARTNAME:Feraligatr;
#STEPSTYPE:dance-single;
#DESCRIPTION:Feraligatr;
#CHARTSTYLE:Pad;
#DIFFICULTY:Challenge;
#METER:10;
#RADARVALUES:0.667954,0.802006,0.081081,0.297297,0.682432,692.000000,680.000000,12.000000,44.000000,28.000000,0.000000,0.000000,0.000000,0.000000,0.667954,0.802006,0.081081,0.297297,0.682432,692.000000,680.000000,12.000000,44.000000,28.000000,0.000000,0.000000,0.000000,0.000000;
#CREDIT:Feraligatr;
#DISPLAYBPM:119.000000;
#NOTES:
// measure 0
0000
0000
0000
0000
,  // measure 1
0000
0000
0000
0000
,  // measure 2
0000
0000
0000
0000
,  // measure 3
0000
0000
0000
0000
,  // measure 4
0001
0000
1000
0100
1000
0001
0100
0001
0010
0000
0100
0000
2000
0000
0000
3010
,  // measure 5
0100
0000
0001
1000
0001
0100
0010
1000
0100
0000
0010
0000
0002
0000
0000
0103
,  // measure 6
0010
0000
0000
0000
1000
0000
0001
0010
0002
0000
2003
0000
3020
0000
0000
0130
,  // measure 7
0001
0000
1000
0100
0001
00M0
0001
0010
1000
0M00
1000
0100
0020
0000
0000
0000
,  // measure 8
0031
0100
0001
0100
0010
1000
0001
0010
0001
1000
0010
0100
0001
1000
0100
1000
,  // measure 9
0010
0100
0001
0010
0100
1000
0001
1000
0010
0100
0001
1000
0001
0010
0100
1000
,  // measure 10
0010
0100
0001
0010
0100
0010
0001
0100
0010
1000
0001
1000
0100
0010
0001
1000
,  // measure 11
0010
0001
0010
1000
0200
0000
1300
0010
,  // measure 12
1010
0000
0000
0000
0001
0000
1000
0100
0100
0001
0010
0000
0100
0000
1000
0000
,  // measure 13
0010
0000
0001
0000
0010
0000
1000
0100
0100
0010
0001
0000
0010
0000
1000
0000
,  // measure 14
0100
0000
0000
0000
0010
0000
0001
0100
0100
1000
0001
0000
0010
0000
0001
0000
,  // measure 15
0100
0000
1000
0000
0100
0000
0001
0010
0010
1000
0100
0000
1000
0000
0100
0100
,  // measure 16
0001
0000
0000
0000
0010
0000
0001
0100
0100
1000
0010
0000
0100
0000
0001
0000
,  // measure 17
2000
0000
0000
3100
0020
0000
0031
0010
0010
0100
1000
0000
0100
0000
0001
0000
,  // measure 18
2000
0000
3010
1000
0001
0100
0001
0100
0100
1000
0001
0000
0100
0001
1000
0001
,  // measure 19
0010
0000
0100
1000
0001
0000
1000
0010
0010
0001
0100
0000
0001
0000
0100
0100
,  // measure 20
0020
0000
0130
1000
0002
0000
0103
0010
,  // measure 21
1000
0100
0001
0010
1000
0000
1100
1000
,  // measure 22
0010
0100
0001
0010
0200
1000
0310
0001
,  // measure 23
0100
0010
1000
0100
0010
0100
1000
0010
,  // measure 24
0200
0001
0310
1000
0002
0010
1003
0100
,  // measure 25
1000
0000
0010
0000
0001
0000
0100
0000
1000
0000
0001
0000
1000
0000
0100
0100
,  // measure 26
0001
0100
0001
0010
0200
1000
0310
0001
,  // measure 27
0100
0010
1000
0100
0010
0100
1000
0010
,  // measure 28
0200
0000
0000
0000
0000
0000
0301
0000
2000
0000
0000
3100
1000
0000
0001
0000
,  // measure 29
0000
0000
0001
0000
1000
0000
0001
0000
0000
0000
0001
0000
1000
0000
0100
0100
,  // measure 30
0001
0000
0000
0000
1000
0000
0100
0000
0110
0000
0000
00M0
1000
0000
0100
0000
0001
0000
0000
000M
1000
0000
0100
0000
0001
0000
0000
000M
1000
0000
0100
0000
,  // measure 31
0001
0000
0100
1000
0010
0000
1000
0100
0100
0010
0001
0000
0010
0000
0100
0000
,  // measure 32
0001
0000
0000
0000
1000
0000
0100
0000
0110
0000
0000
00M0
1000
0000
0100
0000
0010
0000
0000
00M0
1000
0000
0100
0000
0010
0000
0000
00M0
1000
0000
0100
0000
,  // measure 33
0010
0000
0100
1000
0010
0000
1000
0010
0010
0001
0100
0000
0001
0000
0100
0100
,  // measure 34
1000
0000
0000
0000
0001
0000
0100
0000
0110
0000
0000
00M0
0001
0000
0100
0000
1000
0000
0000
M000
0001
0000
0100
0000
1000
0000
0000
M000
0001
0000
0100
0000
,  // measure 35
1000
0000
0100
0001
0010
0000
0001
0100
0100
0010
1000
0000
0010
0000
0100
0000
,  // measure 36
1000
0000
0000
0000
0001
0000
0100
0000
0110
0000
0000
00M0
0001
0000
0100
0000
0010
0000
0000
00M0
0001
0000
0100
0000
0010
0000
0000
00M0
0001
0000
0100
0000
,  // measure 37
0010
0000
0100
0001
0010
0000
0001
0010
0010
1000
0100
0000
1000
0000
0100
0100
,  // measure 38
0001
0000
1000
0100
1000
0001
0100
0010
1000
0000
0100
0000
0020
0000
0000
0031
,  // measure 39
1000
0000
0010
0100
0001
1000
0100
1000
0010
0100
0001
0000
0020
0000
0000
0130
,  // measure 40
1000
0000
0001
0000
0101
0000
0100
0010
1000
0000
0001
0000
0020
0000
0000
0000
,  // measure 41
0130
0000
1000
0010
0001
0M00
0001
0100
1000
00M0
1000
0010
0200
0000
0310
0010
,  // measure 42
0200
0000
0000
0000
0000
0000
1000
0000
0000
0300
0000
0000
0110
0000
0000
0000
0000
0000
1000
0000
0000
0000
0000
0000
0002
0000
0000
0000
0000
0000
0000
0000
0013
0000
0000
0100
0000
0000
1000
0000
0000
0010
0000
0000
0000
0000
0100
0000
,  // measure 43
0000
0000
0000
0000
0000
0000
0000
0000
0001
0000
0000
0000
0000
0000
0000
0000
0000
0000
0000
0000
0000
0000
0000
0000
2000
0000
0000
0000
0000
0000
0000
0000
0000
0000
0000
0000
0000
0000
0000
0000
0000
0000
0000
0000
0000
0000
0000
0000
3100
0000
0000
0000
0000
0000
0000
0000
0000
0000
0000
0000
0000
0000
0000
0000
0000
0000
0000
0000
0000
0000
0000
0000
0010
0000
0000
0000
0000
0000
0000
0000
0000
0000
0000
0000
0001
0000
0000
0000
0000
0000
0000
0000
0000
0000
0000
0000
2000
0000
0000
0000
0000
0000
0000
0000
0000
0000
0000
0000
0000
0000
0000
0000
0000
0000
0000
0000
0000
0000
0000
0000
3100
0000
0000
0000
0000
0000
0000
0000
0000
0000
0000
0000
1000
0000
0000
0000
0000
0000
0000
0000
0000
0000
0000
0000
0020
0000
0000
0000
0000
0000
0000
0000
0000
0000
0000
0000
0000
0000
0000
0000
0000
0000
0000
0000
0000
0000
0000
0000
0000
0000
0000
0000
0000
0000
0130
0000
0000
0000
0000
0000
0000
0000
0000
0000
0000
0000
0000
0000
0000
0000
0000
0000
,  // measure 44
0002
0100
0010
1003
0001
0010
0100
1000
,  // measure 45
0010
0000
0001
0000
0010
0000
1000
0000
0200
0000
0010
0000
1300
0000
0100
0100
,  // measure 46
0001
0000
0000
0000
1000
0000
0001
0100
0100
1000
0010
0000
0100
0000
0001
0000
,  // measure 47
0010
0000
1000
0000
0010
0000
0001
0100
0100
0010
1000
0000
0110
0000
0001
0000
,  // measure 48
0100
0000
0000
0000
0010
0000
1000
0100
0100
0001
1000
0000
0010
0000
1000
0000
,  // measure 49
0100
0000
0001
0000
0100
0000
1000
0010
0010
0001
0100
0000
0001
0000
0100
0100
,  // measure 50
1000
0000
0000
0000
0010
0000
1000
0100
0100
0001
0010
0000
0100
0000
1000
0000
,  // measure 51
0002
0000
0000
0103
0020
0000
1030
0010
0010
0100
0001
0000
0100
0000
1000
0000
,  // measure 52
0002
0000
0013
0001
1000
0100
1000
0100
0100
0001
1000
0000
0100
1000
0001
1000
,  // measure 53
0010
0000
0100
0001
1000
0000
0001
0010
0010
1000
0100
0000
1000
0000
0100
0100
,  // measure 54
0020
0000
0000
0030
0110
0000
0001
0000
2000
0000
0000
0000
3100
0000
0010
0000
,  // measure 55
0001
0000
0100
0000
1000
0000
0010
0000
0002
0000
0000
0103
0020
0000
2030
0000
,  // measure 56
3100
0010
0011
1000
0020
1000
0130
0001
,  // measure 57
0010
0100
1000
0010
0001
1000
0100
0001
,  // measure 58
0020
0001
0130
1000
0002
0100
1003
0010
,  // measure 59
1000
0000
0100
0000
0001
0000
0010
0000
1000
0000
0001
0000
1000
0000
0010
0010
,  // measure 60
0001
0010
0001
0100
0020
1000
0130
0001
,  // measure 61
0010
0100
1000
0010
0100
0010
1000
0100
,  // measure 62
0020
0000
0000
0000
0000
0000
0031
0000
2000
0000
0000
3010
1000
0000
0001
0000
,  // measure 63
0000
0000
0001
0000
1000
0000
0001
0000
0100
0000
0010
0000
1000
0000
0100
0100
,  // measure 64
0001
0000
0000
0000
1000
0000
0010
0000
0001
0000
0000
000M
1000
0000
0010
0000
0001
0000
0000
000M
1000
0000
0010
0000
0001
0000
0000
000M
1000
0000
0010
0000
,  // measure 65
0001
0000
0010
1000
0100
0000
1000
0010
0010
0100
0001
0000
0100
0000
0010
0000
,  // measure 66
0001
0000
0000
0000
1000
0000
0010
0000
0100
0000
0000
0M00
1000
0000
0010
0000
0100
0000
0000
0M00
1000
0000
0010
0000
0100
0000
0000
0M00
1000
0000
0010
0000
,  // measure 67
0100
0000
0010
1000
0100
0000
1000
0010
0010
0001
0100
0000
0101
0000
0100
0100
,  // measure 68
1000
0000
0000
0000
0001
0000
0010
0000
1000
0000
0000
M000
0001
0000
0010
0000
1000
0000
0000
M000
0001
0000
0010
0000
1000
0000
0000
M000
0001
0000
0010
0000
,  // measure 69
1000
0000
0010
0001
0100
0000
0001
0010
0010
0100
1000
0000
0100
0000
0010
0000
,  // measure 70
1000
0000
0000
0000
0001
0000
0010
0000
0100
0000
0000
0M00
0001
0000
0010
0000
0100
0000
0000
0M00
0001
0000
0010
0000
0100
0000
0000
0M00
0001
0000
0010
0000
,  // measure 71
0100
0000
0010
0001
1000
0000
0010
0000
0200
0000
0000
0000
0301
0000
0100
0100
;

//---------------dance-single - Feraligatr----------------
#NOTEDATA:;
#CHARTNAME:Feraligatr SH;
#STEPSTYPE:dance-single;
#DESCRIPTION:Feraligatr;
#CHARTSTYLE:;
#DIFFICULTY:Hard;
#METER:9;
#RADARVALUES:0.596525,0.631883,0.013514,0.283784,0.496622,618.000000,616.000000,2.000000,42.000000,0.000000,0.000000,0.000000,0.000000,0.000000,0.596525,0.631883,0.013514,0.283784,0.496622,618.000000,616.000000,2.000000,42.000000,0.000000,0.000000,0.000000,0.000000,0.000000;
#CREDIT:Feraligatr;
#DISPLAYBPM:119.000000;
#NOTES:
0000
0000
0000
0000
,
0000
0000
0000
0000
,
0000
0000
0000
0000
,
0000
0000
0000
0000
,
1000
0000
0001
0100
0010
0100
0001
1000
0100
0000
0010
0000
0002
0000
0000
1003
,
0010
0000
0100
0001
1000
0100
0010
0100
1000
0000
0001
0000
0200
0000
0000
0000
,
0310
0000
0000
0000
0100
0000
0001
1000
0100
0000
0010
0000
0002
0000
0000
0000
,
0013
0000
0100
1000
0010
0000
0100
0001
0010
0000
0100
1000
0020
0000
0000
0000
,
0130
0000
0000
0001
0000
0000
1000
0000
0000
0100
0000
0000
0010
0000
0001
0000
1000
0000
0010
0000
0100
0000
0000
0000
,
0001
1000
0200
0000
0010
0000
1300
0000
0002
0000
0103
0010
1000
0001
0000
0000
,
0010
0100
2000
0000
0000
0000
3001
0100
0010
0000
0100
0000
0001
0000
1000
0000
,
0100
0001
0100
1000
0020
0000
0130
0001
,
1001
0000
0000
0000
1000
0000
0001
0100
0000
0100
1000
0000
0010
0000
1000
0000
,
0100
0000
0001
0000
0100
0000
1000
0010
0000
0010
0001
0000
0100
0000
0010
0000
,
1000
0000
0000
0000
0001
0000
1000
0100
0000
0100
0001
0000
0010
0000
0001
0000
,
0100
0000
1000
0000
0100
0000
0001
0010
0000
0010
1000
0000
0100
0000
0010
0001
,
1000
0000
0000
0000
0010
0000
1000
0100
0000
0100
0001
0000
1000
0000
0100
0000
,
0020
0000
0000
0031
2000
0000
0000
3010
0002
0000
0000
0000
0013
0000
0100
0000
,
0001
0000
0100
0001
1000
0100
1000
0100
0010
0000
0001
0000
1000
0010
0100
0001
,
1000
0000
0100
0010
0100
0000
1000
0000
0001
0000
1000
0000
0010
0000
0001
0010
,
0200
0000
0301
1000
0200
0000
0310
0001
,
0100
1000
0001
0010
2000
0000
3100
1000
,
0001
0100
0010
1000
0200
0000
0310
0001
,
1000
0100
1000
0010
0100
0001
0010
1000
,
0020
0000
0031
1000
0020
0000
0130
0001
,
0010
0000
1000
0000
0001
0000
0100
0000
1000
0000
0001
0000
0100
0000
0010
1000
,
0001
0010
0100
1000
0020
0000
0130
0001
,
1000
0010
1000
0100
0010
0001
0100
1000
,
0200
0000
0000
0000
0000
0000
0301
0000
2000
0000
0000
3100
1000
0000
0001
0000
,
0000
0000
0001
0000
1000
0000
0001
0000
0000
0000
0001
0000
1000
0000
0001
1000
,
0010
0000
0100
0001
0100
0000
0100
1000
0100
0000
0100
0001
0100
0000
0100
1000
,
0100
0000
0100
0001
1000
0000
0001
0010
0000
0010
1000
0000
0100
0000
0010
0000
,
0001
0000
1000
0100
1000
0000
0001
0100
0001
0000
1000
0100
1000
0000
0001
0100
,
0001
0000
1000
0100
0000
0000
1000
0010
0000
0010
0001
0000
0100
0000
0001
1000
,
0100
0000
0010
0001
0010
0000
0010
1000
0010
0000
0010
0001
0010
0000
0010
1000
,
0010
0000
0010
0001
1000
0000
0001
0100
0000
0100
1000
0000
0010
0000
0100
0000
,
0001
0000
1000
0100
1000
0000
0001
0100
0001
0000
1000
0100
1000
0000
0001
0100
,
0001
0000
1000
0100
1000
0000
0001
0100
0010
0100
0001
0000
1000
0000
0001
0010
,
0100
0000
1000
0001
1000
0010
0100
0001
1000
0000
0100
0000
0020
0000
0000
0031
,
1000
0000
0001
0100
0001
1000
0100
1000
0010
0100
0001
0000
2000
0000
0000
3100
,
0010
0000
0001
0000
1000
0000
0010
0100
0010
0000
1000
0000
0002
0000
0000
0000
,
0013
0000
0100
1000
0010
0000
0100
0001
0010
0000
0100
1000
0020
0000
0000
0000
,
0130
0000
0000
0000
0000
0000
0001
0000
0000
0000
0000
0000
1000
0000
0000
0000
0000
0000
0100
0000
0000
0000
0000
0000
0020
0000
0000
0000
0000
0000
0000
0000
0031
0000
0000
1000
0000
0000
0100
0000
0000
0010
0000
0000
0000
0000
0001
0000
,
0000
0000
0000
0000
0000
0000
0000
0000
0100
0000
0000
0000
0000
0000
0000
0000
0000
0000
0000
0000
0000
0000
0000
0000
0020
0000
0000
0000
0000
0000
0000
0000
0000
0000
0000
0000
0000
0000
0000
0000
0000
0000
0000
0000
0000
0000
0000
0000
1030
0000
0000
0000
0000
0000
0000
0000
0000
0000
0000
0000
0000
0000
0000
0000
0000
0000
0000
0000
0000
0000
0000
0000
0001
0000
0000
0000
0000
0000
0000
0000
0000
0000
0000
0000
0010
0000
0000
0000
0000
0000
0000
0000
0000
0000
0000
0000
0100
0000
0000
0000
0000
0000
0000
0000
0000
0000
0000
0000
0000
0000
0000
0000
0000
0000
0000
0000
0000
0000
0000
0000
1000
0000
0000
0000
0000
0000
0000
0000
0000
0000
0000
0000
0001
0000
0000
0000
0000
0000
0000
0000
0000
0000
0000
0000
0200
0000
0000
0000
0000
0000
0000
0000
0000
0000
0000
0000
0000
0000
0000
0000
0000
0000
0000
0000
0000
0000
0000
0000
0000
0000
0000
0000
0000
0000
0310
0000
0000
0000
0000
0000
0000
0000
0000
0000
0000
0000
0000
0000
0000
0000
0000
0000
,
2000
0000
0001
3100
1000
0001
0010
0001
,
0100
1000
0100
0001
0020
0000
0130
1000
,
1001
0000
0000
0000
1000
0000
0001
0010
0000
0010
1000
0000
0100
0000
1000
0000
,
0010
0000
0001
0000
0010
0000
1000
0100
0000
0100
0001
0000
0010
0000
0100
0000
,
1000
0000
0000
0000
0001
0000
1000
0010
0000
0010
0001
0000
0100
0000
0001
0000
,
0010
0000
1000
0000
0010
0000
0001
0100
0000
0100
1000
0000
0010
0000
0100
0001
,
1000
0000
0000
0000
0100
0000
1000
0010
0000
0010
0001
0000
1000
0000
0010
0000
,
0200
0000
0000
0301
2000
0000
0000
3100
0002
0000
0000
0000
0103
0000
0010
0000
,
0001
1000
0010
1000
0001
0010
0001
0010
0100
0000
1000
0000
0001
0100
0010
1000
,
0001
0000
0010
0100
0010
0000
0001
0000
1000
0000
0001
0000
0100
0000
1000
0100
,
0020
0000
1030
0001
0020
0000
0130
1000
,
0010
0000
0001
0000
1000
0000
0100
0000
0002
0000
0000
0013
0100
0000
1000
0000
,
0001
0100
0010
1000
0200
0000
0310
0001
,
1000
0100
1000
0010
0001
1000
0100
0001
,
0020
0000
0031
1000
0020
0000
0130
0001
,
0010
0000
1000
0000
0001
0000
0100
0000
1000
0000
0001
0000
0100
0000
0010
1000
,
0001
0010
0100
1000
0020
0000
0130
0001
,
1000
0010
1000
0100
0010
0001
0100
1000
,
0200
0000
0000
0000
0000
0000
0301
0000
2000
0000
0000
3100
1000
0000
0001
0000
,
0000
0000
0001
0000
1000
0000
0001
0000
0010
0000
0100
0000
1000
0000
0001
1000
,
0010
0000
0100
0001
0100
0000
0100
1000
0100
0000
0100
0001
0100
0000
0100
1000
,
0100
0000
0100
0001
1000
0000
0001
0010
0000
0010
1000
0000
0100
0000
0010
0000
,
0001
0000
1000
0100
1000
0000
0001
0100
0001
0000
1000
0100
1000
0000
0001
0100
,
0001
0000
1000
0100
0000
0000
1000
0010
0000
0010
0001
0000
0100
0000
0001
1000
,
0100
0000
0010
0001
0010
0000
0010
1000
0010
0000
0010
0001
0010
0000
0010
1000
,
0010
0000
0010
0001
1000
0000
0001
0100
0000
0100
1000
0000
0010
0000
0100
0000
,
0001
0000
1000
0100
1000
0000
0001
0100
0001
0000
1000
0100
1000
0000
0001
0100
,
0001
0000
1000
0100
1000
0000
0001
0000
0200
0000
0000
0000
0310
0000
1000
0001
;

//---------------dance-single - Feraligatr----------------
#NOTEDATA:;
#CHARTNAME:Feraligatr SM;
#STEPSTYPE:dance-single;
#DESCRIPTION:Feraligatr;
#CHARTSTYLE:;
#DIFFICULTY:Medium;
#METER:8;
#RADARVALUES:0.482625,0.583277,0.006757,0.277027,0.226351,500.000000,499.000000,1.000000,41.000000,0.000000,0.000000,0.000000,0.000000,0.000000,0.482625,0.583277,0.006757,0.277027,0.226351,500.000000,499.000000,1.000000,41.000000,0.000000,0.000000,0.000000,0.000000,0.000000;
#CREDIT:Feraligatr;
#DISPLAYBPM:119.000000;
#NOTES:
0000
0000
0000
0000
,
0000
0000
0000
0000
,
0000
0000
0000
0000
,
0000
0000
0000
0000
,
1000
0010
0100
0001
1000
0100
0020
0000
,
0031
1000
0010
1000
0100
0010
0002
0000
,
0103
0000
0001
1000
0100
0010
0002
0000
,
1003
0000
0001
0100
0001
0000
1000
0010
1000
0000
0001
0010
0002
0000
0000
0000
,
0203
0000
0310
0000
1000
0001
0010
0000
,
0001
1000
0001
0000
0100
0010
1000
0000
,
0001
0020
0000
0130
1000
0000
0001
0000
,
1000
0010
0100
0001
0020
0000
0031
0100
,
0010
0000
1000
0100
0010
0100
1000
0000
,
0001
0100
0010
1000
0200
0000
1300
0010
,
0100
0000
0001
0010
0100
0010
0001
0000
,
1000
0010
0100
0001
0020
0000
0031
0100
,
0010
0000
1000
0100
0010
0100
1000
0000
,
0002
0000
0000
0103
0020
0000
0000
0130
2000
0000
0000
0000
3100
0000
0001
0000
,
1000
0000
0001
0010
0100
0010
0001
0000
,
1000
0000
0010
0000
0100
0001
1000
0100
,
0002
0000
0003
0100
0020
0000
0030
0100
,
1000
0010
0100
0001
0010
0000
0000
0001
,
1000
0010
0100
0001
0020
0000
0030
0001
,
0100
0010
1000
0100
0010
0001
1000
0010
,
0002
0000
0003
0010
0200
0000
0300
0010
,
1000
0100
0010
0001
0100
0000
0010
1000
,
0001
0010
0100
1000
0020
0000
0030
1000
,
0100
0010
0001
0100
0010
1000
0001
0010
,
2000
0000
0000
3010
0200
0000
1300
0001
,
0000
0001
0100
0001
0000
0001
0100
0000
,
1001
0000
1000
0010
1000
0000
0001
0010
0001
0000
1000
0010
1000
0000
0001
0010
,
0001
0000
1000
0010
0000
0000
1000
0001
0000
0001
0010
0000
0100
0000
0010
0000
,
0001
0000
1000
0100
1000
0000
0001
0100
0001
0000
1000
0100
1000
0000
0001
0100
,
0001
0000
1000
0100
0000
0000
1000
0001
0000
0001
0100
0000
0010
0000
0100
0001
,
1000
0000
0001
0010
0001
0000
1000
0010
1000
0000
0001
0010
0001
0000
1000
0010
,
1000
0000
0001
0010
0000
0000
0001
1000
0000
1000
0100
0000
0010
0000
0100
0000
,
1000
0000
0001
0100
0001
0000
1000
0100
1000
0000
0001
0100
0001
0000
1000
0100
,
1000
0000
0001
0100
0001
0000
1000
0100
1000
0100
1000
0000
0001
0000
0000
0000
,
0100
0010
1000
0001
0010
0001
0200
0000
,
0310
1000
0001
0010
0100
1000
0020
0000
,
0130
0000
0000
0001
1000
0100
0020
0000
,
0031
0000
1000
0010
1000
0000
0001
0010
0001
0000
1000
0010
1000
0000
0000
0000
,
0200
0000
0310
0000
0001
1000
0010
0100
,
0002
0000
1003
0010
0100
0001
0010
0001
,
0200
0000
0000
0310
1000
0000
0001
0000
,
1000
0100
0010
0001
0200
0000
0301
0010
,
0100
0000
1000
0010
0100
0010
1000
0000
,
0001
0010
0100
1000
0020
0000
1030
0100
,
0010
0000
0001
0100
0010
0100
0001
0000
,
1000
0100
0010
0001
0200
0000
0301
0010
,
0100
0000
1000
0010
0100
0010
1000
0000
,
0002
0000
0000
0013
0200
0000
0000
0310
2000
0000
0000
0000
3010
0000
0001
0000
,
1000
0000
0001
0100
0010
0100
0001
0000
,
1000
0000
0100
0000
0010
0001
1000
0010
,
0002
0000
0003
0010
0200
0000
0300
0010
,
1000
0100
0010
0001
0100
0000
0000
0001
,
1000
0100
0010
0001
0200
0000
0300
0001
,
0010
0100
1000
0010
0001
0010
1000
0100
,
0002
0000
0003
0100
0020
0000
0030
0100
,
1000
0010
0100
0001
0010
0000
0100
1000
,
0001
0100
0010
1000
0200
0000
0300
1000
,
0010
0100
0001
0010
0100
1000
0001
0100
,
2000
0000
0000
3100
0020
0000
1030
0001
,
0000
0001
0010
0001
0100
0010
1000
0001
,
0100
0000
0001
0010
0001
0000
1000
0010
1000
0000
0001
0010
0001
0000
1000
0010
,
1000
0000
0001
0010
0000
0000
0001
1000
0000
1000
0010
0000
0100
0000
0010
0000
,
1000
0000
0001
0100
0001
0000
1000
0100
1000
0000
0001
0100
0001
0000
1000
0100
,
1000
0000
0001
0100
0000
0000
0001
1000
0000
1000
0100
0000
0010
0000
0100
1000
,
0001
0000
1000
0010
1000
0000
0001
0010
0001
0000
1000
0010
1000
0000
0001
0010
,
0001
0000
1000
0010
0000
0000
1000
0001
0000
0001
0100
0000
0010
0000
0100
0000
,
0001
0000
1000
0100
1000
0000
0001
0100
0001
0000
1000
0100
1000
0000
0001
0100
,
0001
0000
1000
0100
1000
0000
0001
0000
0200
0000
0000
0000
0310
0000
1000
0001
;

//---------------dance-single - Feraligatr----------------
#NOTEDATA:;
#CHARTNAME:Feraligatr SE;
#STEPSTYPE:dance-single;
#DESCRIPTION:Feraligatr;
#CHARTSTYLE:;
#DIFFICULTY:Easy;
#METER:5;
#RADARVALUES:0.299228,0.315118,0.013514,0.128378,0.027027,310.000000,308.000000,2.000000,19.000000,0.000000,0.000000,0.000000,0.000000,0.000000,0.299228,0.315118,0.013514,0.128378,0.027027,310.000000,308.000000,2.000000,19.000000,0.000000,0.000000,0.000000,0.000000,0.000000;
#CREDIT:Feraligatr;
#DISPLAYBPM:119.000000;
#NOTES:
0000
0000
0000
0000
,
0000
0000
0000
0000
,
0000
0000
0000
0000
,
0000
0000
0000
0000
,
1000
0000
0100
0000
0010
0001
2000
0000
,
3010
0000
0100
0000
0001
1000
0200
0000
,
0310
0000
0001
0000
1000
0001
0200
0000
,
0310
1000
0100
1000
0100
0010
0002
0000
,
0103
0010
1000
0001
,
0010
0100
0010
0000
0001
0000
1000
0000
,
0010
0100
0010
0000
1000
0000
0001
0000
,
0000
0000
0000
0000
,
0110
0000
1000
0000
0001
0100
0001
0000
,
1000
0000
0100
0000
0010
0001
0010
0000
,
0100
0000
1000
0000
0001
0100
0001
0000
,
1000
0000
0100
0000
0010
0001
0010
0000
,
0100
0000
1000
0000
0001
0100
0001
0000
,
2000
0000
3020
0000
0230
0000
0301
1000
,
0100
0000
0010
0000
0001
1000
0001
0000
,
0100
0000
0010
0000
1000
0001
1000
0000
,
0100
0000
0100
0000
,
0100
1000
0001
0000
,
0100
0000
0010
1000
0001
0000
0010
0000
,
0100
0000
1000
0001
0100
0000
0010
0000
,
1000
0001
1000
0001
,
1000
0100
0010
0001
,
1000
0000
0010
0100
0001
0000
1000
0000
,
0100
0000
0010
0100
1000
0000
0001
0000
,
0200
0000
0320
1030
,
0000
0000
0000
0000
,
0010
1000
0001
0000
0001
0000
0001
0000
,
0001
0000
1000
0001
0000
0000
0000
0000
0010
0000
0000
0000
0100
0000
0000
0000
,
1000
0001
0100
0000
0100
0000
0100
0000
,
0100
0000
0010
0100
0000
0000
0000
0000
0001
0000
0000
0000
1000
0000
0000
0000
,
0100
0010
0001
0000
0001
0000
0001
0000
,
0001
0000
1000
0001
0000
0000
0000
0000
0100
0000
0000
0000
0010
0000
0000
0000
,
1000
0001
0010
0000
0010
0000
0010
0000
,
0010
0000
0100
0010
0000
0000
0000
0000
0001
0000
0000
0000
1000
0000
0000
0000
,
0010
0000
0100
0000
0001
1000
0200
0000
,
0310
0000
0001
0000
0100
0010
2000
0000
,
3001
0000
1000
0000
0010
1000
0200
0000
,
0310
0001
0100
0001
0100
0010
2000
0000
,
3100
0000
0010
0000
0001
1000
0001
0000
,
0100
0000
0010
0000
1000
0001
1000
0000
,
0200
0000
0310
0001
,
0000
1000
0000
1000
,
0110
0000
0001
0000
1000
0010
1000
0000
,
0001
0000
0010
0000
0100
1000
0100
0000
,
0010
0000
0001
0000
1000
0010
1000
0000
,
0001
0000
0010
0000
0100
1000
0100
0000
,
0010
0000
0001
0000
1000
0010
1000
0000
,
0002
0000
0203
0000
0320
0000
1030
0001
,
0010
0000
0100
0000
1000
0001
1000
0000
,
0010
0000
0100
0000
0001
1000
0001
0000
,
0010
0100
0010
0000
,
0010
0001
1000
0000
,
0010
0000
0100
0001
1000
0000
0100
0000
,
0010
0000
0001
1000
0010
0000
0100
0000
,
0001
1000
0001
1000
,
0001
0010
0100
1000
,
0001
0000
0100
0010
1000
0000
0001
0000
,
0010
0000
0100
0010
0001
0000
1000
0000
,
0020
0000
0230
0301
,
0000
0000
1000
0010
,
0100
0001
1000
0000
1000
0000
1000
0000
,
1000
0000
0001
1000
0000
0000
0000
0000
0100
0000
0000
0000
0010
0000
0000
0000
,
0001
1000
0010
0000
0010
0000
0010
0000
,
0010
0000
0100
0010
0000
0000
0000
0000
1000
0000
0000
0000
0001
0000
0000
0000
,
0010
0100
1000
0000
1000
0000
1000
0000
,
1000
0000
0001
1000
0000
0000
0000
0000
0010
0000
0000
0000
0100
0000
0000
0000
,
0001
1000
0100
0000
0100
0000
0100
0000
,
0100
0000
0010
0100
0000
0000
0000
0000
1000
0000
0000
0000
0001
0000
0000
0000
;

//---------------dance-single - Feraligatr----------------
#NOTEDATA:;
#CHARTNAME:Feraligatr SN;
#STEPSTYPE:dance-single;
#DESCRIPTION:Feraligatr;
#CHARTSTYLE:;
#DIFFICULTY:Beginner;
#METER:2;
#RADARVALUES:0.147683,0.193919,0.020270,0.081081,0.000000,153.000000,150.000000,3.000000,12.000000,0.000000,0.000000,0.000000,0.000000,0.000000,0.147683,0.193919,0.020270,0.081081,0.000000,153.000000,150.000000,3.000000,12.000000,0.000000,0.000000,0.000000,0.000000,0.000000;
#CREDIT:Feraligatr;
#DISPLAYBPM:119.000000;
#NOTES:
0000
0000
0000
0000
,
0000
0000
0000
0000
,
0000
0000
0000
0000
,
0000
0000
0000
0000
,
1000
0000
0010
0000
,
0100
0000
0001
0000
,
1000
0000
0100
0000
,
1000
1000
0001
0001
,
0100
0000
0010
0000
,
1000
0000
0001
0000
,
0010
0000
0100
0000
,
0000
0000
0000
0000
,
1001
0000
1000
0000
,
0010
0010
0010
0000
,
0100
0000
0001
0000
,
1000
1000
1000
0000
,
0100
0000
0010
0000
,
0001
0001
0001
0000
,
1000
0000
0000
0000
,
0010
0000
0100
0100
,
0001
0000
0001
0000
,
0002
0000
0000
0003
,
1000
0000
0100
0000
,
1000
0000
0001
0000
,
0100
0000
0100
0000
,
0200
0000
0300
0000
,
0001
0000
1000
0000
,
0100
0000
0020
0000
,
0032
0000
2003
3000
,
0000
0000
0000
0000
,
1001
0001
0001
0001
,
0001
0000
0010
0000
,
0100
1000
1000
1000
,
1000
0000
0010
0000
,
0100
0001
0001
0001
,
0001
0000
0010
0000
,
0100
1000
1000
1000
,
1000
0000
0000
0000
,
0001
0000
0100
0000
,
0001
0000
1000
0000
,
0100
0000
0010
0000
,
0001
0001
1000
1000
,
0100
0000
1000
0000
,
0001
0000
0100
0000
,
0020
0000
0030
0000
,
0000
0000
0000
0000
,
1001
0000
0001
0000
,
0100
0100
0100
0000
,
0010
0000
1000
0000
,
0001
0001
0001
0000
,
0010
0000
0100
0000
,
1000
1000
1000
0000
,
0001
0000
0000
0000
,
0100
0000
0010
0010
,
1000
0000
1000
0000
,
2000
0000
0002
3003
,
0001
0000
0010
0000
,
0001
0000
1000
0000
,
0010
0000
0010
0000
,
0020
0000
0030
0000
,
1000
0000
0001
0000
,
0010
0000
0200
0000
,
2300
0000
3002
0003
,
0000
0000
0100
0000
,
0010
1000
1000
1000
,
1000
0000
0100
0000
,
0010
0001
0001
0001
,
0001
0000
0100
0000
,
0010
1000
1000
1000
,
1000
0000
0100
0000
,
0010
0001
0001
0001
,
0001
0000
0000
1000
;
