#VERSION:0.83;
#TITLE:SELFISH;
#SUBTITLE:(Kyun x moo Remix);
#ARTIST:Moon Byul;
#TITLETRANSLIT:;
#SUBTITLETRANSLIT:;
#ARTISTTRANSLIT:;
#GENRE:;
#ORIGIN:;
#CREDIT:;
#BANNER:SELFISH-bn.png;
#BACKGROUND:SELFISH-bg-wide.png;
#PREVIEWVID:;
#JACKET:SELFISH-jacket.png;
#CDIMAGE:;
#DISCIMAGE:SELFISH-bg.png;
#LYRICSPATH:;
#CDTITLE:;
#MUSIC:SELFISH (Kyun x moo Remix).ogg;
#OFFSET:0.009000;
#SAMPLESTART:72.971764;
#SAMPLELENGTH:18.461538;
#SELECTABLE:YES;
#BPMS:0.000=104.000,
176.000=52.000;
#STOPS:;
#DELAYS:;
#WARPS:;
#TIMESIGNATURES:0.000=4=4;
#TICKCOUNTS:0.000=4;
#COMBOS:0.000=1;
#SPEEDS:0.000=1.000=0.000=0;
#SCROLLS:0.000=1.000;
#FAKES:;
#LABELS:0.000=Song Start;
#BGCHANGES:;
#KEYSOUNDS:;
#ATTACKS:
;

//---------------dance-single - ----------------
#NOTEDATA:;
#CHARTNAME:;
#STEPSTYPE:dance-single;
#DESCRIPTION:;
#CHARTSTYLE:Pad;
#DIFFICULTY:Challenge;
#METER:11;
#RADARVALUES:0.798352,0.892234,0.476741,0.361970,1.196267,633.000000,579.000000,54.000000,41.000000,1.000000,1.000000,7.000000,0.000000,0.000000,0.798352,0.892234,0.476741,0.361970,1.196267,633.000000,579.000000,54.000000,41.000000,1.000000,1.000000,7.000000,0.000000,0.000000;
#CREDIT:Benpai;
#NOTES:
// measure 0
0000
0000
0000
0000
,  // measure 1
0000
0000
0000
0000
,  // measure 2
0000
0000
0000
0000
,  // measure 3
0000
0000
0000
0000
0000
0000
0000
0000
1000
0010
0000
0000
0110
0000
0100
0000
,  // measure 4
0002
0003
1000
0001
0010
0200
0300
2000
3010
1000
0001
0001
0100
0000
0010
0000
,  // measure 5
2000
0000
0000
3000
0001
0000
0100
0000
0000
0001
0000
0000
0010
0000
0000
0000
0010
0000
0000
0000
0000
0200
0000
0000
0310
0000
0000
0001
0000
0000
1000
0000
0000
0010
0000
0000
0100
0000
0000
0000
0000
0000
0001
0000
0000
0000
0000
0000
,  // measure 6
1001
1000
0001
0100
0010
0100
0001
1000
0100
0010
0100
1000
0001
1000
0010
0100
,  // measure 7
0001
0000
1000
0000
0100
0000
1000
0000
0001
0000
0100
0000
0010
0000
1000
0000
0001
0000
0000
0000
0001
0000
1000
0000
0100
0000
0010
0000
0100
1000
0001
1000
,  // measure 8
0010
0000
0000
0000
0000
0000
0000
0000
0000
0000
0000
0000
0100
0000
0000
0000
0000
0000
0000
0000
0001
0000
0000
0000
0000
0000
0000
0000
1000
0000
0000
0000
0000
0000
0000
0000
0100
0000
0000
0000
0000
0000
1000
0000
0000
0000
0000
0000
0010
0000
0000
0000
0000
0000
0000
0000
0000
0000
0000
0000
1000
0000
0000
0000
0000
0000
0000
0000
0000
0000
0000
0000
0010
0000
0000
0000
0000
0000
0000
0000
0000
0000
0000
0000
0100
0000
0000
0000
0000
0000
0000
0000
0000
0000
0000
0000
0001
0000
0000
0000
0000
0000
0000
0000
0000
0000
0000
0000
0000
0000
0000
0000
0000
0000
0000
0000
0000
0000
0000
0000
2000
0000
0000
0000
0000
0000
0000
0000
0000
0000
0000
0000
0000
0000
0000
0000
0000
0000
0000
0000
0000
0000
0000
0000
3100
0000
0000
0000
0000
0000
0000
0000
0000
0000
0000
0000
0010
0000
0000
0000
0000
0000
0000
0000
0000
0000
0000
0000
0001
0000
0000
0000
0000
0000
0000
0000
0000
0000
0000
0000
1000
0000
0000
0000
0000
0000
0000
0000
0000
0000
0000
0000
,  // measure 9
0010
0000
0000
0100
0000
0010
0000
0100
0000
0001
0000
0000
0010
0000
0000
0100
0000
0000
1000
0000
0000
0001
0000
0000
0200
0000
0000
0000
0000
0000
0320
0000
0000
0000
0000
0000
2030
0000
0000
0000
0000
0000
3002
0000
0000
0000
0000
0000
,  // measure 10
1003
0000
0100
0000
0010
0000
0001
0000
0100
0000
0010
0000
0100
0000
0001
0000
0010
0000
0100
1000
0100
0000
0010
0000
0001
0000
1000
0000
0010
0000
0100
0000
,  // measure 11
0002
0000
1003
0000
0200
0000
1300
0000
0020
0000
0130
0000
0001
0000
1000
0000
0000
0000
0100
0010
0100
0000
1000
0001
1000
0000
0010
0100
0001
1000
0100
0010
,  // measure 12
0101
0000
0000
0010
0000
0000
0001
0000
0000
1000
0000
0000
0010
0000
0000
0100
0000
0000
0001
0000
0000
1100
0000
0000
0001
0000
0000
1000
0000
0000
0100
0000
0000
0000
0010
0000
0100
0000
0000
0000
1000
0000
0001
0000
0000
0000
1000
0000
,  // measure 13
0011
0000
0100
0000
0011
0000
1000
0000
0001
0000
0010
0000
0100
1000
0001
0000
1010
0000
0100
0000
1010
0000
0001
0000
0400
0000
0300
0000
0040
0000
0030
0000
,  // measure 14
1100
0001
1100
0010
0100
0001
1000
0101
0010
0001
0100
0010
0100
0001
1000
0101
,  // measure 15
1010
0000
0000
0001
0000
0000
1040
0000
0000
0430
0000
0000
1300
0000
0000
0001
0000
0000
0100
0000
0000
0010
0000
0000
1000
0000
0000
0000
0000
0000
0100
0000
0000
0000
0000
0000
0100
0000
0000
0010
0000
0000
0001
0000
1000
0000
0001
0000
,  // measure 16
0100
0000
0000
0000
0000
0000
0000
0000
0100
0000
0000
0000
0000
0000
0000
0000
0110
0000
0000
0000
0000
0000
0000
0000
0010
0000
0000
0000
2000
0000
0000
0000
0000
0000
0000
0000
0000
0000
0000
0000
3001
0000
0000
0000
0000
0010
0000
0000
0100
0000
0000
0000
0000
0010
0000
0000
0001
0000
0000
0000
1000
0000
0000
0000
,  // measure 17
0010
0000
0010
0100
2000
0000
3100
0001
1000
0001
2000
0000
3100
0010
0100
1000
,  // measure 18
0010
0000
0000
0000
0000
0000
0000
0000
0000
0000
0000
0000
0000
0000
0000
0000
0000
0000
0000
0000
0000
0000
0000
0000
0100
0000
0000
0000
0000
0000
0000
0000
0000
0000
0000
0000
0000
0000
0000
0000
0001
0000
0000
0000
0000
0000
0000
0000
0000
0000
0000
0000
0000
0000
0000
0000
0010
0000
0000
0000
0000
0000
0000
0000
0000
0000
0000
0000
0000
0000
0000
0000
0100
0000
0000
0000
0000
0000
0000
0000
0000
0000
0000
0000
0000
0000
0000
0000
1000
0000
0000
0000
0000
0000
0000
0000
0000
0000
0000
0000
0001
0000
0000
0000
0000
0000
0000
0000
0100
0000
0000
0000
0000
0000
0010
0000
0000
0000
0000
0000
0100
0000
0000
0000
0000
0000
0000
0000
0000
0000
0000
0000
0001
0000
0000
0000
0000
0000
0000
0000
0000
0000
0000
0000
0020
0000
0000
0000
0000
0000
0000
0000
0000
0000
0000
0000
0000
0000
0000
0000
0000
0000
0000
0000
0000
0000
0000
0000
0130
0000
0000
0000
0000
0000
0000
0000
0000
0000
0000
0000
1000
0000
0000
0000
0000
0000
0000
0000
0000
0000
0000
0000
,  // measure 19
0010
0000
0010
0000
0100
0000
0001
1000
0000
0000
0100
0000
0010
0100
1000
0000
,  // measure 20
0001
0100
0001
0010
0100
1000
0001
0100
0000
0000
0100
0000
0010
1000
0001
0001
,  // measure 21
0020
0000
0130
1000
0100
0010
0001
1000
0000
0000
1000
0000
0010
0100
0001
0000
,  // measure 22
1000
0000
0100
0000
1000
0000
0010
0000
0100
0000
0001
0000
1000
0000
0100
0000
0000
0000
0000
0000
0100
0000
0000
0000
0010
0100
0010
0000
0001
0000
1000
0000
,  // measure 23
0020
0000
0130
0001
1000
0001
0010
2000
0000
0000
3020
0000
0230
0000
0000
0300
,  // measure 24
1001
0000
1000
0010
0100
0000
0001
1010
0100
0010
0101
1000
0001
0100
0010
0010
,  // measure 25
2000
0000
0000
0000
3010
0000
0100
0000
0001
0000
0000
0000
0010
0000
0101
0000
1000
0000
0001
0000
1010
0000
0001
0000
0100
0000
0010
1000
0010
0000
0100
0000
,  // measure 26
0001
0000
0020
0000
0130
0020
0000
0131
1010
0000
0001
1100
0010
1000
0100
0010
,  // measure 27
0100
1000
0001
1000
0010
0100
0001
1010
0200
0000
1000
0000
0310
0001
0010
0001
,  // measure 28
2000
0000
0000
3010
0100
0001
1010
0101
1000
0011
1100
0001
0010
0101
1000
1000
,  // measure 29
0002
0000
0000
0000
0000
0000
0103
0000
0010
0000
0100
0000
0001
0000
1010
0000
0100
0000
0010
0000
0101
0000
1000
0000
0010
0000
0100
0001
0100
0000
0010
0000
,  // measure 30
1000
0000
0000
0000
1000
0000
0001
0000
0010
0000
0100
0000
1000
0000
0011
0000
1100
0000
0001
1000
0001
0000
0010
0000
0101
0000
1010
0000
0001
0000
0001
0000
,  // measure 31
1000
0000
0010
0000
0100
0000
0001
0000
0100
0000
0010
0000
1000
0000
0001
0000
0010
0000
0100
1000
0100
0000
0010
0001
1000
0000
0010
0000
0100
0000
0001
0000
,  // measure 32
1100
0000
0000
0000
0000
0000
1100
0000
0000
0000
0000
0000
0020
0000
0000
0000
0000
0000
1030
0000
0000
0102
0000
0000
0000
0000
0000
0000
0000
0000
0013
0000
0000
0000
0100
0000
0010
0000
0000
0000
0001
0000
1000
0000
0000
0000
0010
0000
,  // measure 33
1100
0000
0000
0000
1100
0000
0000
0000
0001
0000
0100
0000
0010
1000
0010
0000
0100
0000
0001
0000
0010
0000
0001
0000
4000
0000
3000
0000
0004
0000
0003
0000
,  // measure 34
1010
0000
0000
0000
0000
0000
0000
0000
1010
0000
0000
0000
0000
0000
0000
0000
0001
0000
0000
0000
0000
0000
0000
0000
0100
0000
0000
0000
0011
0000
0000
0000
0000
0000
0000
0000
0000
0000
0000
0000
0100
0000
0000
0000
0000
0001
0000
0000
1000
0000
0000
0000
0000
0100
0000
0000
1000
0000
0000
0000
0000
0001
0000
0000
,  // measure 35
1100
0000
0000
0001
0000
0000
1400
0000
0000
0300
0000
0000
0001
0000
0000
0000
0000
0000
0010
0000
0000
0100
0000
0000
1000
0000
0000
0000
0000
0000
0001
0000
0000
0000
0000
0000
0001
0000
0100
0000
0001
0000
0010
0000
0000
0100
0000
0000
,  // measure 36
1010
0000
0000
0000
0000
0000
0000
0000
1010
0000
0000
0000
0000
0000
0000
0000
0001
0000
0000
0000
0100
0000
0000
0000
0010
0000
0000
0000
1100
0000
0000
0000
0000
0000
0000
0000
0000
0000
0000
0000
0010
0000
0000
0000
0000
0100
0000
0000
0001
0000
0000
0000
0000
1000
0000
0000
0100
0000
0000
0000
0010
0000
0000
0000
,  // measure 37
0101
0000
0001
0010
2000
0000
3010
0101
1000
0001
2000
0000
3100
0010
0100
1000
,  // measure 38
0011
0000
0000
0000
0000
0000
0000
0000
0000
0000
0000
0000
0000
0000
0000
0000
0000
0000
0000
0000
0000
0000
0000
0000
0100
0000
0000
0000
0000
0000
0000
0000
0000
0000
0000
0000
0000
0000
0000
0000
0001
0000
0000
0000
0000
0000
0000
0000
0000
0000
0000
0000
0000
0000
0000
0000
0010
0000
0000
0000
0000
0000
0000
0000
0000
0000
0000
0000
0000
0000
0000
0000
0100
0000
0000
0000
0000
0000
0000
0000
0000
0000
0000
0000
0000
0000
0000
0000
1000
0000
0000
0000
0000
0000
0000
0000
0000
0000
0000
0000
0001
0000
0000
0000
0000
0000
0000
0000
0100
0000
0000
0000
0000
0000
0010
0000
0000
0000
0000
0000
0100
0000
0000
0000
0000
0000
0000
0000
0000
0000
0000
0000
0001
0000
0000
0000
0000
0000
0000
0000
0000
0000
0000
0000
0020
0000
0000
0000
0000
0000
0000
0000
0000
0000
0000
0000
0000
0000
0000
0000
0000
0000
0000
0000
0000
0000
0000
0000
0130
0000
0000
0000
0000
0000
0000
0000
0000
0000
0000
0000
1000
0000
0000
0000
0000
0000
0000
0000
0000
0000
0000
0000
,  // measure 39
0011
0000
0011
0000
0100
0000
0001
1100
0000
0000
0010
0000
1000
0001
1000
0000
,  // measure 40
0001
0100
0010
1000
0001
0010
0100
1000
0000
0000
0001
0000
0010
0100
1000
0000
,  // measure 41
0020
0000
0130
0001
0100
0010
1000
0001
1000
0100
0020
0000
0031
1000
0001
0000
,  // measure 42
0100
0010
1000
0001
0010
0100
1000
0001
0100
0001
1000
0100
0010
0001
1000
0001
,  // measure 43
0200
0000
0310
1000
0010
0100
0001
0020
0000
0000
0230
0000
1300
0001
0100
0000
,  // measure 44
M001
0000
0001
0000
1000
0000
0000
0100
0000
0000
0100
0000
0010
0100
1000
0001
1000
0000
1000
0010
0100
0000
0001
0020
0000
0000
0130
0000
2000
0000
0000
3001
,  // measure 45
0100
0000
0000
0000
0000
0000
0000
0000
0010
0000
0000
0000
0000
0000
0000
0000
1000
0000
0000
0000
0000
0000
0000
0000
0001
0000
0000
0000
0000
0000
0000
0000
0010
0000
0000
0000
0000
0000
0000
0000
0100
0000
0000
0000
0000
0000
0000
0000
0000
0000
0000
0000
1000
0000
0000
0000
0000
0000
0000
0000
0000
0000
0000
0000
0000
0000
0000
0000
0000
0000
0000
0000
0000
0000
0000
0000
0000
0000
0000
0000
0000
0000
0000
0000
0000
0000
0000
0000
0000
0000
0000
0000
0000
0000
0000
0000
0010
0000
0000
0000
0000
0000
0000
0000
0000
0000
0000
0000
0000
0000
0000
0000
0000
0000
0100
0000
0000
0000
0000
0000
0000
0000
0000
0000
0000
0000
0000
0000
0000
0000
0000
0000
0001
0000
0000
0000
0000
0000
0000
0000
0000
0000
0000
0000
0002
0000
0000
0000
0000
0000
0000
0000
0000
0000
0000
0000
0000
0000
0000
0000
0000
0000
0000
0000
0000
0000
0000
0000
0000
0000
0000
0000
0000
0000
0000
0000
0000
0000
0000
0000
0003
0000
0000
0000
0000
0000
0000
0000
0000
0000
0000
0000
;

//---------------dance-single - sangyule----------------
#NOTEDATA:;
#CHARTNAME:;
#STEPSTYPE:dance-single;
#DESCRIPTION:sangyule;
#CHARTSTYLE:;
#DIFFICULTY:Beginner;
#METER:1;
#RADARVALUES:0.085763,0.100425,0.000000,0.000000,0.000000,68.000000,68.000000,0.000000,0.000000,0.000000,0.000000,0.000000,0.000000,0.000000,0.085763,0.100425,0.000000,0.000000,0.000000,68.000000,68.000000,0.000000,0.000000,0.000000,0.000000,0.000000,0.000000,0.000000;
#CREDIT:sangyule;
#NOTES:
0000
0000
0000
0000
,
0000
0000
0000
0000
,
0000
0000
0000
0000
,
0000
0000
0000
0000
,
1000
0000
0000
0000
,
0001
0000
0000
0000
,
0100
0000
0100
0000
,
0010
0000
0000
0000
,
1000
0000
0000
0000
,
0001
0000
0000
0000
,
0010
0000
0000
0000
,
0100
0000
0000
0000
,
1000
0000
1000
0000
,
0001
0000
0001
0000
,
0100
0000
0100
0000
,
0010
0000
0010
0000
,
1000
0000
1000
0000
,
0001
0000
0001
0000
,
0010
0000
0010
0000
,
0100
0000
0100
0000
,
1000
0000
0000
0000
,
1000
0000
0000
0000
,
0001
0000
0000
0000
,
0001
0000
0000
0000
,
0100
0000
0100
0000
,
0010
0000
0010
0000
,
1000
0000
1000
0000
,
0001
0000
0010
0000
,
0100
0000
0100
0000
,
1000
0000
1000
0000
,
0001
0000
0001
0000
,
0100
0000
0000
0000
,
0010
0000
0010
0000
,
1000
0000
1000
0000
,
0001
0000
0001
0000
,
0010
0000
0010
0000
,
0100
0000
1000
0000
,
0001
0000
1000
0000
,
0010
0000
0100
0000
,
0001
0000
1000
0000
,
0001
0000
0000
0000
,
1000
0000
0000
0000
,
0100
0000
0000
0000
,
0010
0000
0000
0000
,
0001
0000
0001
0000
,
1000
0000
1000
0000
;

//---------------dance-single - sangyule----------------
#NOTEDATA:;
#CHARTNAME:;
#STEPSTYPE:dance-single;
#DESCRIPTION:sangyule;
#CHARTSTYLE:;
#DIFFICULTY:Easy;
#METER:2;
#RADARVALUES:0.128644,0.162445,0.044143,0.061800,0.000000,102.000000,97.000000,5.000000,7.000000,0.000000,0.000000,0.000000,0.000000,0.000000,0.128644,0.162445,0.044143,0.061800,0.000000,102.000000,97.000000,5.000000,7.000000,0.000000,0.000000,0.000000,0.000000,0.000000;
#CREDIT:sangyule;
#NOTES:
0000
0000
0000
0000
,
0000
0000
0000
0000
,
0000
0000
0000
0000
,
0000
0000
0000
0000
,
1000
0000
0001
0000
,
0010
0000
0001
0000
,
1000
0010
0100
0000
,
0001
1000
0100
0000
,
1000
0000
0001
0000
,
0100
0000
0010
0010
,
1000
0000
0001
0000
,
0010
0000
0100
0000
,
1001
0000
0001
0000
,
0100
0000
0010
1000
,
0001
0000
1000
0000
,
0100
0000
0010
0000
,
0110
0000
0001
0000
,
1000
0000
0001
0001
,
0100
0000
0010
0000
,
1000
0000
0001
0000
,
0010
0000
0100
0000
,
1000
0000
0001
0000
,
0100
0000
0010
0000
,
2000
0000
3000
0001
,
1001
0000
1000
1000
,
0010
0000
0100
0100
,
0001
0000
1000
1000
,
0100
0000
0010
0010
,
0001
0000
1000
1000
,
0010
0000
0100
0100
,
0001
0000
1000
1000
,
0001
0000
0010
0000
,
0110
0000
1000
0000
,
0001
0000
0100
0001
,
1000
0000
0100
0000
,
0010
0000
0001
0000
,
1001
0000
1000
0000
,
0010
0000
0100
0001
,
0100
0000
0010
0000
,
1000
0000
0001
0010
,
0200
0000
0300
0000
,
2000
0000
3000
0000
,
0002
0000
0003
0000
,
0200
0000
0320
0000
,
1030
0000
0001
0010
,
0100
0000
2000
0000
,
3000
0000
0000
0000
;

//---------------dance-single - sangyule----------------
#NOTEDATA:;
#CHARTNAME:;
#STEPSTYPE:dance-single;
#DESCRIPTION:sangyule;
#CHARTSTYLE:;
#DIFFICULTY:Medium;
#METER:5;
#RADARVALUES:0.301432,0.345196,0.132428,0.282513,0.145671,239.000000,224.000000,15.000000,32.000000,0.000000,0.000000,0.000000,0.000000,0.000000,0.301432,0.345196,0.132428,0.282513,0.145671,239.000000,224.000000,15.000000,32.000000,0.000000,0.000000,0.000000,0.000000,0.000000;
#CREDIT:sangyule;
#NOTES:
0000
0000
0000
0000
,
0000
0000
0000
0000
,
0000
0000
0000
0000
,
0000
0000
0000
0000
,
0001
0000
0000
0000
0000
0001
0000
2000
0000
0000
0000
0000
3000
0000
0000
0000
,
0010
0000
0000
0000
0000
0000
0000
0200
0000
0000
0000
0000
0301
0000
0001
0000
,
1000
0000
0100
0000
0110
0000
0000
0020
0000
0000
0000
0000
0031
0000
0000
0000
,
1000
0000
1000
0000
0010
0000
0000
0100
0000
0000
0000
0000
0000
0000
0000
0000
,
0101
0000
0001
0000
1000
0000
0000
0200
0000
0000
0000
0000
0310
0000
0001
0000
,
1000
0000
0001
0000
0100
0000
0000
0020
0000
0000
0000
0000
1030
0000
1000
0000
,
0001
0000
0010
0000
0100
0000
0000
2000
0000
0000
0000
0000
3001
0000
0100
0000
,
0010
0000
0000
0000
0010
0000
0000
1000
0000
0000
0000
0000
0001
0000
0000
0000
,
1001
0000
1000
0000
0100
0000
0000
0020
0000
0000
0000
0000
0031
0000
0000
0000
,
1000
1000
0001
0010
0100
0100
1000
0000
,
0001
0000
0001
0000
1000
0000
0000
0200
0000
0000
0000
0000
0310
0000
0001
0000
,
1000
1000
0001
0100
0200
0000
0310
0000
,
1001
0000
0001
0000
0010
0000
0000
0200
0000
0000
0000
0000
1300
0000
0001
0000
,
0001
0000
0100
0000
0010
0000
0000
1000
0000
0000
1000
0000
0001
0000
0010
0000
,
0100
0000
1000
0000
0001
0000
0000
0200
0000
0000
0000
0000
0310
0000
1000
0000
,
0001
0000
0010
0000
0001
0000
0000
2000
0000
0000
0000
0000
3010
0000
0000
0000
,
0200
0000
0000
0000
0001
0000
0000
0301
0000
0000
1000
0000
0001
0000
1000
0000
,
0200
0000
0000
0000
0010
0000
0000
0310
0000
0000
0001
0000
1000
0000
0001
0000
,
0200
0000
0000
0000
0001
0000
0000
0301
0000
0000
1000
0000
0100
0000
1000
0000
,
0020
0000
0000
0000
1000
0000
0000
0130
0000
0000
0100
0000
0001
0000
0000
0000
,
1001
0000
0000
0000
1000
0000
0000
0100
0000
0000
0100
0000
0010
0000
0000
0000
,
0001
0000
0000
0000
1000
0000
0000
0010
0000
0000
0010
0000
0100
0000
0001
0000
,
1000
0000
1000
0000
0100
0000
0000
0000
0110
0000
0000
0110
0000
0000
1001
0000
,
0001
0100
0001
0100
0020
0000
1030
0001
,
1000
0000
0000
0000
0100
0000
0000
1000
0000
0000
1000
0000
0001
0000
0000
0000
,
0100
0000
0000
0000
0010
0000
0000
1000
0000
0000
1000
0000
0001
0000
0010
0000
,
0100
0000
1000
0000
0001
0100
0100
0001
,
1000
0000
0000
0000
0100
0000
0000
0010
0000
0000
0000
0000
0001
0000
0000
0000
,
1001
0000
1000
0000
0010
0000
0000
0210
0000
0000
0000
0000
0301
0000
0000
0000
,
1000
1000
0001
0100
0010
0010
1000
0000
,
0001
0000
0001
0000
1000
0000
0000
1020
0000
0000
0000
0000
0130
0000
0001
0000
,
1000
1000
0001
0010
0020
0000
0130
0000
,
1001
0000
0001
0000
0100
0000
0000
0120
0000
0000
0000
0000
1030
0000
0001
0000
,
0001
0000
0010
0000
0100
0000
0000
1000
0000
0000
1000
0000
0001
0000
0100
0000
,
0010
0000
1000
0000
0001
0000
0000
0021
0000
0000
0000
0000
0130
0000
1000
0000
,
0001
0000
0100
0000
0001
0000
0000
2001
0000
0000
0000
0000
3100
0000
0000
0000
,
0020
0000
0001
0000
0030
0001
1000
0001
,
2000
0000
0010
0000
0000
3010
0100
0001
,
0200
0000
0010
0000
0000
0000
0301
1000
,
0200
0000
0000
0000
0000
0010
0000
0020
0300
0000
0000
0000
0031
0000
0000
0000
,
2000
3000
0020
0030
,
0200
0000
0002
0000
,
0303
0000
0000
0000
;

//---------------dance-single - sangyule----------------
#NOTEDATA:;
#CHARTNAME:;
#STEPSTYPE:dance-single;
#DESCRIPTION:sangyule;
#CHARTSTYLE:;
#DIFFICULTY:Hard;
#METER:9;
#RADARVALUES:0.456562,0.548252,0.079457,0.494398,0.489984,362.000000,353.000000,9.000000,56.000000,10.000000,0.000000,0.000000,0.000000,0.000000,0.456562,0.548252,0.079457,0.494398,0.489984,362.000000,353.000000,9.000000,56.000000,10.000000,0.000000,0.000000,0.000000,0.000000;
#CREDIT:sangyule;
#NOTES:
// measure 0
0000
0000
0000
0000
,  // measure 1
0000
0000
0000
0000
,  // measure 2
0000
0000
0000
0000
,  // measure 3
0000
0000
0000
00M0
,  // measure 4
1000
0000
0001
0010
0001
0000
0000
1000
0001
1000
0010
0100
0001
0000
1000
0000
,  // measure 5
0000
0000
0100
0000
0010
0000
0100
0000
0010
0000
0000
0010
0000
0000
0000
0000
0001
0000
1000
0000
0001
0000
0100
0000
0010
0000
0000
0000
0100
0000
0000
0000
,  // measure 6
0000
0001
1000
0000
0100
1000
0100
0000
0010
0001
0010
0000
0000
0001
1000
0001
,  // measure 7
0100
0000
0100
0000
0010
1000
0001
0000
1001
0000
0M00
0000
00M0
1000
0001
1000
,  // measure 8
0100
0010
0001
1000
0010
0100
0010
0100
0002
0000
1003
0000
0000
1000
0001
1000
,  // measure 9
0010
0100
0010
1000
0001
0010
0100
0010
0001
0000
1000
0000
0001
0000
0100
0000
,  // measure 10
0000
0010
1000
0001
1000
0100
0010
0001
1000
0000
0001
0000
0000
0000
0100
0010
,  // measure 11
0100
0000
0100
0000
0001
0000
0001
1000
0000
00M0
00M0
0000
00M0
00M0
00M0
0000
,  // measure 12
0102
0000
2000
0003
0100
0000
0000
3002
0000
0000
0010
0000
0010
0000
0013
0000
,  // measure 13
2100
0000
0002
3000
0103
0000
0001
1000
0100
0000
0010
0001
0010
0001
1000
0000
,  // measure 14
0012
0000
0010
0000
1003
0000
0001
0001
0000
0000
0100
0001
0100
0001
1000
0100
,  // measure 15
2000
0001
3020
0001
0130
0001
0001
0001
,  // measure 16
0200
0000
1000
0000
0310
0000
0000
2000
0000
0000
0001
0000
0001
0000
3001
0000
,  // measure 17
0020
0000
0000
2030
0000
0000
3010
0000
0001
1000
0002
0000
0000
0000
0003
0100
,  // measure 18
0010
0000
1000
0001
1000
0000
0001
0010
0001
0000
0000
1000
0001
0000
0100
0000
,  // measure 19
0020
0000
0000
0000
0030
1000
0100
1000
,  // measure 20
0020
0000
0000
0000
0100
0000
0000
1000
0000
0000
1030
0000
0001
0000
1000
0000
,  // measure 21
0002
0000
0000
0013
0100
0000
0000
1000
0000
0000
0001
0000
0100
0000
0001
0000
,  // measure 22
0020
0000
0030
0100
0020
0000
0000
0031
0000
0000
0001
0000
1000
0000
1000
0000
,  // measure 23
0020
0000
0000
0000
0000
0230
0000
2300
0000
0000
3002
0000
0023
0000
0030
0000
,  // measure 24
1000
0000
0001
0010
0001
0000
0100
0000
0010
1000
0010
1000
0002
0000
0013
0000
,  // measure 25
0000
0000
0001
1000
0001
0000
1000
0010
0100
0001
0100
0001
2000
0000
3000
0000
,  // measure 26
0000
0000
0100
0000
0010
0001
0000
1000
0001
0000
0100
0010
0000
1000
0100
1000
,  // measure 27
0001
0010
0001
0010
0100
1000
0001
0000
0200
0000
0000
0000
0310
0000
0010
0000
,  // measure 28
2000
0000
0000
0000
3001
0010
0001
0000
0010
0100
0010
0001
1000
0000
0010
0000
,  // measure 29
0200
0000
0000
0301
1000
0001
1000
0000
0100
0010
0100
0010
0001
0000
1000
0000
,  // measure 30
0020
0000
0000
0130
0001
1000
0100
0001
0100
0000
1000
0001
0100
1000
0100
0000
,  // measure 31
0000
0001
1000
0000
0001
1000
0001
0010
0001
0000
0M00
0000
0M00
0000
0000
0000
,  // measure 32
2010
0000
0001
0000
3100
0000
0000
0021
0000
0000
0100
0000
0100
0000
0130
0000
,  // measure 33
1002
0000
0100
0000
1003
0000
0100
0010
0001
0000
1000
0001
1000
0001
1000
0000
,  // measure 34
2010
0000
0010
0000
3001
0000
1000
1000
0000
0000
0001
1000
0001
1000
0010
0100
,  // measure 35
0002
1000
0023
1000
0130
1000
1000
1000
,  // measure 36
0020
0000
0001
0000
0130
0000
0000
0102
0000
0000
1000
0000
1003
0000
1000
0000
,  // measure 37
0200
0000
0000
0302
0000
0000
0103
0000
1000
0100
2000
0000
0000
0000
3000
0001
,  // measure 38
0100
0000
0010
1000
0010
0000
1000
0001
1000
0000
0000
0100
0010
0000
0001
0000
,  // measure 39
0200
0000
0000
0000
0300
0010
1000
0010
,  // measure 40
0200
0000
0000
0000
0301
0000
0000
1000
0000
0000
0100
0000
0010
0000
0001
0000
,  // measure 41
0200
0000
0000
0301
0000
0000
0000
1000
0000
0000
0001
0000
0010
0000
0001
0000
,  // measure 42
0200
0000
0000
0301
2000
0000
0000
0000
3000
0000
0000
0000
0001
0000
0001
0000
,  // measure 43
0020
0000
0000
0000
0000
2030
0000
3002
0000
0000
0203
0000
1300
0000
0001
0000
,  // measure 44
2000
0000
3000
0000
0000
0001
0100
0001
0020
0000
0030
0200
0000
0000
2300
0000
,  // measure 45
3002
0100
0000
0103
0020
0000
0000
0000
,  // measure 46
0030
0000
0000
0000
;
