#TITLE:Rebellio;
#SUBTITLE:;
#ARTIST:MAX MAXIMIZER VS DJ TOTTO;
#TITLETRANSLIT:;
#SUBTITLETRANSLIT:;
#ARTISTTRANSLIT:;
#GENRE:;
#CREDIT:;
#BANNER:rebellio-bn.png;
#BACKGROUND:Rebellio-bg.png;
#LYRICSPATH:;
#CDTITLE:;
#MUSIC:Rebellio.ogg;
#OFFSET:0.000000;
#SAMPLESTART:76.935341;
#SAMPLELENGTH:12.308000;
#SELECTABLE:YES;
#BPMS:0.000000=234.000000
;
#STOPS:
;
#BGCHANGES:;
#KEYSOUNDS:;
#ATTACKS:;

//---------------dance-single - RGTM & sangyule (New)----------------
#NOTES:
     dance-single:
     RGTM & sangyule (New):
     Challenge:
     14:
     1.095042,1.474400,0.515247,0.325002,0.879884,967.000000,902.000000,65.000000,41.000000,18.000000,0.000000,1.095042,1.474400,0.515247,0.325002,0.879884,967.000000,902.000000,65.000000,41.000000,18.000000,0.000000:
// measure 0
0000
0000
0000
0000
,  // measure 1
0000
0000
0000
0000
,  // measure 2
0000
0000
0000
0000
,  // measure 3
0001
0010
0100
1000
0010
0100
0001
1000
0100
0010
0001
0100
,  // measure 4
0010
0000
0000
0000
1000
0000
0000
0000
0001
0000
0000
0000
0010
0000
0000
0000
0100
0000
0000
0000
1000
0000
0000
0000
0000
0000
0000
0000
0000
0000
0001
0000
0000
1000
0000
0000
0010
0000
0000
0100
0000
0000
0001
0000
0000
1000
0000
0000
,  // measure 5
0200
0000
1000
0000
,  // measure 6
0000
0000
1000
0000
,  // measure 7
0320
0000
0001
0000
,  // measure 8
0000
0000
0001
0030
,  // measure 9
2000
0100
0001
0000
,  // measure 10
0001
0100
0010
0000
,  // measure 11
3002
0100
1000
0000
,  // measure 12
0010
0000
0000
0000
0010
0000
0000
0000
0100
0000
0000
0003
1000
0001
1000
0001
,  // measure 13
0020
0000
0000
0000
,  // measure 14
0130
0100
1000
0001
0010
0010
0100
1000
,  // measure 15
1001
0000
0000
1100
0000
0000
0101
0000
0000
0000
0000
0000
0110
0000
1001
0000
,  // measure 16
0000
0000
0000
0000
0000
0000
0000
0000
0000
0000
0000
0000
0000
0000
0001
1000
,  // measure 17
0010
0000
0000
1010
0000
0000
0011
0000
0000
0000
0110
0000
1001
0000
1100
0000
,  // measure 18
0000
0000
0000
0000
0000
0000
0000
0000
2002
0000
0000
3003
0202
0000
0000
0303
,  // measure 19
1001
0000
0000
1100
0000
0000
0011
0000
0000
0000
0000
0000
0110
0000
1001
0000
,  // measure 20
0000
0000
0000
0000
0000
0000
0000
0000
0000
0000
0000
0000
1000
0001
0010
0001
,  // measure 21
2000
0000
0000
0000
3010
0100
0001
0100
0020
0000
0000
0000
1030
0001
0010
0001
,  // measure 22
2000
0000
3001
0100
0001
0000
1000
0000
0001
0100
0001
1000
0100
0010
0100
1000
,  // measure 23
0001
1000
0001
0100
0001
0010
0100
1000
,  // measure 24
0002
0000
0100
0000
0203
0000
0010
0000
0310
0000
1000
0000
0001
0100
0010
0100
,  // measure 25
0001
1000
0100
0010
0001
1000
0010
0100
,  // measure 26
0002
0000
1000
0000
2003
0000
0010
0000
3010
0000
0100
0001
1000
0000
0001
0000
,  // measure 27
1001
1000
0010
0100
0010
1000
0001
0010
,  // measure 28
0200
0000
1000
0000
2300
0000
0001
0000
3001
0000
0100
0000
0010
1000
0001
0010
,  // measure 29
0100
1000
0001
1000
0010
0100
0001
0001
,  // measure 30
1000
0100
1000
0010
0100
0001
1000
0000
,  // measure 31
1001
0001
0100
0010
1000
0100
0010
0001
,  // measure 32
1000
0000
1000
0000
0010
0000
0010
0000
0100
0000
0100
0000
0001
1000
0001
0010
,  // measure 33
0100
1000
0010
0100
0001
0001
1000
1000
,  // measure 34
0001
0000
0001
0000
0010
0000
0100
1000
0001
0000
0000
0101
0000
0000
1100
0000
,  // measure 35
1001
0001
0010
0100
1000
0010
0100
0100
,  // measure 36
0001
0000
0001
0000
1000
0000
1000
0000
0100
0000
0100
0000
0010
0001
1000
0001
,  // measure 37
0100
0000
0100
0000
0010
0000
0010
0000
1000
0000
1000
0001
0010
0000
0100
0000
,  // measure 38
1000
0001
1000
0010
0200
0000
0000
0301
,  // measure 39
1001
1000
0100
0010
0001
0100
0020
1000
,  // measure 40
1030
0000
0001
1000
0001
0000
0010
0000
0100
0000
1000
0000
0010
0100
0001
1000
,  // measure 41
0001
0010
0100
1000
0001
0100
0002
0010
,  // measure 42
0013
0000
0100
0000
1000
0000
0001
0000
0100
0000
0010
1000
0001
0000
1000
0000
,  // measure 43
1010
0010
0100
0001
1000
0100
0020
0001
,  // measure 44
0031
0000
1000
0001
1000
0000
0010
0000
0100
0000
0001
0000
0010
0100
1000
0001
,  // measure 45
1000
0010
1000
0001
0010
0100
1000
1000
,  // measure 46
1000
0000
0001
0100
0010
0000
0100
0000
0110
0000
0000
0000
0110
0000
0000
0000
,  // measure 47
1001
0001
0010
0001
0100
0010
2000
0100
,  // measure 48
3100
0000
0010
0001
0010
0000
0100
0000
1000
0000
0001
0000
0100
0010
1000
0001
,  // measure 49
1000
0100
0010
0001
0100
0010
2000
0100
,  // measure 50
3100
0000
0010
0000
0001
0000
1000
0001
0100
0000
0000
0101
0000
0000
1100
0000
,  // measure 51
0011
0000
0010
0100
1000
0000
0001
0000
0100
0000
0001
0000
0020
0000
0100
0000
,  // measure 52
0130
0000
1000
0000
0001
0000
0100
0000
0010
0000
1000
0000
0100
0010
0001
1000
,  // measure 53
0100
1000
0001
0100
0001
0010
0100
0100
,  // measure 54
0100
0000
1000
0000
0001
0000
0100
0000
0010
1000
0001
0000
0010
0000
0100
0000
,  // measure 55
1100
0000
0000
0200
0000
M0MM
0000
0000
,  // measure 56
0301
0000
0000
0000
,  // measure 57
0011
0000
0000
0020
0000
MM0M
0000
0000
,  // measure 58
2030
0000
0000
3000
,  // measure 59
1010
0000
0000
0020
0000
MM0M
0000
0000
,  // measure 60
0031
0000
0000
0000
,  // measure 61
0101
0000
0000
0200
0000
M0MM
0000
0000
,  // measure 62
2300
0000
0000
0000
,  // measure 63
3100
0000
0000
00M0
0000
0000
0100
0000
0001
0000
0000
0000
0000
0000
0000
0000
,  // measure 64
1000
0010
0110
0000
,  // measure 65
0100
0000
0000
M000
0000
0000
0100
0000
1000
0000
0000
0000
0000
0000
0000
0000
,  // measure 66
0001
0000
0000
0000
1000
0000
0000
0000
1001
0000
0000
0000
0001
1000
0001
0010
,  // measure 67
0100
0000
0000
000M
0000
0000
0100
0000
0001
0000
0000
0000
0000
0000
0000
0000
,  // measure 68
1000
0100
0110
0000
,  // measure 69
0010
0000
0000
0M00
0000
0000
0010
0000
1000
0000
0000
0000
0000
0000
0000
0000
,  // measure 70
0001
1000
1001
0000
,  // measure 71
2000
0000
0000
0000
,  // measure 72
0000
0000
0000
0000
,  // measure 73
3010
0100
0001
1000
0100
0010
0001
1000
0010
0100
0001
0010
0100
1000
0001
0100
,  // measure 74
0010
0000
0000
0001
0000
0000
0010
0000
1000
0001
1000
0010
0100
0000
0010
0000
,  // measure 75
1000
0001
1000
0000
0100
0000
0010
0000
0001
0100
0001
0000
1000
0000
0010
0000
,  // measure 76
0100
0000
0001
1000
0100
0000
0020
0000
0031
0000
0000
0000
1000
0000
0001
0000
,  // measure 77
0010
0100
1000
0001
0100
00M0
0100
1000
0001
0010
0100
0000
0001
0000
0100
0000
,  // measure 78
1000
0000
0001
0000
1000
0000
0010
0000
0100
0000
0010
1000
0010
0100
0001
0000
,  // measure 79
0010
0000
0100
0000
1000
0100
0010
0001
1000
0000
0000
1100
0000
0000
0101
0000
,  // measure 80
1000
0000
0001
0000
0100
0010
1000
0100
0010
0000
0000
0011
0000
0000
1010
0000
,  // measure 81
1001
0000
0001
0100
0000
0010
1000
0000
0100
0010
0001
1000
0010
0100
0001
1000
,  // measure 82
0001
0000
0010
0100
0000
1000
0001
0000
0100
0010
0100
0000
0001
0000
1000
0000
,  // measure 83
0001
0010
0001
0000
0100
0000
0010
0000
1000
0100
1000
0000
0001
0000
0100
0000
,  // measure 84
0010
0000
1000
0001
1000
0000
0200
0000
0000
0000
0310
0000
0001
0000
1000
0000
,  // measure 85
0010
0100
0001
1000
0100
00M0
0100
0001
1000
0100
0010
0000
0001
0000
0010
0000
,  // measure 86
0100
0000
0010
0000
0100
0000
1000
0000
0001
0000
0100
0010
1000
0001
0010
0000
,  // measure 87
0100
0000
1000
0000
0001
0100
0001
1000
0100
0000
0000
1100
0000
0000
0101
0000
,  // measure 88
1000
0000
0001
0000
0010
0001
0100
0010
1000
0000
0000
1010
0000
0000
0011
0000
,  // measure 89
1001
0000
1000
0000
0010
0000
0100
0001
1000
0000
0100
0000
0001
0000
0200
0000
,  // measure 90
0300
0000
1000
0000
0001
0000
0010
0000
0001
1000
0010
0000
0100
0001
1000
0001
,  // measure 91
0010
0010
0100
0100
1000
1000
0001
0001
,  // measure 92
0100
0100
0010
0010
1000
1000
0100
0100
,  // measure 93
1000
0001
1000
0001
1000
0000
0010
0000
0100
0001
0100
0001
0100
0000
0010
0000
,  // measure 94
1000
0001
0100
0001
1000
0100
0010
0001
0200
0000
0000
0000
0000
0000
0300
0000
,  // measure 95
1001
1000
0100
0010
0001
0100
0020
1000
,  // measure 96
1030
0000
0001
0000
0010
0000
0100
0000
1000
0000
0001
0000
0100
0001
1000
0001
,  // measure 97
0010
0100
1000
0001
0100
0010
2000
0100
,  // measure 98
3100
0000
0010
0000
0001
0000
0100
0000
0010
0000
1000
0001
1000
0000
0100
0000
,  // measure 99
0110
0010
0001
1000
0010
0100
0002
0100
,  // measure 100
0103
0000
0010
0000
1000
0000
0001
0000
0010
0000
0100
0000
1000
0001
0100
0010
,  // measure 101
1000
0001
0010
0100
1000
0001
0100
0001
1000
0100
0010
0001
0100
0010
1000
0001
,  // measure 102
0010
0001
1000
0010
0100
0001
0010
0100
1000
0000
1000
0000
0000
0000
0000
0000
,  // measure 103
0010
1000
0010
0100
0001
1000
0100
1000
0001
0100
0001
1000
0100
0010
0100
1000
,  // measure 104
0001
0100
0010
1000
0001
0010
0100
1000
0010
0100
0001
1000
0100
0000
0000
0000
,  // measure 105
1000
0010
1000
0001
0100
0010
1000
0001
0010
0100
1000
0010
0100
0001
0100
0010
,  // measure 106
1000
0001
0010
0001
1000
0010
0100
0001
1000
0100
1000
0001
0100
0000
0010
0000
,  // measure 107
0100
0001
0100
0010
1000
0001
0010
0001
1000
0010
1000
0001
0010
0100
0010
0001
,  // measure 108
1000
0010
0100
0001
1000
0100
0010
0001
0100
0010
1000
0001
0010
0000
0000
0000
,  // measure 109
0001
1000
0010
0100
0001
1000
0100
1000
0001
0100
0010
1000
0100
0010
0001
1000
,  // measure 110
0010
0100
0001
0010
0100
1000
0001
0100
0004
0000
0000
0000
1003
0000
0000
0000
,  // measure 111
1001
0000
0001
0000
0000
0000
1000
0100
0010
0000
0011
0000
0000
0000
0001
0000
,  // measure 112
1000
0000
0001
0100
0001
0000
1000
0000
1010
0000
0000
0011
0000
0000
0110
0000
,  // measure 113
0000
0000
1001
0000
0000
0000
0001
0100
0001
0000
0101
0000
0000
0000
1010
0000
,  // measure 114
1000
0000
0001
0000
0010
0000
0100
0000
0000
0000
1000
0001
0100
0001
1000
0100
,  // measure 115
0010
0000
0011
0000
0000
0000
0001
1000
0001
0000
0101
0000
0000
0000
0100
0000
,  // measure 116
0010
0000
1000
0100
0010
0000
0001
0000
0011
0000
0000
1010
0000
0000
0110
0000
,  // measure 117
0000
0000
0110
0000
1001
0000
0000
0000
0001
1000
0001
1000
0200
0000
0000
0000
,  // measure 118
0310
0001
1000
0010
0100
0001
1000
0100
0010
0001
0100
0010
1000
0001
0010
0100
,  // measure 119
2000
0000
0000
0000
,  // measure 120
3000
0000
0000
0000
;

//---------------dance-single - xRGTMx (Original)----------------
#NOTES:
     dance-single:
     :
     Edit:
     14:
     1.095042,1.474400,0.507320,0.332929,0.875921,967.000000,903.000000,64.000000,42.000000,0.000000,0.000000,1.095042,1.474400,0.507320,0.332929,0.875921,967.000000,903.000000,64.000000,42.000000,0.000000,0.000000:
0000
0000
0000
0000
,
2002
0000
0000
0000
,
0000
0000
0000
0000
0000
0000
0000
3003
,
0001
0010
0100
1000
0001
0100
0001
1000
0100
0010
0001
0100
,
0010
0000
0000
0000
1000
0000
0000
0000
0010
0000
0000
0000
0100
0000
0000
0000
0001
0000
0000
0000
1000
0000
0000
0000
0000
0000
0000
0000
0000
0000
1000
0000
0000
0100
0000
0000
1000
0000
0000
0001
0000
0000
0010
0000
0000
0001
0000
0000
,
0200
0000
0000
0000
,
0000
0000
0000
0000
,
0320
0000
0000
0000
,
0000
0000
0000
0000
,
2030
0100
0001
0000
,
0001
0100
0010
0000
,
3002
0100
1000
0000
,
1000
0000
0000
0000
0100
0000
0000
0000
0010
0000
0000
0003
0001
1000
0001
1000
,
0020
0000
0000
0000
,
0130
0100
0001
1000
0010
0010
1000
0001
,
1001
0000
0000
1100
0000
0000
0101
0000
0000
0000
0000
0000
0110
0000
1001
0000
,
0000
0000
0000
0000
0000
0000
0000
0000
0000
0000
0000
0000
0000
0000
1000
0001
,
0100
0000
0000
0101
0000
0000
1100
0000
0000
0000
1010
0000
0110
0000
1001
0000
,
0000
0000
0000
0000
0000
0000
0000
0000
2200
0000
0000
3300
0202
0000
0000
0303
,
1001
0000
0000
1010
0000
0000
0011
0000
0000
0000
0000
0000
0110
0000
1001
0000
,
0000
0000
0000
0000
0000
0000
0000
0000
0000
0000
0000
0000
1000
0001
0010
0001
,
0200
0000
0000
0000
0301
1000
0010
1000
0200
0000
0000
0000
1300
0001
0100
0001
,
0020
0000
0031
0100
0001
0000
1000
0000
0001
0100
0001
0100
0001
1000
0001
1000
,
0010
1000
0001
0100
0001
0010
0100
1000
,
0002
0000
0010
0000
0013
0000
0200
0000
1000
0000
1300
0000
0001
0100
0010
0100
,
0001
1000
0100
0010
0001
1000
0010
0100
,
0002
0000
0010
0000
0013
0000
0200
0000
1300
0000
0100
1000
0100
0000
0010
0000
,
0001
1000
0001
0100
0010
1000
0001
0010
,
0002
0000
0100
0000
0103
0000
0020
0000
1030
0000
0001
0000
0010
0001
0100
0001
,
1000
0010
0100
0010
1000
0001
0010
0010
,
0200
1000
1300
0020
0130
0001
0010
0000
,
1001
0001
0100
1000
0100
0001
0010
0100
,
1000
0000
1000
0000
0100
0000
0100
0000
0010
0000
0010
0000
0001
0010
0100
1000
,
0001
0001
1000
1000
0010
0010
0100
0100
,
0001
0000
0010
0000
0100
0000
1000
0001
0100
0000
0000
0110
0000
0000
1010
0000
,
1001
0001
0010
0100
1000
0010
0001
0010
,
0100
0000
0100
0000
0001
0000
0001
0000
1000
0000
1000
0000
0100
1000
0001
0100
,
0010
0010
1000
1000
0001
0001
0010
0010
,
0100
0000
1000
0000
0100
0000
0001
0000
0200
0000
0000
0000
0000
0000
0000
0300
,
1001
0000
1000
0010
1000
0000
0001
0000
0010
0000
0100
0000
1000
0000
0001
0000
,
0100
0000
0010
0100
0010
0000
1000
0000
0001
0000
0010
0000
0001
0100
0001
1000
,
0010
0000
0100
0001
0100
0000
0010
0000
1000
0000
0100
0000
0010
0000
0100
0000
,
1000
0000
0001
0010
0001
0000
0100
0000
0010
0000
1000
0001
1000
0000
0010
0000
,
0110
0000
0100
0001
0100
0000
0010
0000
1000
0000
0001
0000
0010
0000
0100
0000
,
1000
0000
0010
1000
0010
0000
0100
0000
0001
0000
1000
0000
0100
1000
0001
0100
,
0010
0000
1000
0001
1000
0000
0100
0000
0010
0000
0001
0000
0100
0000
0100
0000
,
0001
0000
1000
0010
1000
0000
0001
0000
0101
0000
0000
0000
1100
0000
0000
0000
,
1001
0000
0001
1000
0001
0000
0100
0000
0010
0000
0100
0000
1000
0000
0100
0000
,
0001
0000
0010
0001
0010
0000
0100
0000
1000
0000
0001
0000
0100
0001
1000
0100
,
0010
0000
0001
0010
0001
0000
1000
0000
0100
0000
0001
0000
0100
0000
1000
0000
,
0001
0000
1000
0010
0100
0000
0001
1000
0100
0000
0000
1100
0000
0000
0101
0000
,
1001
0000
1000
0001
1000
0000
0100
0000
0010
0000
1000
0000
0010
0000
0001
0000
,
0100
0000
0010
0100
0010
0000
1000
0000
0001
0000
0010
0000
0100
0010
0001
1000
,
0100
0000
1000
0010
1000
0000
0001
0000
0010
0000
0100
0000
1000
0000
1000
0000
,
0010
0000
0100
0001
0100
0000
0010
0000
1000
0001
1000
0000
0100
0000
0010
0000
,
0012
0000
0000
0100
0000
0000
0000
0000
,
2003
0000
0000
0000
,
3200
0000
0000
1000
0000
0000
0000
0000
,
0320
0000
0000
0000
,
0032
0000
0000
0010
0000
0000
0000
0000
,
2003
0000
0000
0000
,
3020
0000
0000
1000
0000
0000
0000
0000
,
0230
0000
0000
0000
,
0310
0000
0000
1000
0001
0000
0000
0000
,
1000
0100
0010
0000
,
0100
0000
0000
1000
0001
0000
0000
0000
,
1000
0000
0000
0000
0010
0000
0000
0000
0100
0000
0000
0000
0100
0001
1000
0001
,
0010
0000
0000
0001
1000
0000
0000
0000
,
0001
0010
0100
0000
,
0010
0000
0000
0001
1000
0000
0000
0000
,
0001
0100
0010
0000
,
2002
0000
0000
0000
,
0000
0000
0000
0003
,
3001
0010
0001
1000
0100
0010
0100
1000
0001
0100
0010
0100
0001
1000
0001
0010
,
0100
0000
0000
0010
0000
0000
0001
0000
0010
0000
0100
1000
0001
0000
0100
0000
,
0001
0010
0001
0000
0100
0000
0010
1000
0010
0100
0001
0000
1000
0000
0100
0000
,
0010
0000
0001
1000
0001
0000
0200
0000
0000
0000
0310
1000
0010
0000
0100
0000
,
0001
0010
0100
1000
0001
0000
1000
0010
0100
0001
1000
0000
0010
0000
0100
0000
,
0001
0000
0010
0000
0100
0000
0010
0000
0001
0000
0100
0010
1000
0000
0001
0000
,
0010
0000
0100
1000
0001
1000
0010
0100
0001
0000
0000
1010
0000
0000
0011
0000
,
1001
0000
1000
0000
0001
1000
0010
1000
0100
0000
0000
1100
0000
0000
0101
0000
,
1001
0000
1000
0100
0000
1000
0001
0000
1000
0010
1000
0100
0010
0001
0100
0001
,
1000
0000
0001
0010
0000
0001
1000
0000
0010
0100
0010
0000
0100
0000
0001
0000
,
1000
0100
1000
0000
0001
0000
1000
0010
1000
0001
0010
0000
0100
0000
1000
0000
,
0001
0000
0100
0001
0100
0000
0020
0000
0000
0000
1030
0100
1000
0000
0001
0000
,
1000
0010
0100
0001
1000
0000
0001
0010
0100
1000
0001
0000
0100
0000
0010
0000
,
1000
0000
0001
0000
0010
0000
0100
0000
1000
0000
0001
1000
0001
0000
0100
0000
,
0010
0000
1000
0100
1000
0001
0100
0010
1000
0000
0000
0011
0000
0000
1010
0000
,
1001
0000
0001
0000
0010
0001
0100
0010
1000
0000
0000
1010
0000
0000
0011
0000
,
1001
0000
1000
0000
0010
0000
0100
0001
0100
0000
0010
0000
1000
0000
0002
0000
,
0000
0003
1000
0000
1000
0000
0010
0000
1000
0001
0100
0000
0001
1000
0010
0100
,
0001
0001
1000
1000
0100
0100
0010
0010
,
0001
0001
1000
1000
0010
0010
0100
0100
,
0001
1000
0001
1000
0001
0000
0010
0000
0001
0100
0001
0100
0001
0000
0010
0000
,
0100
1000
0001
0100
0001
1000
0010
1000
0200
0000
0000
0000
0000
0000
0000
0300
,
1001
1000
0100
0010
0002
0100
0103
0010
,
1000
0000
0001
0000
0010
0000
0100
0000
1000
0000
0001
0000
0100
0001
1000
0001
,
0010
0100
1000
0001
0200
0010
0310
1000
,
0001
0000
0010
0000
0001
0000
0100
0000
0010
0000
1000
0001
1000
0000
0100
0000
,
0110
0100
1000
0001
0020
0001
0031
0100
,
0010
0000
1000
0000
0001
0000
1000
0000
0100
0000
0010
0000
0001
1000
0001
1000
,
0010
0100
0001
0010
0001
0010
0100
1000
0001
0100
0001
0100
0010
1000
0100
0010
,
0001
0010
0100
1000
0001
0100
0010
1000
0100
0000
0010
0000
0000
0000
0000
0000
,
0001
0000
1000
0001
0100
0000
0010
0000
1000
0010
1000
0001
0100
0010
1000
0010
,
0100
0001
0010
0001
1000
0100
1000
0001
0010
0100
0010
0001
1000
0000
0000
0000
,
1001
0000
0001
1000
0100
0000
0010
0001
0100
0010
0100
0001
1000
0100
0010
0100
,
1000
0001
0010
0001
0100
0010
1000
0010
0100
0001
1000
0100
1000
0000
0001
0000
,
1001
0000
1000
0010
0100
0000
0001
0000
1000
0100
1000
0001
0010
0001
0100
0010
,
1000
0001
1000
0010
0100
0001
0010
0001
0100
0010
1000
0001
0010
0000
0000
0000
,
0001
0100
0010
1000
0001
0010
0001
1000
0100
0010
0001
1000
0010
1000
0001
0010
,
0100
1000
0001
0100
0001
1000
0100
0010
0004
0000
0000
0000
0103
0000
0000
0000
,
1010
0000
1001
0000
0000
0000
0001
0010
0100
0000
1100
0000
0000
0000
1000
0000
,
0010
0000
0100
0001
0100
0000
0010
0000
1010
0000
0000
0011
0000
0000
0110
0000
,
0000
0000
1001
0000
0000
0000
0001
0100
0001
0000
0011
0000
0000
0000
1010
0000
,
0010
0000
1000
0000
0001
0000
0010
0000
0000
0000
0001
0010
0100
1000
0001
1000
,
0010
0000
0110
0000
0000
0000
0100
0001
1000
0000
1001
0000
0000
0000
0001
0000
,
0010
0000
0100
1000
0100
0000
0010
0000
0011
0000
0000
1100
0000
0000
0101
0000
,
0000
0000
0110
0000
1001
0000
0000
0000
1000
0001
1000
0001
0200
0000
0000
0000
,
0310
1000
0001
1000
0001
0010
0100
1000
0001
1000
0010
0100
0001
1000
0100
0010
,
0002
0000
0000
0000
,
0003
0000
0000
0000
;

//---------------dance-single - sangyule----------------
#NOTES:
     dance-single:
     :
     Hard:
     11:
     0.886678,1.093910,0.356710,0.103049,0.313112,783.000000,738.000000,45.000000,13.000000,1.000000,0.000000,0.886678,1.093910,0.356710,0.103049,0.313112,783.000000,738.000000,45.000000,13.000000,1.000000,0.000000:
0000
0000
0000
0000
,
0000
0000
0000
0000
,
0000
0000
0000
0000
,
1000
0100
1000
0001
0100
0001
1000
0010
0100
0001
1000
0100
,
0010
0000
0000
0000
0001
0000
0000
0000
1000
0000
0000
0000
0001
0000
0000
0000
0100
0000
0000
0000
0010
0000
0000
0000
0000
0000
0000
0000
0000
0000
0000
0000
0000
0000
0000
0000
1000
0000
0000
0001
0000
0000
1000
0000
0000
0001
0000
0000
,
2000
0000
0010
0000
,
0000
0000
0010
0000
,
3002
0000
0010
0000
,
0000
0000
0010
0000
,
2003
0000
0001
0000
,
0000
0010
0001
0000
,
3002
0100
1000
0000
,
0010
0010
1000
0000
,
0203
0000
0000
0000
,
0000
0000
0300
0000
,
0101
0000
0000
0101
0000
0000
0101
0000
0000
0000
0000
0000
1100
0000
0101
0000
,
0000
0000
0000
0000
,
0011
0000
0000
0011
0000
0000
0011
0000
0000
0000
1000
0000
0010
0000
0110
0000
,
0000
0000
1001
1001
,
1100
0000
0000
0101
0000
0000
1100
0000
0000
0000
0000
0000
0011
0000
1100
0000
,
0000
0000
0000
0000
0000
0000
1000
0100
,
1100
0000
0001
0010
0011
0000
0001
1000
,
1010
0010
0400
0000
,
0301
1000
0001
0100
0010
1000
0001
0010
,
0100
0000
1000
0000
0100
0000
1000
0000
0010
0000
0100
0000
0001
1000
0001
1000
,
0001
0010
0100
0010
0001
1000
0001
0100
,
0010
0000
1000
0000
0001
0000
0010
0000
0100
0000
1000
0001
1000
0000
0001
0000
,
1001
1000
0010
0100
0010
1000
0001
0010
,
0100
0000
0010
0000
0001
0000
1000
0000
0001
0000
0100
0000
0010
1000
0010
1000
,
0010
0100
0001
0100
0010
1000
0100
0100
,
0010
0001
1000
0001
0100
0010
1000
0000
,
1001
0001
0010
0001
1000
0010
0100
0001
,
1000
0000
0100
0000
1000
0000
0001
0000
0010
0000
0100
0000
1000
0001
1000
0001
,
1000
0010
0100
0001
1000
0001
0010
0100
,
0010
0000
0001
0000
0100
0000
0010
1000
0010
0000
0000
1000
0000
0000
0010
0000
,
0100
0001
0100
0010
1000
0001
1000
0100
,
0010
0000
0001
0000
1000
0000
0001
0000
0100
0000
0010
0000
1000
0001
1000
0001
,
1000
0100
1000
0010
0100
0001
0001
1000
,
0001
0010
0100
1000
0020
0000
0000
0030
,
1010
1000
0001
0100
0001
1000
0100
0010
,
0001
0000
1000
0000
0100
0000
1000
0000
0010
0000
0100
0000
0001
1000
0001
1000
,
0001
0010
0100
1000
0001
0100
0010
1000
,
0100
0000
1000
0000
0010
0000
0100
0000
0001
0000
1000
0001
1000
0000
0001
0000
,
1001
1000
0100
0010
0001
0100
0010
1000
,
0010
0000
0100
0000
0010
0000
1000
0000
0001
0000
0010
0000
0100
1000
0100
1000
,
0100
1000
0010
0100
0001
1000
0100
0100
,
0010
0001
0010
0001
1000
0000
1010
0000
,
0010
0100
0010
1000
0001
0010
0100
1000
,
0010
0000
1000
0000
0010
0000
0100
0000
0001
0000
1000
0000
0001
0100
0001
0100
,
0001
1000
0001
0010
0100
1000
0010
0100
,
0001
0000
0010
0000
0001
0000
1000
0001
1000
0000
0000
0100
0000
0000
1000
0000
,
1010
0010
0100
0001
1000
0100
0010
0001
,
0100
0000
0001
0000
1000
0000
0100
0000
0010
0000
0001
0000
1000
0001
1000
0001
,
1000
0010
0100
0001
1000
0100
1000
0010
,
0100
0001
0100
0010
0100
0001
1000
0100
,
0110
0000
0000
0010
0000
0000
0000
0000
,
0001
0000
0000
0000
,
1001
0000
0000
1000
0000
0000
0000
0000
,
0010
0000
0000
0000
,
0110
0000
0000
0100
0000
0000
0000
0000
,
0001
0000
0000
0000
,
1001
0000
0000
1000
0000
0000
0000
0000
,
0200
0000
0000
0000
,
0310
0000
0000
0010
0001
0000
0000
0000
,
1000
0001
0101
0000
,
0100
0000
0000
0100
0010
0000
0000
0000
,
1000
0000
0000
0100
0000
0000
1100
0000
0000
1000
0001
1000
,
0010
0000
0000
0100
0001
0000
0000
0000
,
1000
0001
0011
0000
,
0010
0000
0000
0100
1000
0000
0000
0000
,
0001
0100
0110
0000
,
0010
1000
0100
0010
0001
1000
0001
0100
,
0010
1000
0100
0010
0001
0100
0010
1000
0001
0010
0100
1000
,
0020
0000
0000
0000
,
0130
0000
0000
1000
0000
0000
0100
0000
0001
0000
0010
0000
0100
0000
1000
0000
,
0001
0000
1000
0000
0020
0000
0000
0000
0130
0001
0100
0000
0010
0000
1000
0000
,
0001
1000
0100
0020
0000
0000
0031
0100
,
1000
0100
0001
1000
0100
0001
1000
0010
,
0100
0000
1000
0000
0010
0000
0100
0000
0000
0000
0001
0100
0001
0000
1000
0000
,
0001
0000
0010
0000
0001
0000
0010
0000
0100
0000
0000
1000
0000
0000
1010
0000
,
0010
0000
0100
0000
0001
0000
1000
0000
0001
0000
0000
0010
0000
0000
0011
0000
,
0001
0100
0040
0000
1030
0100
4000
0000
,
3001
0000
0000
0010
0000
0000
0100
0000
1000
0001
1000
0000
0010
0000
0100
0000
,
0101
0001
1000
0000
0100
1000
0010
0100
,
0001
1000
0001
2000
0000
0000
3001
0010
,
1000
0010
0001
1000
0010
0001
0010
0100
,
1000
0000
0100
0000
0010
0000
0100
0000
0001
0000
1000
0001
1000
0000
0100
0000
,
0010
0000
0001
0000
1000
0000
0010
0000
0100
0000
0000
0001
0000
0000
0101
0000
,
0100
0000
0010
0000
1000
0000
0100
0000
0010
0000
0000
0001
0000
0000
1001
0000
,
1000
0010
0100
0001
1000
0100
0001
1000
,
00M0
0000
1000
0000
0100
0000
0010
0000
0001
1000
0001
0000
0100
0000
0010
0000
,
1000
0001
0010
0001
1000
0010
0100
0010
,
1010
1000
0001
0010
0100
0010
0001
1000
,
0010
1000
0010
0000
0100
0000
0001
0000
1000
0001
1000
0000
0100
0000
0010
0000
,
0001
1000
0001
0000
0100
0000
0010
0000
2000
0000
0000
0000
0000
0000
3000
0000
,
1010
0010
0100
0001
1000
0100
0010
0010
,
0001
0000
1000
0000
0001
0000
0100
0000
0001
0000
0010
0000
0001
1000
0001
1000
,
0001
0100
0010
1000
0100
0010
0001
0001
,
0100
0000
0010
0000
1000
0000
0100
0000
1000
0000
0001
1000
0001
0000
0100
0000
,
0110
0010
1000
0001
0010
0100
1000
0001
,
1000
0010
1000
0100
0010
0001
1000
0010
,
0100
0001
0010
0100
1000
0010
1000
0100
,
0010
0001
0100
0010
1000
1000
0000
0000
,
1001
0001
0010
0100
1000
0010
0100
0001
,
0010
0100
1000
0100
0010
0001
0000
0000
,
1001
1000
0100
0010
0001
0100
0010
1000
,
0100
1000
0010
0100
0001
0010
0100
0100
,
1000
0001
0100
0010
1000
0100
0010
0001
,
0100
0010
1000
0100
0010
0001
0000
0000
,
1001
1000
0010
0100
0001
0010
0001
0100
,
0010
1000
0100
0010
0004
0000
1003
0000
,
0010
0000
0010
0000
0000
0000
0100
0001
1000
0000
1000
0000
0000
0000
0100
0000
,
0010
0000
0001
1000
0001
0000
0100
0000
0010
0000
0000
0010
0000
0000
0010
0000
,
0000
0000
1000
0000
0000
0000
0001
1000
0100
0000
0100
0000
0000
0000
0010
0000
,
0010
0001
0001
1000
0000
1000
0001
0000
,
0101
0000
0100
0000
0000
0000
0010
1000
0001
0000
0001
0000
0000
0000
1000
0000
,
0100
0000
0010
0001
0010
0000
0100
0000
1000
0000
0000
1000
0000
0000
1000
0000
,
0000
0000
0010
0000
0010
0000
0000
0000
0100
0001
0100
0001
0100
0000
0000
0000
,
0010
0000
1000
0000
0001
0000
1000
0000
0100
0010
0001
1000
0001
0100
0010
1000
,
0002
0000
0000
0000
,
0003
0000
0000
0000
;

//---------------dance-single - sangyule----------------
#NOTES:
     dance-single:
     :
     Beginner:
     2:
     0.157405,0.330155,0.126830,0.000000,0.000000,139.000000,123.000000,16.000000,0.000000,0.000000,0.000000,0.157405,0.330155,0.126830,0.000000,0.000000,139.000000,123.000000,16.000000,0.000000,0.000000,0.000000:
0000
0000
0000
0000
,
0000
0000
0000
0000
,
0000
0000
0000
0000
,
0000
0000
0000
0000
,
0000
0000
0000
0000
,
0000
0000
0000
0000
,
0000
0000
0000
0000
,
0000
0000
0000
0000
,
0000
0000
0000
0000
,
1000
0000
0001
0000
,
0000
0000
0001
0000
,
0000
0000
1000
0000
,
0000
0000
1000
0000
,
0010
0000
0000
0000
,
0000
0000
0000
0000
,
0110
0000
0000
0000
,
0000
0000
0000
0000
,
0110
0000
0000
0000
,
0000
0000
1000
0000
,
1001
0000
0000
0000
,
0000
0000
0000
0000
,
1001
0000
1001
0000
,
1001
0000
0000
0000
,
0001
0000
0000
0000
,
0010
0000
0010
0000
,
0100
0000
0000
0000
,
1000
0000
1000
0000
,
0001
0000
0000
0000
,
1000
0000
1000
0000
,
0010
0000
0000
0000
,
0100
0000
0000
0000
,
1001
0000
0000
0000
,
0001
0000
0001
0000
,
1000
0000
0000
0000
,
0100
0000
0100
0000
,
0010
0000
0000
0000
,
0001
0000
0001
0000
,
1000
0000
0000
0000
,
0010
0000
0000
0000
,
0100
0000
0000
0000
,
0001
0000
1000
0000
,
0001
0000
0000
0000
,
1000
0000
0100
0000
,
1000
0000
0000
0000
,
0001
0000
0100
0000
,
0001
0000
0000
0000
,
1000
0000
1000
0000
,
0010
0000
0000
0000
,
0100
0000
0001
0000
,
0100
0000
0000
0000
,
0010
0000
1000
0000
,
0001
0000
0000
0000
,
1000
0000
0100
0000
,
1000
0000
0000
0000
,
0010
0000
0100
0000
,
0010
0000
0000
0000
,
0000
0000
0000
0000
,
1000
0000
0000
0000
,
0000
0000
0000
0000
,
0001
0000
0000
0000
,
0000
0000
0000
0000
,
0010
0000
0000
0000
,
0100
0000
0000
0000
,
1001
0000
1000
0000
,
0000
0000
1000
0000
,
0000
0000
0001
0000
,
0000
0000
0001
0000
,
1001
0000
1000
0000
,
0000
0000
1000
0000
,
0000
0000
0010
0000
,
0000
0000
0010
0000
,
0100
0000
0000
0000
,
0000
0000
0000
0000
,
0000
0000
0000
0000
,
0000
0000
0000
0000
,
0001
0000
0000
0000
,
1000
0000
0000
0000
,
0100
0000
0000
0000
,
0000
0000
0000
0000
,
0110
0000
0000
0000
,
0110
0000
0000
0000
,
1001
0000
0001
0000
,
1000
0000
0000
0000
,
0010
0000
0000
0000
,
0100
0000
0000
0000
,
0001
0000
0000
0000
,
0000
0000
0000
0000
,
1001
0000
0000
0000
,
1001
0000
0000
0000
,
0110
0000
0000
0000
,
0000
0000
0000
0000
,
0001
0000
0000
0000
,
0001
0000
0000
0000
,
1000
0000
1000
0000
,
1000
0000
0010
0000
,
0100
0000
0000
0000
,
0001
0000
0000
0000
,
1000
0000
0000
0000
,
0100
0000
0000
0000
,
0010
0000
0000
0000
,
0001
0000
0000
0000
,
1000
0000
0000
0000
,
0010
0000
0010
0000
,
0100
0000
0000
0000
,
0001
0000
0000
0000
,
1000
0000
0000
0000
,
0100
0000
0000
0000
,
0010
0000
0000
0000
,
0001
0000
0000
0000
,
0100
0000
0000
0000
,
0010
0000
0010
0000
,
1000
0000
0000
0000
,
1000
0000
0000
0000
,
0001
0000
0000
0000
,
0001
0000
0000
0000
,
1001
0000
0000
0000
,
1000
0000
0000
0000
,
0010
0000
0000
0000
,
0100
0000
0100
0000
,
0001
0000
0000
0000
;

//---------------dance-single - sangyule----------------
#NOTES:
     dance-single:
     :
     Easy:
     6:
     0.360107,0.475613,0.182318,0.206099,0.000000,318.000000,295.000000,23.000000,26.000000,4.000000,0.000000,0.360107,0.475613,0.182318,0.206099,0.000000,318.000000,295.000000,23.000000,26.000000,4.000000,0.000000:
0000
0000
0000
0000
,
0000
0000
0000
0000
,
0000
0000
0000
0000
,
0000
0000
0000
0000
,
0000
0000
0000
0000
,
0000
0000
0000
0000
,
0000
0000
0000
0000
,
0000
0000
0000
0000
,
0000
0000
0000
0000
,
1000
1000
0010
0000
,
0000
0100
0010
0000
,
1000
1000
0001
0000
,
0010
0010
0100
0000
,
2200
0000
0000
0000
,
0000
0000
3300
0000
,
0001
0000
0000
0001
0000
0000
0000
1001
,
0000
0000
0000
0000
,
0100
0000
0000
0100
0000
0000
0000
0110
,
0000
0000
0001
1000
,
0001
0000
0000
0001
0000
0000
0000
1001
,
0000
0000
0000
0000
,
0110
0000
0110
0000
,
0110
0000
2000
0000
,
3001
0000
0010
0001
,
1000
0000
0010
0010
,
1000
0000
0001
1000
,
0001
0000
0010
0010
,
0100
0000
1000
0100
,
1000
0000
0001
0001
,
0100
0000
0010
1000
,
1000
0001
0020
0030
,
0110
0000
0100
1000
,
0001
0000
1000
1000
,
0010
0000
0100
0001
,
1000
0000
0001
0001
,
1001
0000
1000
0010
,
0100
0000
0001
0001
,
1000
0000
0100
0010
,
0100
0010
0002
0000
,
1003
0000
0010
0100
,
0010
0010
1000
1000
,
0001
0000
0010
0100
,
1000
1000
0010
0010
,
0200
0000
0301
1000
,
0001
0001
0010
0010
,
0200
0000
1300
0010
,
0100
0100
0001
0001
,
2000
0000
3001
0010
,
0100
0100
1000
1000
,
0002
0000
0103
0010
,
1000
1000
0010
0000
,
0120
0000
1030
0001
,
1000
1000
0100
0100
,
0020
0000
0031
0100
,
0010
1000
0100
0010
,
0002
0000
0000
0000
,
0013
0000
0000
0000
,
0002
0000
0000
0000
,
1003
0000
0000
0000
,
0002
0000
0000
0000
,
0103
0000
0000
0000
,
0020
0000
0000
0000
,
2030
0000
0000
0000
,
3100
0000
0010
0000
,
0000
0000
0010
0000
,
0001
0000
1000
0000
,
0000
0000
1000
0000
,
1010
0000
0010
0000
,
0000
0000
0010
0000
,
0100
0000
0001
0000
,
0000
0000
0001
0000
,
20M0
0000
0000
0000
,
00M0
0000
0000
0000
,
32M0
0000
0000
0000
,
03M0
0000
0000
0000
,
1000
0001
0100
0000
,
0010
0000
0000
0010
0000
0000
1000
0000
,
0100
0000
0000
0100
0000
0000
0001
0000
,
0100
1000
0010
1000
,
0001
0100
0101
0000
,
1000
0100
1100
0000
,
1000
0010
0100
0001
,
1000
0100
0020
0000
,
0031
1000
0010
0000
,
0100
0000
0000
0100
0000
0000
0001
0000
,
0010
0000
0000
0010
0000
0000
0001
0000
,
1000
0010
1000
0100
,
0010
0001
0011
0000
,
1000
0010
1010
0000
,
1000
0000
0001
0000
0100
0000
0010
1000
,
0000
1000
0100
0100
,
2000
0000
0000
0000
,
0000
0000
3000
0000
,
0002
0013
0002
0103
,
0010
1000
0100
0000
,
0020
0000
0031
1000
,
0010
0010
0100
0100
,
0002
0000
1003
0100
,
0010
0010
0001
0001
,
2000
0000
3010
0100
,
0001
0001
1000
1000
,
0100
0010
0001
0100
,
0010
1000
0100
0000
,
1100
1000
0010
0100
,
0001
0010
0100
0000
,
0010
0001
0100
0010
,
1000
0100
0010
0001
,
0001
1000
0010
0100
,
0001
0010
0100
0000
,
1000
0100
1000
0010
,
0100
0001
0010
0000
,
0011
0000
0011
0000
,
1000
0000
0001
0000
0100
0000
0000
0100
,
0000
0110
0000
0000
1010
0000
0000
0000
,
1000
0000
0001
0000
0000
0010
0000
0000
,
0110
0000
0110
0000
,
0100
0000
1000
0000
0001
0000
0000
0001
,
0000
1001
1000
0010
,
0100
0001
1000
0100
,
0020
0000
0000
0000
,
0030
0000
0000
0000
;

//---------------dance-single - sangyule----------------
#NOTES:
     dance-single:
     :
     Medium:
     9:
     0.618297,0.760981,0.087196,0.198172,0.071342,546.000000,535.000000,11.000000,25.000000,10.000000,0.000000,0.618297,0.760981,0.087196,0.198172,0.071342,546.000000,535.000000,11.000000,25.000000,10.000000,0.000000:
0000
0000
0000
0000
,
0000
0000
0000
0000
,
0000
0000
0000
0000
,
4000
0000
0000
0000
,
0000
0000
3000
0000
,
0002
0000
0000
0000
,
0000
0000
0000
0000
,
2003
0000
0000
0000
,
0000
0000
3000
0000
,
0010
0100
0001
0000
,
0000
1000
0001
0000
,
1000
0100
0010
0000
,
0100
0010
0001
0000
,
2002
0000
0000
0000
,
0000
0000
3003
0000
,
1000
0000
0000
0010
0000
0000
1000
0000
0000
0000
0000
0000
0001
0000
1000
0000
,
0000
0000
0000
0000
,
0001
0000
0000
0010
0000
0000
0001
0000
0000
0000
1000
0000
0100
0000
1000
0000
,
0000
0000
1010
1010
,
0010
0000
0000
0100
0000
0000
0010
0000
0000
0000
0000
0000
1000
0000
0001
0000
,
0000
0000
0000
0000
0000
0000
0010
0100
,
2000
0000
3010
0100
0002
0000
0013
0100
,
1000
0010
0000
0010
0400
0000
0000
0000
,
0301
1000
0100
0010
,
0001
0000
0100
0000
0010
0000
1000
0001
,
1000
0001
0010
0100
,
1000
0000
0010
0000
0100
0000
0001
1000
,
0001
0010
0100
1000
,
0001
0000
0100
0000
0010
0000
1000
0001
,
1000
0000
0100
0000
0010
0000
0001
0010
,
0001
0000
1000
0001
0100
0001
1000
0000
,
1001
0000
0001
0000
0100
0000
0010
1000
,
0100
0000
0010
0000
0001
0000
1000
0001
,
0100
0000
0010
0000
1000
0000
0100
1000
,
0010
0000
0000
0000
0100
0000
0001
0000
1000
0000
0000
0100
0000
0000
1000
0000
,
0001
0000
0010
0000
0100
0000
1000
0010
,
0100
0000
0001
0000
0100
0000
0010
1000
,
0001
0000
1000
0000
0100
0000
0010
0100
,
1000
0000
0001
0100
0020
0000
0000
0030
,
1000
0000
0001
0000
0010
0000
0100
1000
,
0100
0000
1000
0001
0100
0010
0100
0010
,
1000
0000
0001
0000
0010
0000
0100
0010
,
0001
0000
0010
0001
1000
0010
1000
0010
,
0100
0000
0001
0000
1000
0000
0100
1000
,
0100
0000
0010
0100
1000
0001
1000
0001
,
0100
0000
0010
0000
1000
0000
0001
0010
,
0001
0100
0010
0010
,
1010
0000
1000
0000
0001
0000
0010
0100
,
0010
0000
0001
1000
0010
0100
0010
0100
,
0001
0000
1000
0000
0100
0000
1000
0001
,
0010
0000
0000
0000
0100
0000
1000
0000
0010
0000
0000
1000
0000
0000
0001
0000
,
1000
0000
0001
0000
0100
0000
0010
1000
,
0100
0000
1000
0100
0010
0001
0010
0001
,
1000
0000
0001
0100
0001
0000
0100
0010
,
1000
0000
0001
0010
0100
1000
0001
0100
,
0020
0000
0000
0000
,
1030
0000
0000
0000
,
2000
0000
0000
0000
,
3001
0000
0000
0000
,
0002
0000
0000
0000
,
0013
0000
0000
0000
,
0020
0000
0000
0000
,
0230
0000
0000
0000
,
1300
0000
0000
1000
0001
0000
0000
0000
,
0010
0100
1000
0000
,
0001
0000
0000
0001
0100
0000
0000
0000
,
0010
0000
1000
0000
0001
0000
0010
0100
,
0010
0000
0000
0010
0001
0000
0000
0000
,
1000
0001
0100
0000
,
0010
0000
0000
0010
1000
0000
0000
0000
,
0001
0010
0100
0000
,
200M
00M0
000M
0M00
,
30M0
0000
0M00
0000
000M
0000
0M00
0000
00M0
0000
M000
0000
,
0001
0010
0001
1000
0010
1000
0100
0010
,
0002
0000
0000
0203
0000
0000
0302
0000
0003
2000
0000
0000
3100
0000
0010
0000
,
0001
0000
1000
0000
0010
0100
0010
1000
,
0000
0100
0010
0002
0000
0003
1000
0001
,
1000
0100
0100
0001
0100
0100
1000
0010
,
0100
0001
0100
0001
0000
1000
0010
0000
,
0110
0000
0000
0000
0100
0000
0000
0000
0001
0000
0000
1000
0000
0000
0001
0000
,
1001
0000
0000
0000
1000
0000
0000
0000
0100
0000
0000
0010
0000
0000
0100
0000
,
0020
0000
0031
0000
0100
0001
1000
0000
,
0100
0000
0000
1000
0000
0000
0001
0000
0200
0000
0000
0000
0000
0000
0300
0000
,
0010
1000
0010
0000
0100
0001
0100
0010
,
0000
1000
0001
0020
0000
0030
0100
0010
,
0001
0100
0100
1000
0100
0100
0001
1000
,
0001
0010
0001
1000
0000
0010
0100
0000
,
0101
0000
0000
0000
0001
0000
0000
0000
1000
0000
0000
0100
0000
0000
1000
0000
,
1100
0000
0000
0000
0100
0000
0000
0000
0010
0000
0000
0001
0000
0000
0010
0000
,
0011
0000
0001
0000
1000
0010
0001
0010
,
0000
0100
0010
0100
0000
0001
2000
0000
,
3100
0010
0001
1000
,
1001
0001
0100
0010
,
1000
0100
1000
0000
0001
0010
0001
0000
,
0100
0010
1000
0100
0020
0000
0000
0000
,
0031
0000
1000
0000
0001
0000
0100
0010
,
1000
0000
0100
0010
0001
1000
0001
1000
,
0010
0000
0100
0000
0001
0000
0010
0100
,
1000
0000
0100
1000
0001
0100
0001
0100
,
0010
0000
1000
0000
0001
0000
0010
0100
,
1000
0000
0010
0100
0001
0000
1000
0001
,
0010
0100
0010
0100
1000
0001
1000
0001
,
0100
0010
1000
0010
0100
0001
0000
0000
,
0100
0001
0100
0001
1000
0100
1000
0100
,
0010
0001
0010
0001
1000
0010
0100
0000
,
0001
0100
0001
0100
0010
1000
0010
1000
,
0001
0010
0001
0010
0100
1000
0001
0000
,
0100
0010
0100
0010
1000
0001
1000
0001
,
1000
0100
1000
0100
0010
0001
1000
0000
,
0010
1000
0001
1000
0100
0010
0001
1000
,
0001
0100
0010
1000
0001
0010
0100
0000
,
1000
0001
0000
1000
0100
1000
0000
0001
,
0100
0000
0010
0000
1000
0000
0010
0000
0100
0000
0000
0001
0000
0000
1000
0000
,
0000
0002
0000
0013
0100
1000
0000
0001
,
1000
0001
0100
0010
0000
1000
0001
0000
,
1000
0001
0000
0010
0100
0010
0000
0001
,
1000
0000
0100
0000
1000
0000
0001
0000
1000
0000
0000
0010
0000
0000
0100
0000
,
0000
0001
0100
0000
0001
0010
0001
0000
,
1000
0100
1000
0010
0100
0001
0010
0001
,
2000
0000
0000
0000
,
3000
0000
0000
0000
;
