#VERSION:0.83;
#TITLE:Rampage;
#SUBTITLE:;
#ARTIST:Virtual Riot;
#TITLETRANSLIT:;
#SUBTITLETRANSLIT:;
#ARTISTTRANSLIT:;
#GENRE:;
#CREDIT:Maxx & CopperPuppy;
#MUSIC:Rampage.ogg;
#BANNER:rampage-bn.jpg;
#BACKGROUND:rampage.jpg;
#CDTITLE:;
#SAMPLESTART:65.537;
#SAMPLELENGTH:22.760;
#SELECTABLE:YES;
#OFFSET:-0.015;
#BPMS:0.000=174.000;
#STOPS:;
#SPEEDS:0.000=1.000=0.000=0;
#SCROLLS:0.000=1.000;
#TICKCOUNTS:0.000=4;
#TIMESIGNATURES:0.000=4=4;
#LABELS:0.000=Song Start;
#COMBOS:0.000=1;
#ORIGIN:;
#PREVIEWVID:;
#JACKET:;
#CDIMAGE:;
#DISCIMAGE:;
#BGCHANGES:;
#FGCHANGES:;

//--------------- dance-single - sangyule ----------------
#NOTEDATA:;
#STEPSTYPE:dance-single;
#DESCRIPTION:sangyule;
#DIFFICULTY:Beginner;
#METER:1;
#RADARVALUES:0.08622,0.206927,0.112085,0,0,70,57,13,0,0,0,0,0,0,0.08622,0.206927,0.112085,0,0,70,57,13,0,0,0,0,0,0;
#CHARTNAME:;
#CHARTSTYLE:;
#CREDIT:sangyule;
#NOTES:
0000
0000
0000
0000
,
0000
0000
0000
0000
,
0000
0000
0000
0000
,
0000
0000
0000
0000
,
0000
0000
0000
0000
,
0000
0000
0000
0000
,
0000
0000
0000
0000
,
0000
0000
0000
0000
,
0000
0000
0000
0000
,
0000
0000
0000
0000
,
0000
0000
0000
0000
,
0000
0000
0000
0000
,
0000
0000
0000
0000
,
0000
0000
0000
0000
,
0000
0000
0000
0000
,
0000
0000
0000
0000
,
1000
0000
0000
0000
,
1000
0000
0000
0000
,
0001
0000
0000
0000
,
0010
0000
0000
0000
,
0100
0000
0000
0000
,
0100
0000
0000
0000
,
0100
0000
0000
0000
,
0100
0000
0000
0000
,
1000
0000
0000
0000
,
1000
0000
0000
0000
,
0001
0000
0000
0000
,
0010
0000
0000
0000
,
0001
0000
0000
0000
,
0001
0000
0000
0000
,
0001
0000
0000
0000
,
0001
0000
0000
0000
,
1000
0000
0000
0000
,
0000
0000
0000
0000
,
0000
0000
0000
0000
,
0000
0000
0000
0000
,
0000
0000
0000
0000
,
0000
0000
0000
0000
,
0000
0000
0000
0000
,
0000
0000
0000
0000
,
0010
0000
0000
0000
,
0010
0000
0000
0000
,
0100
0000
0000
0000
,
0001
0000
0000
0000
,
1000
0000
0000
0000
,
1000
0000
0000
0000
,
0100
0000
0000
0000
,
0000
0000
0010
0000
,
0001
0000
0000
0000
,
0001
0000
0000
0000
,
1000
0000
0000
0000
,
0000
0000
0010
0000
,
0100
0000
0000
0000
,
0001
0000
0000
0000
,
1000
0000
0000
0000
,
0001
0000
0000
0000
,
0010
0000
0000
0000
,
0010
0000
0000
0000
,
0100
0000
0000
0000
,
0000
0000
1000
0000
,
0001
0000
0000
0000
,
0001
0000
0000
0000
,
1000
0000
0000
0000
,
0000
0000
0000
0000
,
1001
0000
0000
0000
,
1001
0000
0000
0000
,
1001
0000
0000
0000
,
0001
0000
0000
0000
,
0110
0000
0000
0000
,
0110
0000
0000
0000
,
0110
0000
0000
0000
,
1000
0000
0000
0000
,
1001
0000
0000
0000
,
1001
0000
0000
0000
,
1001
0000
0000
0000
,
1001
0000
0000
0000
,
0110
0000
0000
0000
,
0110
0000
0000
0000
,
0110
0000
0000
0000
,
0100
0000
0000
0000
,
1000
0000
0000
0000
;

//--------------- dance-single - sangyule ----------------
#NOTEDATA:;
#STEPSTYPE:dance-single;
#DESCRIPTION:sangyule;
#DIFFICULTY:Easy;
#METER:5;
#RADARVALUES:0.269744,0.344878,0.172439,0.172439,0,219,199,20,20,0,0,0,0,0,0.269744,0.344878,0.172439,0.172439,0,219,199,20,20,0,0,0,0,0;
#CHARTNAME:;
#CHARTSTYLE:;
#CREDIT:sangyule;
#NOTES:
0000
0000
0000
0000
,
0000
0000
0000
0000
,
0000
0000
0000
0000
,
0000
0000
0000
0000
,
0000
0000
0000
0000
,
0000
0000
0000
0000
,
0000
0000
0000
0000
,
0000
0000
0000
0000
,
2000
0000
0000
0000
,
0000
0000
0000
3000
,
0002
0000
0000
0000
,
0023
0000
0000
0000
,
0130
0000
0100
0000
,
1000
0000
1000
0000
,
0001
0000
0001
0000
,
0200
0000
0000
0310
,
1000
0001
0000
1000
,
0100
0010
0000
0001
,
1000
0001
0000
0100
,
0010
0100
0000
0001
,
1000
1001
0000
0001
,
0010
0100
1000
0020
,
1030
1001
0000
0001
,
1000
0010
0100
0001
,
1000
0100
1000
0001
,
1000
0010
0100
0010
,
1000
0001
0100
0001
,
1000
0001
0010
0100
,
1000
1001
0000
0001
,
0100
0010
1000
0100
,
0010
0110
0000
0001
,
0021
0000
0000
0000
,
0230
0000
0000
0000
,
0000
0000
0000
0300
,
2000
0000
0000
0000
,
3002
0000
0000
0000
,
0203
0000
0000
0000
,
0000
0000
0000
0300
,
0020
0000
0000
0000
,
2030
0000
0000
0000
,
3001
0010
0001
0010
,
0100
1000
0100
1000
,
0001
0100
0001
0100
,
0010
1000
0010
1000
,
0001
0001
1000
1000
,
0100
0100
0010
0010
,
0002
0000
0000
0000
,
2000
0000
3003
0000
,
1000
0001
0010
0001
,
1000
0001
0010
0001
,
1000
0010
1000
0001
,
1000
0100
0010
0001
,
0200
0000
0300
0010
1000
0000
0000
0001
,
1000
0000
0000
0100
1000
0000
0020
0000
,
0130
0001
0000
1000
0001
0000
0000
0010
,
0002
0000
2003
0000
,
3010
0100
0001
0100
,
0010
0100
0001
0100
,
0010
1000
0001
1000
,
0100
0010
0001
1000
,
0010
0000
0000
1000
0001
0000
0000
1000
,
0100
0000
0000
1000
0001
0000
0200
0000
,
0320
0000
0000
0000
,
0000
0000
1030
0000
,
0001
0000
0011
0000
,
1000
1000
1001
0000
,
0001
0000
0101
0000
,
0100
0100
0110
0010
,
1000
0000
1100
0000
,
0001
0001
0101
0000
,
1000
0000
1010
0000
,
0001
0001
1001
1000
,
0100
0000
0110
0000
,
0010
0010
0011
0000
,
0001
0000
0101
0000
,
0100
0100
0110
0010
,
1000
0000
1001
0000
,
0001
0001
0011
0000
,
1000
0000
1100
0000
,
0001
0000
0100
0010
0000
0100
0010
0000
,
1000
0000
0000
0000
;

//--------------- dance-single - sangyule ----------------
#NOTEDATA:;
#STEPSTYPE:dance-single;
#DESCRIPTION:sangyule;
#DIFFICULTY:Medium;
#METER:7;
#RADARVALUES:0.423707,0.593621,0.137951,0.215549,0.142262,344,328,16,25,0,0,3,0,0,0.423707,0.593621,0.137951,0.215549,0.142262,344,328,16,25,0,0,3,0,0;
#CHARTNAME:;
#CHARTSTYLE:;
#CREDIT:sangyule;
#NOTES:
0000
0000
0000
0000
,
0000
0000
0000
0000
,
0000
0000
0000
0000
,
0000
0000
0000
0000
,
0000
0000
0000
0000
,
0000
0000
0000
0000
,
0000
0000
0000
0000
,
0000
0000
0000
0000
,
0002
1000
0000
1000
,
0000
0100
0000
0103
,
0020
1000
0000
1030
,
0002
0010
0000
0013
,
0100
0000
0000
1000
0000
0100
0000
0000
1000
0000
0000
0001
0000
1000
0000
0000
,
0010
0000
0000
0100
0000
0010
0000
0000
0100
0000
0000
0001
0000
0100
0000
0000
,
0010
0000
0000
1000
0000
0010
0000
0000
1000
0000
0000
0001
0000
1000
0000
0000
,
0200
0000
0300
0000
,
1000
0000
1001
0000
0001
0100
0010
0000
,
1000
0001
1000
0000
0100
0010
0001
0000
,
0100
0000
0110
0000
0010
1000
0001
0000
,
0010
0100
1000
0000
0010
0100
0001
0000
,
1000
0000
0000
0000
1100
0000
0000
0100
0000
0000
0010
0000
0002
0000
0000
0000
,
1003
0000
0010
0000
0010
0000
0000
0100
0000
0000
0001
0000
0020
0000
0000
0000
,
0130
0000
0000
0000
1100
0000
0000
1000
0000
0000
0001
0000
0020
0000
0000
0000
,
0031
0000
1000
0000
1000
0000
0000
0010
0000
0000
0100
0000
0001
0000
0100
0000
,
0010
1000
0001
0010
0000
0001
1000
0010
,
0000
0100
0001
1000
0000
0100
0010
0001
,
1000
0001
0100
0010
0000
1000
0100
0010
,
0000
0002
0203
0320
0030
2000
3002
0000
,
0013
0000
0000
0000
0110
0000
0000
0100
0000
0000
1000
0000
0001
0000
0000
2000
,
0000
0000
0010
0000
3010
0000
0000
0100
0000
0000
0001
0000
1000
0000
0100
0000
,
0010
0000
0000
0000
0011
0000
0000
0001
0000
0000
1000
0000
0010
0000
0000
0000
,
0210
0000
0000
0000
0000
0000
0000
0000
0301
0000
0000
1000
0000
0000
0001
0000
,
2000
0000
0000
0000
,
0000
0000
0000
3000
,
0200
0000
0000
0000
,
0320
0000
0000
0000
,
0032
0000
0000
0000
,
0000
0000
0000
0003
,
2000
0000
0000
0000
,
3020
0000
0000
0000
,
0130
0000
0101
0000
0001
1000
0100
0000
,
0010
0001
0100
0000
0010
1000
0001
0000
,
1000
0000
1100
0000
0100
0010
0001
0000
,
0100
0010
1000
0000
0100
0010
0001
0000
,
1000
0010
1000
0010
0100
0001
0100
0001
,
1000
0100
1000
0100
0010
0001
0010
0001
,
4000
0000
0000
0000
,
0000
0000
3000
0000
,
0001
0000
0011
0000
0010
0100
1000
0000
,
0100
0010
0001
0000
0010
0100
1000
0000
,
0010
0000
0110
0000
0100
0001
0010
0000
,
0100
1000
0010
0000
0100
0001
1000
0000
,
0001
0000
0010
0100
0100
0000
1000
0001
,
0001
0000
0100
0010
0010
0000
0002
0000
,
0013
1000
0000
0100
0100
0010
0000
0001
,
4000
0000
3010
0100
0004
0000
1003
0000
,
0100
0000
0110
0000
0010
0100
1000
0000
,
0001
0100
0010
0000
1000
0010
0100
0000
,
0001
0000
0011
0000
0010
0100
1000
0000
,
0010
0100
0001
0000
0010
0001
1000
0000
,
0010
0000
0100
0001
1000
0000
0100
0010
,
0001
0000
1000
0001
0010
0000
2000
0000
,
3020
0000
0000
0000
,
0000
0000
0000
0000
0031
1000
0001
1000
,
0010
0000
0000
0100
0000
0000
0001
0000
1000
0000
0000
0000
0000
0000
0000
0000
,
0001
0000
0000
0010
0000
0000
0100
0000
1000
0000
0000
0000
0001
0000
0000
0000
,
0100
0000
0000
0010
0000
0000
0100
0000
0001
0000
0000
0000
0000
0000
0000
0000
,
1000
1000
1100
0001
,
0100
0000
0000
0010
0000
0000
1000
0000
0001
0000
1000
0000
0200
0000
0000
0000
,
0310
0000
0000
0001
0000
0000
1000
0000
0010
0000
0000
0000
0100
0000
0000
0000
,
0001
0000
0000
1000
0000
0000
0001
0000
0010
0000
0100
0000
0010
0000
0100
0000
,
1000
1000
1001
0001
,
0100
0000
0000
0010
0000
0000
1000
0000
0001
0000
0000
0000
0000
0000
0000
0000
,
0010
0000
0000
0100
0000
0000
1000
0000
0010
0000
0000
0000
0100
0000
0000
0000
,
0001
0000
0000
0010
0000
0000
0001
0000
1000
0000
0000
0000
0000
0000
0000
0000
,
0001
0001
0101
0100
,
0010
0000
0000
1000
0000
0000
0100
0000
0010
0000
0001
0000
0010
0000
0000
0000
,
0001
0000
0000
1000
0000
0000
0001
0000
0100
0000
0000
0000
0010
0000
0000
0000
,
1000
0000
0000
0100
0000
0000
0010
0000
0001
0000
1000
0000
0001
0000
1000
0000
,
0010
0000
0100
0001
0000
0100
0001
0000
,
2000
0000
0000
0000
,
3000
0000
0000
0000
;

//--------------- dance-single - sangyule ----------------
#NOTEDATA:;
#STEPSTYPE:dance-single;
#DESCRIPTION:sangyule;
#DIFFICULTY:Hard;
#METER:10;
#RADARVALUES:0.671281,0.872973,0.284524,0.413854,0.638025,545,512,33,48,5,0,17,0,0,0.671281,0.872973,0.284524,0.413854,0.638025,545,512,33,48,5,0,17,0,0;
#CHARTNAME:;
#CHARTSTYLE:;
#CREDIT:sangyule;
#NOTES:
0000
0000
0000
0000
,
0000
0000
0000
0000
,
0000
0000
0000
0000
,
0000
0000
0000
0000
,
0000
0000
0000
0000
,
0000
0000
0000
0000
,
0000
0000
0000
0000
,
0000
0000
0000
0000
,
1000
0000
0000
0001
0000
0010
0000
0000
0001
0000
0000
1000
0000
0100
0000
0000
,
1000
0000
0000
0001
0000
0100
0000
0000
0010
0000
0000
1000
0000
0001
0000
0000
,
0010
0000
0000
0100
0000
1000
0000
0000
0001
0000
0000
0100
0000
0010
0000
0000
,
1000
0000
0000
0100
0000
1000
0000
0000
0001
0000
0000
0010
0000
0001
0000
0000
,
0100
0000
0000
0010
0000
1000
0000
0000
0001
0000
0000
0010
0000
0100
0000
0000
,
1000
0000
0000
0010
0000
0100
0000
0000
0001
0000
0000
0010
0000
0001
0000
0000
,
0100
0000
0000
0010
0000
1000
0000
0000
0100
0000
0000
0010
0000
0001
0000
0000
,
0200
0000
0000
0000
0000
0000
0000
0000
0310
0000
1000
0001
1000
0100
0010
0000
,
0001
0100
0010
0000
1000
0000
0001
0000
0100
0001
0100
0000
0010
0000
1000
0000
,
0001
0010
0001
0000
0100
0000
0001
0000
1000
0100
1000
0000
0010
0000
0100
0001
,
1000
0100
0010
0000
0001
0000
1000
0000
0010
1000
0010
0000
0100
0000
0001
0000
,
1000
0001
1000
0000
0100
0000
0010
0000
0001
0010
0001
0000
0100
0000
0010
1000
,
0002
0000
0003
0000
2200
3300
0000
1000
0000
0000
0100
0000
0002
0000
0000
0000
,
0103
0000
2000
3000
0022
0033
0000
0001
0000
0000
0100
0000
0120
0000
0000
0000
,
2030
0000
3000
0000
0202
0303
0000
0001
0000
0000
0100
0000
2000
0000
0000
0000
,
3100
0000
0001
0000
2020
3030
0000
1000
0000
0000
0100
0010
0001
0000
1000
0001
,
0100
0010
1000
0000
0001
0000
0010
0000
0100
1000
0100
0000
1000
0000
0010
0000
,
0100
0001
0100
0000
0010
0000
1000
0000
0001
1000
0001
0000
0010
0000
0100
1000
,
0010
0100
0001
0000
1000
0000
0100
0000
0010
0001
0010
0000
0001
0000
1000
0000
,
0020
2030
3002
0003
0010
0000
0100
0000
2000
3002
0203
0300
0010
0000
1000
0001
,
2000
0000
3000
0000
0022
0033
0000
0001
0000
0000
1000
0000
0010
0000
0000
00M2
,
0000
0000
1003
0000
0202
0303
0000
1000
0000
0000
0010
0000
0100
0000
0001
0000
,
2000
0000
3000
0000
0202
0303
0000
0001
0000
0000
1000
0000
0010
0000
0000
0000
,
0100
0001
1000
0100
0010
0001
1000
0000
1000
0000
1000
0000
,
0010
0100
0001
1000
0000
0100
1000
0001
,
0000
0010
0001
1000
0000
0010
0100
0010
,
1000
0001
0010
0100
0000
1000
0001
0100
,
0000
0010
1000
0001
0000
0010
0100
1000
,
0001
1000
0010
0100
0000
0001
0002
0000
,
1003
0100
0010
0100
0000
1000
0001
1000
,
0010
0100
0001
1000
0000
0100
0200
0000
,
0310
0001
1000
0010
0000
0100
0100
0000
,
0001
0000
1001
0000
1000
0100
1100
0000
,
1000
0001
0011
0000
0010
0001
1001
0000
,
1000
0000
1010
0000
0010
0100
0101
0000
,
0001
0010
0110
0000
0100
1000
1001
0000
,
0001
0100
0001
0100
0010
1000
0010
1000
,
0001
0010
0001
0010
0100
1000
0100
1000
,
0001
0100
0001
1000
0001
0010
0100
1000
0001
1000
0010
0100
0010
1000
0001
0010
,
0400
0000
0000
0000
0000
0000
0300
0000
1000
0000
0001
1000
0001
0100
0010
1000
,
0001
1000
0000
0100
0000
1000
0001
0000
0100
0010
0000
1000
0000
0001
0010
0000
,
0001
1000
0000
0010
0000
1000
0001
0000
0010
0100
0000
1000
0000
0001
0100
0000
,
0010
1000
0000
0100
0000
0010
0001
0000
0100
0001
0000
0010
0000
0100
1000
0000
,
0001
0100
0000
0010
0000
1000
0100
0000
1000
0001
0000
0010
0000
0100
1000
0000
,
0010
0000
0100
0001
1000
0000
0100
00M0
0100
0000
0001
0000
1000
0000
0010
0M00
,
0010
0000
0001
0000
1000
0000
0100
00M0
0100
0000
0010
0000
0002
0000
0000
0000
,
0013
0000
1000
0000
0001
0000
0010
0M00
0010
0000
0200
0000
0301
0000
0010
0000
,
0200
2300
3020
0230
0302
2003
3200
0000
,
1300
0001
0000
0100
0000
0001
1000
0000
0100
0010
0000
0001
0000
1000
0010
0000
,
0100
0001
0000
1000
0000
0100
0010
0000
0001
1000
0000
0010
0000
0100
0010
0000
,
1000
0100
0000
0010
0000
0100
1000
0000
0010
0100
0000
0001
0000
0100
0010
0000
,
1000
0100
0000
0010
0000
0100
1000
0000
0010
0100
0000
0001
0000
1000
0001
0000
,
0010
0000
0100
1000
0002
0000
0010
0000
2003
0000
3100
0010
0002
0000
0010
0000
,
1003
0000
0010
0100
0002
0000
0100
0000
1003
0000
0100
0000
0002
0000
0000
0000
,
0403
0000
0000
0000
,
0000
0000
0000
0000
0300
0000
0000
0000
1000
0000
0001
0100
0001
0100
0010
1000
,
0100
0000
0000
0010
0000
0000
0001
0000
4001
0000
0000
0000
0000
0000
0000
0000
,
3001
0000
0000
0100
0000
0000
0010
0000
4010
0000
0000
0000
3004
0000
0000
0000
,
0013
0000
0000
0100
0000
0000
1000
0000
1040
0000
0000
0000
0000
0000
0000
0000
,
0130
0000
0100
0000
1001
0001
0040
0000
,
0130
0000
0000
1000
0000
0000
0001
0000
1001
0000
1000
0000
0040
0000
0000
0000
,
0130
0000
0000
0001
0000
0000
1000
0000
1400
0000
0000
0000
0310
0000
0001
0000
,
1000
0000
0000
0010
0000
0000
0100
0000
0104
0000
0000
0000
0000
0000
0000
0000
,
1003
0100
0110
0010
,
0001
0000
0000
0100
0000
0000
0010
0000
4010
0000
0000
0000
0000
0000
0000
0000
,
3100
0000
0000
0010
0000
0000
0001
0000
0401
0000
0000
0000
0340
0000
0000
0000
,
1030
0000
0000
0001
0000
0000
0010
0000
0410
0000
0000
0000
0000
0000
0000
0000
,
1300
0000
0001
0000
1001
1000
0020
0000
,
0130
0000
0000
0001
0000
0000
1000
0000
1001
0000
0001
0000
0040
0000
0000
0000
,
0031
0000
0000
0100
0000
0000
0010
0000
4010
0000
0000
0000
3001
0000
0010
0000
,
0001
0000
0000
0100
0000
0000
0010
0000
4010
0000
0000
0000
0000
0000
0000
0000
,
3001
0000
1001
0100
0000
1001
0010
0000
,
0200
0000
0000
0000
,
0300
0000
0000
0000
;

//--------------- dance-single - Maxx & CopperPuppy ----------------
#NOTEDATA:;
#STEPSTYPE:dance-single;
#DESCRIPTION:Maxx & CopperPuppy;
#DIFFICULTY:Challenge;
#METER:13;
#RADARVALUES:0.899147,1.187243,0.336256,0.525939,1.198452,730,691,39,61,31,6,8,0,0,0.899147,1.187243,0.336256,0.525939,1.198452,730,691,39,61,31,6,8,0,0;
#CHARTNAME:;
#CHARTSTYLE:;
#CREDIT:Maxx & CopperPuppy;
#NOTES:
0000
0000
0000
0000
,
0000
0000
0000
0000
,
0000
0000
0000
0000
,
0000
0000
0000
0000
,
0000
0000
0000
0000
,
0000
0000
0000
0000
,
0000
0000
0000
0000
,
0000
0000
0000
0000
,
0000
0001
0100
0000
0010
0000
1000
0001
0000
1000
0100
0000
0010
0000
0001
1000
,
0000
0001
0100
0000
0010
0000
1000
0001
0000
1000
0100
0000
0010
0000
0001
1000
,
0000
0001
0010
0000
0100
0000
1000
0001
0000
1000
0010
0000
0100
0000
0001
1000
,
0000
0001
0010
0000
0100
0000
1000
0001
0000
1000
0010
0000
0100
0000
0001
1000
,
0100
0000
0000
1000
0000
0001
0000
0000
0100
0000
0000
0001
0000
1000
0000
0000
,
0100
0000
0000
0010
0000
0001
0000
0000
0100
0000
0000
0010
0000
1000
0000
0000
,
0001
0000
0000
1000
0000
0100
0000
0000
1000
0000
0000
0001
0000
0100
0000
0000
,
0010
0000
1000
0000
0001
0000
0010
0000
0100
1000
0001
0100
0001
1000
0100
0010
,
0001
0100
0100
1000
0001
1000
0010
0010
0001
1000
0100
0010
0001
1000
0100
0100
,
0001
1000
0010
0100
0001
1000
0100
0100
0001
1000
0100
0010
0001
1000
0100
0100
,
0001
0010
0010
1000
0001
1000
0100
0100
0001
1000
0010
0100
0001
1000
0010
0010
,
0001
1000
0100
0010
0001
1000
0100
0100
0001
1000
0010
0100
0001
1000
0100
0010
,
0102
0000
0003
0000
2010
0000
3000
0102
0000
0003
1000
0000
0002
0000
0000
0000
,
0103
0000
0012
0000
2103
0000
3000
0012
0000
0003
1000
0000
0002
0000
0000
0000
,
2013
0000
3000
0000
0102
0000
0003
2010
0000
3000
0001
0000
2000
0000
0000
0000
,
3001
0000
0000
0000
2100
0000
0000
0000
3012
0000
0000
0000
0003
0000
2100
0000
0000
0000
3000
0000
0010
0M00
0010
0000
0001
0000
0000
0000
1000
0000
0001
0000
,
1000
0100
0100
0001
1000
0001
0010
0010
1000
0001
0100
0010
1000
0001
0010
0010
,
1000
0001
0010
0100
1000
0001
0100
0100
1000
0001
0100
0010
1000
0001
0100
0100
,
1000
0010
0010
0001
1000
0001
0100
0100
1000
0001
0010
0100
1000
0001
0010
0010
,
1000
0001
0100
0010
1000
0001
0100
0100
1000
0001
0010
0100
1000
0001
0100
0010
,
2100
0000
3000
0000
0012
0000
0003
2100
0000
3000
0001
0000
0020
0000
0000
0230
,
0000
0000
2310
0000
3102
0000
0003
2010
0000
3000
0001
0000
0100
0000
0020
0000
,
2130
0000
3000
0000
0012
0000
0003
2100
0000
3000
0001
0000
0200
0000
0000
0310
,
1000
0000
0000
0000
0001
0000
0000
0000
1000
0000
0000
0000
0100
0000
0000
0000
0010
0000
0000
0000
0001
0000
0000
0000
2000
0000
0000
0000
0000
0000
0000
0000
0000
3002
0000
0000
0000
0000
0000
0000
0000
0000
0013
0000
0000
0000
0000
0000
,
0100
0000
1000
0000
0010
0000
1000
0001
0000
1000
0010
0000
0100
0000
0001
1000
,
0000
0001
0100
0000
0010
0000
1000
0001
0000
1000
0010
0000
0100
0000
0001
1000
,
0000
0100
1000
0000
0010
0000
0100
0001
0000
1000
0001
0000
0010
0000
0001
1000
,
0000
0100
1000
0000
0010
0000
0100
0001
0000
1000
0001
0000
0010
0000
0001
1000
,
0100
0000
0010
0000
0001
0000
1000
0010
0000
1000
0001
0000
0100
0000
0010
1000
,
0000
0001
1000
0000
0100
0000
0010
0001
0000
1000
0010
0000
0100
0000
0001
1000
,
0100
0010
0001
0010
0001
1000
0020
0000
,
0130
0000
0001
0000
1000
0000
0100
0000
1000
0000
0001
0000
0100
0000
0010
1000
,
0001
0000
0010
0000
0011
0000
0001
1000
0010
0100
0000
0001
0000
0002
0000
0000
,
1003
0100
0000
0010
0001
1000
0010
1000
0001
0100
0000
0010
1000
0001
0010
0001
,
1000
0000
0010
0000
1010
0000
1000
0001
0010
0100
0000
1000
0000
2000
0000
0000
,
3001
0100
0000
0010
1000
0001
0010
0001
1000
0100
0000
0010
0001
1000
0010
1000
,
0001
0010
0100
1000
0001
0100
0010
1000
,
0001
0010
0001
1000
0010
0100
0001
1000
,
0100
1000
0001
0100
0010
0100
0001
1000
0100
0010
0100
1000
0010
0100
0001
1000
,
0400
0000
0000
0000
0000
0000
0000
0000
0310
0000
0001
1000
0010
0100
0010
1000
,
0001
1000
0100
0010
000M
0010
1000
0001
0010
0001
1000
0100
00M0
0100
0001
1000
,
0010
1000
0001
0100
00M0
0100
1000
0001
0010
0001
1000
0010
0M00
0010
0001
1000
,
0001
0010
0100
0001
00M0
0001
0010
0100
1000
0010
0100
1000
00M0
1000
0010
0100
,
0001
0010
0100
0001
00M0
0001
0010
0100
1000
0001
0100
0010
0000
0M10
0001
1000
,
0001
0000
0000
0000
0100
00M0
0100
0000
1000
0000
0000
0000
0001
0000
0000
0000
0100
0000
0000
0000
0010
0M00
0010
0000
0001
0000
0000
0000
1000
0000
0000
0000
,
0010
0000
0000
0000
0100
00M0
0100
0000
1000
0000
0000
0000
0001
0000
0000
0000
0010
0000
0000
0000
0100
M000
0100
0000
0012
0000
0000
0000
0000
0000
0000
0000
,
0103
1M00
0001
0100
0010
00M1
1000
0001
,
0020
0032
2003
3020
0230
0302
0023
0230
,
1300
0001
0100
0010
000M
0010
0001
1000
0010
1000
0001
0100
00M0
0100
1000
0001
,
0010
0001
1000
0100
00M0
0100
0001
1000
0010
1000
0001
0010
0M00
0010
1000
0001
,
1000
0100
0010
1000
0M00
1000
0100
0010
0001
0100
0010
0001
0M00
0001
0100
0010
,
1000
0100
0010
1000
0M00
1000
0100
0010
0001
1000
0010
0100
0000
01M0
1000
0001
,
0100
0000
0000
0000
0010
0M00
0010
0000
0001
0000
0000
0000
2000
0000
0000
0000
3010
0000
0000
0000
0100
00M0
0100
0000
1000
0000
0000
0000
0002
0000
0000
0000
,
1003
0000
0000
0000
0010
0M00
0010
0000
0001
0000
0000
0000
2000
0000
0000
0000
3010
0000
0000
0000
0100
00M0
0100
0000
2010
0000
0000
0000
0000
0000
0000
0000
,
3004
0000
0000
0000
,
0000
0000
0000
0000
0000
0000
0000
0000
1003
0000
0100
0010
0001
1000
0010
0100
,
0001
0000
0000
1000
0000
0000
0100
0000
0140
0000
0000
0000
0000
0000
0000
0000
,
0031
0000
0000
1000
0010
0000
1000
0000
1040
0000
M000
0000
0032
0000
0000
0000
,
1003
0000
0000
0100
0000
0000
0010
0000
0410
0000
0000
0000
0000
0000
0000
0000
,
1300
0000
0000
0000
0020
0000
0000
0030
1010
0000
1000
0000
0002
0000
0000
0000
,
1003
0000
0000
0001
0000
0000
0010
0000
0210
0000
0001
0000
2300
0000
0000
0000
,
3001
0000
0000
0000
0000
0000
0100
0000
0000
0000
0000
0000
0001
0000
0000
0000
2000
0000
0000
0000
3100
00M0
0100
0000
0001
0000
0000
0000
1000
0000
0000
0000
,
0010
0000
0000
1000
0000
0000
0100
0000
2001
0000
3001
0000
0001
0000
0100
0000
,
0001
0010
0001
1000
0010
0100
1000
0001
0010
1000
0001
0010
0001
1000
0100
0010
,
0001
0000
0000
1000
0000
0000
0010
0000
0410
0000
0000
0000
0000
0000
0000
0000
,
0301
0000
0000
1000
0100
0000
1000
0000
1400
0000
M000
0000
0302
0000
0000
0000
,
1003
0000
0000
0010
0000
0000
0100
0000
0140
0000
0000
0000
0000
0000
0000
0000
,
1030
0000
0000
0000
0200
0000
0000
0300
1100
0000
1000
0000
0002
0000
0000
0000
,
1003
0000
0000
0001
0000
0000
0100
0000
0120
0000
0001
0000
2030
0000
0000
0000
,
3001
0000
0000
0000
0000
0000
0010
0000
0000
0000
0000
0000
0001
0000
0000
0000
2000
0000
0000
0000
3010
0M00
0010
0000
0001
0000
0000
0000
1000
0000
0000
0000
,
0100
0000
0000
1000
0000
0000
0010
0000
2001
0000
3001
0000
0001
0000
0010
0000
,
0001
1000
1010
1000
0001
0011
0001
1000
,
0200
0000
0000
0000
,
0300
0000
0000
0000
;
