#TITLE:Quixotic;
#SUBTITLE:;
#ARTIST:Aika;
#TITLETRANSLIT:;
#SUBTITLETRANSLIT:;
#ARTISTTRANSLIT:;
#GENRE:;
#CREDIT:;
#BANNER:Quixotic-bn.png;
#BACKGROUND:Quixotic-bg-wide.png;
#LYRICSPATH:;
#CDTITLE:cd-title-Benpai.png;
#MUSIC:Quixotic.ogg;
#OFFSET:0.009000;
#SAMPLESTART:56.461594;
#SAMPLELENGTH:11.294118;
#SELECTABLE:YES;
#BPMS:0.000000=170.000000
,92.000000=85.000000
,94.000000=170.000000
,266.000000=85.000000
,268.000000=170.000000
;
#STOPS:
;
#BGCHANGES:;
#KEYSOUNDS:;
#ATTACKS:;

//---------------dance-single - ----------------
#NOTES:
     dance-single:
     :
     Challenge:
     12:
     0.791327,1.073929,0.442553,0.103262,0.549503,751.000000,691.000000,60.000000,14.000000,10.000000,0.000000,0.791327,1.073929,0.442553,0.103262,0.549503,751.000000,691.000000,60.000000,14.000000,10.000000,0.000000:
0000
0000
0000
0000
,
0000
0000
0000
0000
,
0000
0000
0000
0000
,
0000
0000
0000
0000
,
0000
0000
0000
0000
,
0000
0000
0000
0000
,
0000
0000
0000
0000
,
0000
0000
0000
0000
,
1001
0000
0001
0000
0001
0000
1000
0100
,
0010
0010
0001
1000
,
0001
0000
0100
0000
0100
0000
0010
1000
,
0001
0000
0001
0000
0010
0100
1000
0000
,
0001
0000
0100
0000
0100
0000
0010
0100
,
0001
1000
0001
0010
2000
0000
3020
0000
,
0130
1000
1000
0001
,
0000
0100
0010
0100
,
1001
0000
0000
1000
0100
0000
1000
0000
,
0000
0000
0001
0000
0100
0000
0000
0000
0010
0000
0100
0000
0001
1000
0001
1000
,
0001
0000
0000
0010
0100
0000
1000
0000
,
0000
0001
0100
0000
0100
0010
1000
0001
,
1001
0000
1000
0100
0110
0000
0010
0001
,
0011
0000
0010
0000
0001
0000
0000
0000
0100
0000
0010
0000
1000
0001
1000
0001
,
0100
0000
0000
0010
0100
0000
0001
0000
,
M000
0000
0010
0000
0100
0000
1000
0000
1001
0000
0000
0000
0001
0010
0100
0000
,
1000
0001
1100
0000
0000
0011
0000
0000
1100
0000
0000
0000
0001
0010
0100
0000
,
1000
0001
0100
0000
0010
0000
1100
0000
0011
0000
0000
0000
1000
0010
0100
0000
,
0001
1000
0101
0000
0000
1010
0000
0000
0101
0000
0000
0000
0010
0000
0001
0000
,
0100
00M0
0100
0000
1000
0000
1000
0000
0011
0000
0000
0000
1000
0100
0010
0000
,
0001
1000
0011
0000
0000
1100
0000
0000
0011
0000
0000
0000
1000
0100
0010
0000
,
0100
1000
0001
0000
0100
0000
0010
0000
1100
0000
0000
0000
0011
0000
1000
0000
,
0101
0000
1010
0000
0101
0000
1010
0000
0002
0000
0103
0010
0100
0000
0001
1000
,
0100
1000
0001
1000
0010
0100
0010
0100
0002
0000
0000
0000
0013
0001
0100
0000
,
0010
1000
0100
0000
1000
0000
0100
0000
0001
0000
0100
0000
0010
0001
0100
0000
,
0010
1000
0010
0100
0001
0100
0010
1000
0100
0000
0010
0000
0100
1000
0010
0000
,
0100
0001
0010
0000
0001
0000
0100
0000
1000
0000
0100
0000
0010
1000
0100
0000
,
0010
0001
1000
0001
0100
0000
0001
0000
0010
0000
0100
0000
1000
0010
0100
0000
,
0001
0010
0100
0000
0010
0000
0001
0000
0100
0000
0010
0000
1000
0100
0010
0000
,
0001
0100
0001
1000
0100
1000
0001
0010
0100
0000
1000
0000
0001
0100
0010
0000
,
1000
0100
0010
0000
0100
0000
1000
0000
0001
0000
0100
0000
0010
1000
0100
0000
,
1010
0000
0101
0000
1010
0000
0001
0000
0100
0000
0010
0000
1000
0001
0100
0000
,
0001
1000
0100
0000
0010
0000
0100
0000
0001
0000
0100
0000
0010
0001
1000
0000
,
0001
0100
0001
1000
0100
1000
0001
1000
0010
0000
0100
0000
0010
1000
0001
0000
,
0010
0001
1000
0000
0010
0000
0100
0000
0001
0000
0010
0000
1000
0010
0100
0000
,
1000
0001
0100
0001
1000
0000
0010
0000
0010
0000
0100
0000
0001
1000
0100
0000
,
1000
0001
0100
0000
0010
0000
0100
0000
1000
0000
0100
0000
0010
1000
0001
0000
,
1000
0100
1000
0001
0100
0001
1000
0001
0010
0000
0100
0000
0010
0001
1000
0000
,
0010
1000
0001
0000
0010
0000
0100
0000
1000
0000
0010
1000
0010
1000
0100
0000
,
0M01
0010
0001
0000
0100
0000
0010
0100
0001
0000
1000
0000
0100
0000
1000
0000
,
0010
0100
0011
1000
0101
1000
0100
0010
,
0100
1000
0010
0100
0011
1000
0010
1000
,
0100
0010
0101
1000
0011
0100
1000
0100
,
0010
1000
0001
0010
0101
1000
0001
0010
,
0100
0010
0101
1000
0011
0100
0010
1000
,
0001
0010
0100
1000
0011
0100
0002
0010
,
2003
0010
3002
0100
2003
0100
3001
0000
,
0001
0100
0110
0020
,
0000
0000
0000
0000
,
0000
0000
0030
0000
,
0000
0000
0000
0000
1001
0000
0000
1000
,
0000
0100
0010
0000
0011
0000
0001
1000
,
0001
0000
1000
0100
0010
0001
0010
0000
,
0100
0000
1000
0001
0100
0001
1000
0001
0010
0000
0000
0000
0100
0000
1000
0000
,
0100
0000
0010
0001
1000
0001
0100
0000
,
1000
0100
0010
1000
0001
0000
0010
0100
,
0010
0000
0001
1000
0010
0100
0010
0000
,
0001
0000
0010
0000
0100
0010
1000
0001
1000
0000
0000
0000
0100
0000
0010
0000
,
0100
0000
1000
0000
000M
0010
0100
0001
,
1001
0000
0000
0000
1000
0100
0010
0000
0001
1000
0011
0000
0000
1100
0000
0000
,
0011
0000
0000
0000
1000
0100
0010
0000
0001
1000
0010
0000
0100
0000
0011
0000
,
1100
0000
0000
0000
0001
0100
0010
0000
1000
0001
1010
0000
0000
0101
0000
0000
,
1010
0000
0000
0000
0100
0000
1000
0000
0010
0M00
0010
0000
0001
0000
0001
0000
,
1100
0000
0000
0000
0001
0010
0100
0000
1000
0001
1100
0000
0000
0011
0000
0000
,
1100
0000
0000
0000
0001
0010
0100
0000
0010
0001
1000
0000
0010
0000
0100
0000
,
0011
0000
1100
0000
0001
0010
0100
0000
1010
0101
1010
0101
2000
0000
3002
0000
,
0103
0010
0100
0010
1000
0001
1000
0001
0010
0100
1000
0010
010M
0000
0001
0000
,
2000
0000
0000
0000
3010
0100
0001
0000
0010
0100
1000
0001
0010
0100
1000
0010
,
0100
0000
0000
0000
0001
0000
0000
0000
0100
00M0
0100
0000
0010
0000
0000
0000
0001
0000
1000
0000
0010
0000
0100
0000
M002
0000
0000
0000
0000
0000
0000
0000
,
0203
0000
0000
0000
0310
1000
0001
0000
0010
0100
1000
0000
0010
0000
0100
0000
,
1000
0000
0100
0000
0001
1000
0100
0000
1000
0010
1000
0001
0010
0001
0100
00M0
,
0100
1000
0010
1000
0001
1000
0100
0010
,
1000
0000
0010
0000
0100
1000
0010
0000
1000
0010
1000
0001
0010
0001
0100
00M0
,
0100
0000
1000
0000
0010
0000
1000
0000
0001
0010
0100
0000
0010
0000
0001
0000
,
0100
0000
0010
0100
0010
0100
0001
0000
0010
0100
0010
0100
0001
0000
0100
0000
,
1010
0000
0001
0000
1000
0010
0100
0000
0001
1000
0100
1000
0001
0000
0100
0000
,
1000
0000
0100
0000
0010
1000
0001
0000
0010
0100
1000
0100
0010
0001
0100
0010
,
0001
0000
0010
0000
1000
0001
0010
0000
0100
1000
0001
1000
0010
0000
0100
0000
,
1000
0000
0100
0000
0010
1000
0100
0000
0010
0001
1000
0000
0100
0000
0010
0000
,
1000
0000
0010
0000
0001
1000
0010
0000
0100
0001
1000
0000
0100
0000
0010
0000
,
1000
0000
0010
0000
0001
0100
0010
0000
1000
0100
1000
0001
0100
0001
0010
0100
,
0001
0000
0100
0000
0010
0001
1000
0000
0001
0100
0010
0000
0100
0000
0010
0000
,
0001
0000
0010
0000
1000
0001
0010
0000
0100
1000
0001
0000
0100
0000
0010
0000
,
1010
0000
0000
0000
;

//---------------dance-single - ----------------
#NOTES:
     dance-single:
     :
     Hard:
     10:
     0.663829,0.771886,0.221276,0.184397,0.354042,630.000000,600.000000,30.000000,25.000000,0.000000,0.000000,0.663829,0.771886,0.221276,0.184397,0.354042,630.000000,600.000000,30.000000,25.000000,0.000000,0.000000:
0000
0000
0000
0000
,
0000
0000
0000
0000
,
0000
0000
0000
0000
,
0000
0000
0000
0000
,
0000
0000
0000
0000
,
0000
0000
0000
0000
,
0000
0000
0000
0000
,
0000
0000
0000
0000
,
1100
0000
0100
0000
0010
0000
0100
1000
,
0001
0001
0200
0320
,
1030
0000
0001
0000
0001
0000
1000
0010
,
0100
0100
0002
0023
,
0031
0000
0100
0000
0100
0000
0010
1000
,
0001
0100
0010
0000
2000
0000
3200
0000
,
0310
0100
0100
2000
,
3000
0001
0100
0001
,
1001
0000
0000
1000
0100
0000
1000
0000
,
0000
0000
0001
0000
0100
0000
0000
0000
0001
0000
1000
0000
0100
1000
0100
1000
,
0001
0000
0000
0100
0001
0000
1000
0000
,
0000
0001
0010
0000
0100
1000
0100
1000
,
0010
0000
1000
0100
0100
0000
0010
0001
,
0100
0000
0010
0000
1000
0000
0000
0000
0100
0000
0010
0000
0100
1000
0100
1000
,
0001
0000
0000
1000
0001
0000
1000
0000
,
0000
0000
0000
0000
0000
0000
0000
0000
1100
0000
0000
0000
0100
0010
0001
0000
,
0000
0000
1001
0000
0000
1010
0000
0000
0101
0000
0000
0000
0001
0010
0100
0000
,
1000
0000
1000
0000
0001
0000
1000
0000
1000
0000
0000
0000
0100
1000
0001
0000
,
0000
0000
0101
0000
0000
0110
0000
0000
0101
0000
0000
0000
0001
0000
1000
0000
,
0100
0000
0100
0000
1000
0000
1000
0000
0001
0000
0000
0000
0001
0100
0010
0000
,
0000
0000
0110
0000
0000
0101
0000
0000
1001
0000
0000
0000
1000
0100
0010
0000
,
0100
1000
0001
1000
1000
0000
1001
0000
,
0001
0000
0010
0000
0100
0000
1000
0000
0002
0000
0103
0010
0100
0000
0001
1000
,
0001
0000
0010
0100
1000
0000
0001
0000
1000
0000
0000
0000
1000
0100
1000
0000
,
0001
1000
0001
0000
0010
0000
0001
0000
0100
0000
0010
0000
1000
0001
1000
0000
,
0100
0010
0100
0000
0000
0000
1000
0000
1000
0000
0001
0000
0010
0100
0010
0000
,
0001
1000
0001
0000
0100
0000
0010
0000
1000
0000
0001
0000
1000
0100
1000
0000
,
0001
0100
0001
0000
0100
0000
0010
0000
1000
0000
0001
0000
0010
0100
0010
0000
,
0001
1000
0001
0000
0100
0000
0010
0000
1000
0000
0100
0000
1000
0001
1000
0000
,
0010
0100
0010
0000
0000
0000
0010
0000
0010
0000
1000
0000
0001
0010
0001
0000
,
1000
0001
1000
0000
0010
0000
0100
0000
0001
0000
1000
0000
0100
0010
0100
0000
,
0010
0000
0001
0000
0011
0000
0000
0000
1000
0000
0001
0000
0100
0010
0100
0000
,
0001
1000
0001
0000
0010
0000
0100
0000
1000
0000
0100
0000
0010
0001
0010
0000
,
0001
1000
0001
1000
0010
0000
0100
0000
0001
0000
0100
0000
0010
1000
0010
0000
,
0100
0001
0100
0000
0010
0000
1000
0000
0001
0000
0010
0000
0100
0010
0001
0000
,
1000
0001
1000
0000
0010
0000
0100
0000
0001
0000
1000
0000
0100
1000
0100
0000
,
1000
0001
1000
0000
0010
0000
0100
0000
0001
0000
0010
0000
0100
1000
0100
0000
,
1000
0001
1000
0001
0100
0000
0010
0000
1000
0000
0001
0000
1000
0100
1000
0000
,
0100
1000
0100
0000
1000
0000
0010
0000
0100
0000
0001
0000
0010
0001
1000
0000
,
0001
1000
0010
0000
0100
0000
0001
1000
0002
0000
0000
0000
0013
0000
0100
0000
,
0001
0100
2000
0000
3010
0100
0001
0100
,
0010
0100
1000
0100
0002
0000
1003
0100
,
0001
0100
2000
0000
3010
0100
1000
0100
,
0010
1000
0001
0010
0200
0000
1300
0100
,
0001
0100
0010
0001
1000
0001
1000
0010
,
1000
0100
0010
0100
1000
0000
1001
0000
,
0101
0011
0020
0030
,
0000
0000
1001
2000
,
0000
0000
0000
0000
,
3000
0000
0000
0000
,
0000
0000
0000
0000
0001
0000
0000
0010
,
0000
0001
0010
0000
0110
0000
1000
0001
,
0010
0000
0001
0000
1000
0001
0001
0000
,
0100
0000
0010
0000
1000
0001
1000
0001
0010
0000
0000
0000
0100
0000
1000
0000
,
0100
0000
1000
0000
0001
0100
0100
0000
,
0010
1000
0001
0010
0001
0000
0100
0010
,
0100
0000
0001
0000
1000
0100
0100
0000
,
1000
0000
0010
0000
0100
0001
0100
0001
1000
0000
0000
0000
0100
0000
0010
0000
,
0100
2000
3000
0000
,
1010
0000
0000
0000
0010
0100
0001
0000
0000
0000
1001
0000
0000
0110
0000
0000
,
1001
0000
0000
0000
1000
0100
0010
0000
0100
0000
0010
0000
0001
0000
1000
0000
,
1000
0000
0000
0000
0001
0100
0010
0000
0000
0000
0110
0000
0000
1010
0000
0000
,
1001
0000
0001
0010
0100
0100
1000
1000
,
0010
0000
0000
0000
0100
0001
1000
0000
0000
0000
1100
0000
0000
0110
0000
0000
,
1100
0000
0000
0000
1000
0001
0100
0000
0010
0000
0100
0000
0001
0000
1000
0000
,
0001
0000
0001
0000
0010
0100
0010
0000
0001
1000
0001
1000
0002
0000
0000
0000
,
1003
0010
1000
0010
1000
0010
1000
0010
4000
0000
0000
0000
3000
0000
0000
0000
,
0002
0000
0000
0000
0013
0100
0010
0000
0001
1000
0001
1000
0001
1000
0001
1000
,
0200
0000
1300
0001
0100
1000
0200
0000
,
0320
0000
0000
0000
1030
0001
1000
0000
0100
0010
0001
0000
0010
0000
0001
0000
,
1000
0000
0010
0000
0100
0001
0100
0000
0010
0000
0000
1000
0010
0000
1000
0000
,
0002
0000
0013
0100
1000
0001
1000
0001
,
0100
0000
0010
0000
1000
0001
1000
0000
0100
0000
0001
0000
0100
0000
1000
0000
,
0002
0000
0103
0010
1000
0100
1000
0100
,
0010
0000
0001
1000
0001
1000
0001
0000
0100
0000
0010
0000
0001
0000
0010
0000
,
0100
0000
0001
0000
1000
0100
0010
0000
0100
0010
0001
0000
1000
0000
0001
0000
,
0100
0000
0010
0000
1000
0001
0100
0000
0010
1000
0001
0000
0010
0000
0001
0000
,
0010
0000
0100
0000
1000
0001
0100
0000
0010
1000
0001
0000
0010
0000
0001
0000
,
1000
0000
0100
0000
0010
0100
1000
0000
0100
0010
0001
0000
1000
0000
0010
0000
,
0100
0000
0001
0000
1000
0100
0010
0000
0100
1000
0001
0000
0100
0000
0010
0000
,
1000
0000
0001
0000
0010
0001
1000
0000
0010
1000
0001
0000
0010
0000
0100
0000
,
1000
0000
0100
0000
1000
0001
0100
0000
0010
1000
0001
0000
0010
0000
0001
0000
,
0200
0000
0300
0000
0010
1000
0100
0000
0010
0100
2000
0000
3010
0000
1000
0000
,
1001
0000
0000
0000
;

//---------------dance-single - ----------------
#NOTES:
     dance-single:
     :
     Medium:
     9:
     0.525795,0.576010,0.177021,0.250780,0.121702,499.000000,475.000000,24.000000,34.000000,0.000000,0.000000,0.525795,0.576010,0.177021,0.250780,0.121702,499.000000,475.000000,24.000000,34.000000,0.000000,0.000000:
0000
0000
0000
0000
,
0000
0000
0000
0000
,
0000
0000
0000
0000
,
0000
0000
0000
0000
,
0000
0000
0000
0000
,
0000
0000
0000
0000
,
0000
0000
0000
0000
,
0000
0000
0000
0000
,
1001
0000
0001
0000
0100
0000
0010
0100
,
0010
1000
0002
2003
,
3100
0000
0010
0000
0010
0000
0001
1000
,
0001
0001
0200
0320
,
1030
0000
0100
0000
0100
0000
1000
0001
,
1000
0010
0100
0000
0002
0000
2003
0000
,
3001
0010
0010
0200
,
0300
1000
0010
1000
,
1001
0000
0000
0001
0100
0000
0001
0000
,
0000
1000
0001
0000
0010
0100
0010
0001
,
1000
0000
0000
0010
1000
0000
0010
0000
,
0000
0100
0010
0000
1000
0001
1000
0001
,
0010
0000
0100
1000
0100
0000
0010
0000
,
0001
0010
0100
0000
1000
0010
0100
0001
,
1000
0000
0000
1000
0001
0000
1000
0000
,
0000
0000
0000
0000
1100
0000
0100
1000
,
0000
0000
1001
0000
0000
1001
0000
0000
1001
0000
0000
0000
0000
0000
0001
0000
,
0100
0100
0001
1000
1000
0000
0100
0010
,
0000
0000
0011
0000
0000
0011
0000
0000
0011
0000
0000
0000
0001
0000
1000
0000
,
0010
1000
0100
1000
0001
0000
1000
0100
,
0000
0000
0110
0000
0000
0110
0000
0000
0110
0000
0000
0000
0000
0000
0010
0000
,
0001
0001
1000
0001
0001
0000
0100
0000
,
0010
1000
0001
0010
0400
0000
4300
0000
,
3040
0000
0000
0000
0230
0000
0000
0000
0301
0000
0000
0000
1000
0100
1000
0000
,
0001
0000
1000
0000
0010
0000
0100
0000
0001
0000
0000
0000
1000
0100
1000
0000
,
0001
0000
0000
0010
0000
0000
0001
0000
0001
0000
0000
0000
1000
0010
1000
0000
,
0001
0000
0010
0000
0001
0000
0010
0000
0100
0000
0000
0000
1000
0001
1000
0000
,
0010
0000
0000
1000
0010
0000
0100
0000
0010
0000
0000
0000
0100
0001
0100
0000
,
0010
0000
1000
0000
0001
0000
0100
0000
0010
0000
0000
0000
1000
0001
1000
0000
,
0100
0000
0000
0010
0000
0000
0100
0000
0100
0000
0000
0000
1000
0001
1000
0000
,
0010
0000
0100
0000
0010
0000
0100
0000
0001
0000
0000
0000
0100
0010
0100
0000
,
0001
1000
0001
0000
0200
0000
1300
0100
,
1000
0000
0100
0000
1000
0000
0100
0000
0010
0000
0000
0000
1000
0001
1000
0000
,
0100
0000
0000
0010
0000
0000
0001
0000
0020
0000
0000
0000
1030
0000
0010
0000
,
1000
0010
1000
0010
0100
1000
0001
0000
,
0100
0010
0100
0000
0001
0000
1000
0000
0200
0000
0000
0000
0301
0000
0100
0000
,
0001
0000
0100
0000
0001
0000
0100
0000
0010
0000
0000
0000
0001
0010
0001
0000
,
1000
0000
0000
0001
0000
0000
1000
0000
0020
0000
0000
0000
0031
0000
0010
0000
,
0001
0000
0010
0000
0100
0000
0001
0000
2000
0000
0000
0000
3100
0010
0100
0000
,
1000
0000
0001
0000
0100
0000
0000
0001
0200
0000
0000
0000
0310
0000
1000
0000
,
0100
1000
0020
0000
0130
0001
0010
0001
,
0100
0001
0010
0001
2000
0000
3010
0100
,
0001
0100
0010
1000
0100
0010
0001
1000
,
0001
0010
0100
1000
0020
0000
0130
0001
,
0010
0001
0100
0010
1000
0100
0010
0100
,
1000
0001
1000
0010
0200
0000
2300
0000
,
3200
0320
2030
3000
,
0000
0000
1002
0000
,
0000
0000
0000
0000
,
0003
0000
0000
0000
,
0000
0000
0000
0000
1000
0000
0000
0010
,
0000
0100
0001
0000
0110
0000
0010
0000
,
1000
0000
0001
0010
0001
0000
0001
0000
,
0100
0010
1000
0000
0100
0000
0010
0000
,
0010
0000
0100
1000
0010
0000
0010
0000
,
0001
0010
1000
0100
,
0100
0000
0010
0100
1000
0100
0010
0000
,
0001
1000
0010
0000
,
0000
0000
0000
0000
,
0100
0000
0000
0000
0001
0000
0010
0000
0000
0000
0110
0000
0000
0110
0000
0000
,
0110
0000
0000
0100
1000
1000
0001
1000
,
0001
0000
0000
0000
0100
0000
0010
0000
0000
0000
1010
0000
0000
1010
0000
0000
,
1010
0000
1000
0001
0010
0010
0001
0001
,
1000
0000
0000
0000
0010
0000
0100
0000
0000
0000
1001
0000
0000
1001
0000
0000
,
1001
0000
0000
0001
0010
0010
0001
1000
,
0010
1000
0100
0001
0100
0000
0020
0000
,
0034
4003
3004
4003
3004
0000
0003
0000
,
0200
0000
0310
0000
1000
0100
0010
0100
,
1000
0000
0020
0130
0010
1000
0200
0000
,
0320
0000
0031
0100
0001
1000
0010
0100
,
1000
0000
0100
0000
0010
0000
1000
0000
0001
0000
0000
1000
0001
0000
0010
0000
,
0200
0000
0310
0001
0100
0001
0010
0100
,
0001
0000
0100
0000
1000
0000
0010
0000
1000
0001
1000
0000
0010
0000
0100
0000
,
0002
0000
0103
0010
1000
0010
0100
0010
,
0002
0000
0000
0023
0000
0000
1030
0001
,
0010
0000
0000
0000
0100
1000
0100
0000
0010
0000
0001
0000
0010
0000
0001
0000
,
1000
0000
0000
0000
0010
0100
0010
0000
1000
0000
0001
0000
1000
0000
0001
0000
,
0010
0000
0000
0000
0001
1000
0001
0000
0100
0000
0010
0000
0100
0000
0001
0000
,
1000
0000
0000
0000
0100
0010
0100
0000
1000
0000
0001
0000
0100
0000
0001
0000
,
1000
0000
0000
0000
0001
0100
0001
0000
1000
0000
0100
0000
1000
0000
0100
0000
,
0010
0000
0000
0000
0100
1000
0100
0000
1000
0000
0001
0000
1000
0000
0010
0000
,
0100
0000
0000
0000
0001
1000
0001
0000
0010
0000
0100
0000
0010
0000
0001
0000
,
1000
0000
0000
0000
,
2002
0000
0000
0000
0000
0000
0000
3003
;

//---------------dance-single - ----------------
#NOTES:
     dance-single:
     :
     Easy:
     5:
     0.299250,0.402723,0.044255,0.346666,0.022128,284.000000,278.000000,6.000000,47.000000,0.000000,0.000000,0.299250,0.402723,0.044255,0.346666,0.022128,284.000000,278.000000,6.000000,47.000000,0.000000,0.000000:
0000
0000
0000
0000
,
0000
0000
0000
0000
,
0000
0000
0000
0000
,
0000
0000
0000
0000
,
0000
0000
0000
0000
,
0000
0000
0000
0000
,
0000
0000
0000
0000
,
0000
0000
0000
0000
,
0002
0000
0000
0000
,
0010
0000
2003
0000
,
3020
0000
0000
0000
,
0100
0000
2030
0000
,
3200
0000
0000
0000
,
0320
0000
0032
0000
,
2003
0000
0000
0000
0000
0000
0000
3000
,
2000
0000
0000
0000
0000
0000
0000
3000
,
1001
0000
0000
1000
0001
0000
1000
0000
,
0000
0001
0010
0000
0001
0000
2000
0000
,
3010
0000
0000
0100
0010
0000
0100
0000
,
0000
0001
0100
0000
0010
0000
1000
0000
,
0100
0000
0010
0000
,
0001
0000
1000
0000
,
0020
0000
0000
0000
,
0030
0000
0100
0000
,
0000
0000
0001
0000
0000
1000
0000
0000
0001
0000
0000
0000
0000
0000
0000
0000
,
0000
0000
0000
0001
1000
0000
0000
0000
,
0000
0000
0100
0000
0000
0010
0000
0000
0100
0000
0000
0000
0000
0000
0000
0000
,
0000
0000
1000
0000
,
0000
0000
0001
0000
0000
0100
0000
0000
0001
0000
0000
0000
0000
0000
0000
0000
,
0000
0000
1000
0100
,
1000
0100
1000
0100
2000
0000
0000
0000
,
0000
0000
3002
0103
,
0100
0010
0100
0000
0002
0000
1003
0000
,
0100
1000
0100
0000
0020
0000
0130
0000
,
1000
0001
1000
0000
0020
0000
0130
0000
,
0001
1000
0001
0000
0020
0000
0130
0000
,
1000
0100
1000
0000
0002
0000
0103
0000
,
0010
0100
0010
0000
2000
0000
3001
0000
,
1000
0001
1000
0000
1001
0000
0000
0000
,
0001
0010
0001
0000
2000
0000
3010
0000
,
0010
0000
0010
1000
0200
0000
0310
0000
,
0010
0000
0010
0001
0200
0000
0310
0000
,
0010
0000
0010
1000
0002
0000
0013
0000
,
0100
1000
2000
3100
,
0100
0000
0100
0010
0002
0000
0103
0000
,
0100
0000
0100
0010
2000
0000
3100
0000
,
0100
0000
0100
0010
0002
0000
0203
0000
,
0320
2030
3002
0013
,
1000
0010
0001
0010
,
0001
0010
0001
0000
2000
0000
3010
0000
,
0001
0010
1000
0100
,
0010
0001
0010
0000
0002
0000
0103
0000
,
1000
0100
0001
1000
,
0001
1000
0001
0000
0020
0000
0230
0000
,
2300
3002
0103
0000
,
0000
0000
0120
0000
,
0000
0000
0000
0000
,
0030
0000
0000
0000
,
0000
0000
0000
0000
,
0000
0000
1001
1000
,
0001
0010
0100
1000
,
0001
0000
0100
0010
0100
0000
0001
0000
,
1000
0100
0010
0100
,
0010
0000
0001
1000
0001
0000
0100
0000
,
0010
0100
0001
1000
,
0100
0000
0010
0100
0020
0000
0000
0000
,
0000
0000
0030
0000
,
0001
0000
0000
0000
0000
0000
0000
0000
0000
0000
1000
0000
0000
0001
0000
0000
,
1000
0000
0000
0000
0000
0000
0000
0010
,
0100
0000
0000
0000
0000
0000
0000
0000
0000
0000
0001
0000
0000
0100
0000
0000
,
0001
0000
0000
0000
,
1000
0000
0000
0000
0000
0000
0000
0000
0000
0000
0100
0000
0000
0010
0000
0000
,
0100
0000
0000
0000
,
1000
0001
0000
0000
1000
0001
0000
0000
,
0200
0000
0000
0300
,
0002
1000
1000
1003
,
0200
0010
0010
1300
,
2000
3001
0100
0010
,
2000
0000
3100
0000
0010
0001
0010
0000
,
0200
1300
0001
1000
,
0020
0000
0130
0000
0001
1000
0001
0000
,
0020
0130
1000
0100
,
0010
0000
0000
0010
0000
0000
0010
0000
,
0001
1000
0001
0000
0010
0000
0010
0000
,
0100
1000
0100
0000
0010
0000
0010
0000
,
0001
1000
0001
0000
0100
0000
0100
0000
,
0010
1000
0010
0000
0100
0000
0100
0000
,
0001
0010
0001
0000
0010
0000
0010
0000
,
0100
1000
0100
0000
0100
0000
0100
0000
,
1000
0001
1000
0000
0010
0000
0010
0000
,
0110
0000
0000
0000
,
1001
0000
0000
0000
;

//---------------dance-single - ----------------
#NOTES:
     dance-single:
     :
     Beginner:
     1:
     0.088511,0.234922,0.118014,0.081135,0.000000,84.000000,68.000000,16.000000,11.000000,0.000000,0.000000,0.088511,0.234922,0.118014,0.081135,0.000000,84.000000,68.000000,16.000000,11.000000,0.000000,0.000000:
// measure 0
0000
0000
0000
0000
,  // measure 1
0000
0000
0000
0000
,  // measure 2
0000
0000
0000
0000
,  // measure 3
0000
0000
0000
0000
,  // measure 4
0000
0000
0000
0000
,  // measure 5
0000
0000
0000
0000
,  // measure 6
0000
0000
0000
0000
,  // measure 7
0000
0000
0000
0000
,  // measure 8
0002
0000
0000
0000
,  // measure 9
0000
0000
0000
0000
,  // measure 10
2003
0000
0000
0000
,  // measure 11
0000
0000
0000
0000
,  // measure 12
3002
0000
0000
0000
,  // measure 13
0000
0000
0000
0000
,  // measure 14
0203
0000
0000
0000
,  // measure 15
0000
0000
0000
0000
,  // measure 16
0302
0000
0000
0000
,  // measure 17
0000
0000
0000
0000
,  // measure 18
2003
0000
0000
0000
,  // measure 19
0000
0000
0000
0000
,  // measure 20
3001
0000
0000
0000
,  // measure 21
0001
0000
0000
0000
,  // measure 22
0000
0000
0000
0000
,  // measure 23
0000
0000
0110
0000
,  // measure 24
0000
0000
0000
0000
,  // measure 25
0000
0000
1001
0000
,  // measure 26
0000
0000
0000
0000
,  // measure 27
0000
0000
1100
0000
,  // measure 28
0000
0000
0000
0000
,  // measure 29
0000
0000
0011
0000
,  // measure 30
0000
0000
0000
0000
,  // measure 31
0000
0000
1000
0000
,  // measure 32
0000
0000
1000
0000
,  // measure 33
0000
0000
0001
0000
,  // measure 34
0000
0000
0001
0000
,  // measure 35
0000
0000
1000
0000
,  // measure 36
0000
0000
1000
0000
,  // measure 37
0000
0000
0001
0000
,  // measure 38
0000
0000
1001
0000
,  // measure 39
1001
0000
1001
0000
,  // measure 40
0000
0000
1000
0000
,  // measure 41
0000
0000
0001
0000
,  // measure 42
0000
0000
1000
0000
,  // measure 43
0000
0000
0001
0000
,  // measure 44
0000
0000
1000
0000
,  // measure 45
0000
0000
0001
0000
,  // measure 46
0000
0000
0100
0000
,  // measure 47
0000
0000
0010
0000
,  // measure 48
0000
0000
0010
0000
,  // measure 49
0000
0000
0100
0000
,  // measure 50
0000
0000
0100
0000
,  // measure 51
0000
0000
0001
0000
,  // measure 52
0000
0000
0001
0000
,  // measure 53
0000
0000
1000
0000
,  // measure 54
0000
0000
1000
0000
,  // measure 55
0000
0000
2002
0000
,  // measure 56
0000
0000
0000
0000
,  // measure 57
3003
0000
0000
0000
,  // measure 58
0000
0000
0000
0000
,  // measure 59
0000
0000
0001
0000
,  // measure 60
0000
0000
0000
0000
,  // measure 61
0000
0000
1000
0000
,  // measure 62
0000
0000
0000
0000
,  // measure 63
0000
0000
0100
0000
,  // measure 64
0000
0000
0000
0000
,  // measure 65
0000
0000
0200
0000
,  // measure 66
0000
0000
0300
0000
,  // measure 67
1001
0000
0000
0000
,  // measure 68
1001
0000
0000
0000
,  // measure 69
0110
0000
0000
0000
,  // measure 70
0110
0000
0000
0000
,  // measure 71
1001
0000
0000
0000
,  // measure 72
1001
0000
0000
0000
,  // measure 73
0010
0000
0010
0000
,  // measure 74
0010
0000
0000
0000
,  // measure 75
2002
0000
0000
0000
,  // measure 76
0000
0000
3003
0000
,  // measure 77
1000
0000
0000
0000
,  // measure 78
1000
0000
0000
0000
,  // measure 79
0001
0000
0000
0000
,  // measure 80
0001
0000
0000
0000
,  // measure 81
1000
0000
0000
0000
,  // measure 82
1000
0000
0000
0000
,  // measure 83
0001
0000
0000
0000
,  // measure 84
0100
0000
0000
0000
,  // measure 85
0010
0000
0000
0000
,  // measure 86
1000
0000
1000
0000
,  // measure 87
1000
0000
0000
0000
,  // measure 88
0100
0000
0000
0000
,  // measure 89
0010
0000
0000
0000
,  // measure 90
0001
0000
0000
0000
,  // measure 91
1001
0000
0000
0000
;
