#VERSION:0.83;
#TITLE:Pretty Please;
#SUBTITLE:;
#ARTIST:Dua Lipa;
#TITLETRANSLIT:;
#SUBTITLETRANSLIT:;
#ARTISTTRANSLIT:;
#GENRE:Electropop;
#ORIGIN:;
#CREDIT:;
#BANNER:Pretty_Please-bn.png;
#BACKGROUND:Pretty_Please-bg.png;
#PREVIEWVID:;
#JACKET:Pretty_Please-jacket.png;
#CDIMAGE:;
#DISCIMAGE:;
#LYRICSPATH:;
#CDTITLE:;
#MUSIC:Pretty Please.ogg;
#OFFSET:0.009000;
#SAMPLESTART:98.379997;
#SAMPLELENGTH:20.000000;
#SELECTABLE:YES;
#BPMS:0.000=107.000;
#STOPS:0.000=1.287;
#DELAYS:;
#WARPS:;
#TIMESIGNATURES:0.000=4=4;
#TICKCOUNTS:0.000=4;
#COMBOS:0.000=1;
#SPEEDS:0.000=1.000=0.000=0;
#SCROLLS:0.000=1.000,
60.000=0.800,
60.250=0.700,
60.500=0.600,
60.750=0.500,
64.000=1.000,
172.000=0.800,
172.250=0.700,
172.500=0.600,
172.750=0.500,
176.000=1.000,
239.000=0.500;
#FAKES:;
#LABELS:0.000=Song Start;
#BGCHANGES:;
#KEYSOUNDS:;
#ATTACKS:
;

//---------------dance-single - ----------------
#NOTEDATA:;
#CHARTNAME:;
#STEPSTYPE:dance-single;
#DESCRIPTION:;
#CHARTSTYLE:;
#DIFFICULTY:Challenge;
#METER:10;
#RADARVALUES:0.610331,0.614511,0.153628,0.453568,0.738877,584.000000,563.000000,21.000000,62.000000,51.000000,10.000000,9.000000,0.000000,0.000000,0.610331,0.614511,0.153628,0.453568,0.738877,584.000000,563.000000,21.000000,62.000000,51.000000,10.000000,9.000000,0.000000,0.000000;
#CREDIT:CopperPuppy;
#NOTES:
// measure 0
0000
0000
0000
0000
0000
0000
0002
0003
,  // measure 1
1000
0000
0000
0000
0000
0000
0000
0000
0000
0000
0000
0000
0000
0000
0000
0000
0000
0000
0000
0000
0000
0000
0000
0000
0000
0000
0000
0000
0000
0000
0000
0000
0000
0000
0000
0000
0000
0000
0000
0000
0001
0000
0000
0000
0000
0000
0000
0000
0100
0000
0000
0000
0000
0000
0000
0000
0000
0000
0000
0000
0000
0000
0000
0000
0010
0000
0000
0000
0000
0000
0000
0000
0000
0000
0000
0000
0000
0000
0000
0000
0000
0000
0000
0000
0000
0000
0000
0000
0000
0000
0000
0000
0000
0000
0000
0000
1000
0000
0000
0000
0000
0000
0000
0000
0000
0000
0000
0000
0000
0000
0000
0000
0000
0000
0000
0000
0000
0000
0000
0000
0001
0000
0000
0000
0000
0000
0000
0000
0000
0000
0000
0000
0000
0000
0000
0000
0000
0000
0000
0000
0000
0000
0000
0000
0010
0000
0000
0000
0000
0000
0000
0000
0000
0000
0000
0000
0000
0000
0000
0000
0000
0000
0000
0000
0000
0100
0000
0000
0000
0000
0000
0000
0000
0000
0000
0000
0000
0000
0000
0000
1000
0000
0000
0000
0000
0000
0000
0000
0000
0000
0000
0000
,  // measure 2
0002
0000
0000
0003
0000
0100
0000
0000
0100
0000
0000
0010
1000
0000
0000
0000
0000
0000
0002
0000
0000
0003
0000
0000
,  // measure 3
1000
0000
0000
0000
0000
0000
0000
0000
0000
0000
0100
0000
0010
0000
0000
0000
0100
0000
1000
0000
0000
0000
0001
0000
0100
0000
0000
0000
0000
0000
0001
0000
0000
0000
0000
0000
1000
0000
0000
0000
0000
0000
0100
0000
0000
0020
0000
0000
,  // measure 4
0000
0000
0030
0001
2000
0000
0000
3010
0200
0000
0000
0301
2000
0000
0000
3100
,  // measure 5
0020
0000
0000
0000
0000
0000
0030
0000
0000
0000
0001
0000
0000
0000
0000
0000
0001
0000
0000
0000
0000
0000
0100
0000
0010
0000
0000
0000
0000
0000
1000
0000
0000
0000
0000
0000
0001
0000
0000
0000
0000
0000
0010
0000
0000
0001
0000
0000
,  // measure 6
0000
0000
0000
2000
0000
0000
0000
0000
0000
0000
0000
0000
0000
0000
0000
0000
0000
0000
0000
0000
0000
0000
0000
0000
3000
0000
0000
0000
0000
0000
0000
0000
0000
0000
0000
0000
0000
0000
0000
0000
0001
0000
0000
0000
0000
0000
0000
0000
0000
0000
0000
0000
0000
0000
0000
0000
0000
0000
0000
0000
0000
0000
0000
0000
0001
0000
0000
0000
0000
0000
0000
0000
0000
0000
0000
0000
0000
0000
0000
0000
0000
0000
0000
0000
0000
0000
0000
0000
0100
0000
0000
0000
0000
0000
0000
0000
0010
0000
0000
0000
0000
0000
0000
0000
0000
0000
0000
0000
0000
0000
0000
0000
0000
0000
0000
0000
0000
0000
0000
0000
0000
0000
0000
0000
0000
0000
0000
0000
0000
0000
0000
0000
0000
0000
0000
0000
0000
0000
0000
0000
0000
0000
0000
0000
2000
0000
0000
0000
0000
0000
0000
0000
0000
0000
0000
0000
0000
0000
0000
0000
0000
0000
0000
0000
0000
0000
0000
0000
3000
0000
0000
0000
0000
0000
0000
0000
0000
0000
0000
0000
0000
0000
0000
0000
0000
0000
0000
0000
0000
0000
0000
0000
,  // measure 7
0001
0000
0000
0000
0000
1000
0001
0000
0010
0000
0000
0001
0100
0000
0000
0010
0000
0100
0001
0000
0000
0200
0000
0000
,  // measure 8
0310
1000
0001
0010
0100
1000
0001
0100
0010
0000
1000
0000
1010
0000
0010
1000
,  // measure 9
0001
0000
0010
0000
0011
0000
0001
1000
0010
0100
0001
0000
4000
0000
0000
3001
,  // measure 10
0010
0001
1000
0010
1000
0001
0100
0010
1000
0000
0001
0000
1001
0000
1000
0100
,  // measure 11
1000
0000
0001
0000
0101
0000
0000
0001
0010
0000
0001
0000
4000
0000
0000
0000
,  // measure 12
3001
1000
0100
0010
0100
1000
0001
0100
0010
0000
1000
0000
1010
0000
0001
1000
,  // measure 13
0100
0000
0010
0000
0011
0000
0001
1000
0010
0000
1000
0000
0004
0000
0000
0000
,  // measure 14
1003
0000
0001
0100
0010
0100
0001
1000
0200
0000
0310
0100
1000
0100
0010
0001
,  // measure 15
4000
0000
0000
0000
0000
0000
0000
0000
0000
0000
0000
0000
0000
0000
0000
0000
3000
0000
0001
0000
0000
0000
0000
0000
0000
0000
0100
0000
0000
0000
0000
0000
0000
0000
0000
0020
0000
0000
0000
0000
0000
0000
0000
0000
0000
0000
0000
0000
0000
0000
0000
0000
1030
0000
0000
0000
0000
0000
0000
0000
0000
0000
0000
0000
,  // measure 16
1001
0000
0000
0001
0000
0100
0010
0000
1000
0000
0000
0001
1000
0000
0000
0200
0000
0000
0311
0000
0000
0100
0000
0000
,  // measure 17
1000
0000
0000
0001
0000
0100
0010
0000
0100
0000
0000
0001
0200
0000
0000
M0MM
0000
0000
2300
0000
0000
0000
0000
0000
,  // measure 18
3001
0000
0000
1000
0000
0001
0100
0000
0010
0000
0000
1000
0100
0000
0000
0010
0000
0000
0011
0000
0000
1000
0000
0000
,  // measure 19
0001
0000
0000
0100
0000
0010
0100
0000
0000
0001
0000
0000
0040
0000
0000
0000
0000
0000
0230
0000
0000
M0MM
0000
0000
,  // measure 20
0301
0000
0000
1000
0000
0100
1000
0000
0001
0000
0000
0100
0010
0000
0000
0200
0000
0000
1310
0000
0000
0100
0000
0000
,  // measure 21
0001
0000
0000
1000
0000
0001
0100
0000
0010
0000
0000
1000
0200
0000
0000
M0MM
0000
0000
0302
0000
0000
0000
0000
0000
,  // measure 22
1003
0000
0000
0010
0000
1000
0001
0000
0100
0000
0000
0001
0010
0000
0000
0100
0000
0000
0001
0000
0001
0000
0000
0000
,  // measure 23
0100
0000
0000
1000
0000
0001
1000
0000
0000
0100
0000
0000
0040
0000
0000
0000
0000
0000
0031
0100
0001
1000
0100
1000
,  // measure 24
0001
0000
0000
0000
0000
0000
0000
0000
0100
0000
0000
0000
0000
0000
0000
0000
0010
0000
0000
0000
0000
0000
0000
0000
1000
0000
0000
0000
0000
0000
0000
0000
0001
0000
0000
0000
0000
0000
0000
0000
0010
0000
0000
0000
0000
0000
0000
0000
0001
0000
0000
0000
0000
0000
0000
0000
0000
0000
0000
0000
1000
0000
0000
0000
0000
0000
0000
0000
0000
0000
0000
0000
0100
0000
0000
0000
0000
0000
00M0
0000
0000
0000
0000
0000
0100
0000
0000
0000
0000
0000
0000
0000
0000
0000
0000
0000
0001
0000
0000
0000
0000
0000
0000
0000
0000
0000
0000
0000
0000
0000
0000
0000
0000
0000
0000
0000
0000
0000
0000
0000
0200
0000
0000
0000
0000
0000
0000
0000
0000
0000
0000
0000
0000
0000
0000
0000
0000
0000
0000
0000
0000
0000
0000
0000
1310
0000
0000
0000
0000
0000
0000
0000
0000
0000
0000
0000
0000
0000
0000
0000
0000
0000
0000
0000
0000
0000
0000
0000
0100
0000
0000
0000
0000
0000
0000
0000
0000
0000
0000
0000
0000
0000
0000
0000
0000
0000
0000
0000
0000
0000
0000
0000
,  // measure 25
0001
0000
0000
0000
0010
0M00
0010
0000
1000
0000
0000
0000
0100
0000
0000
0000
0020
0000
0000
0000
MM0M
0000
0000
0000
2030
0000
0000
0000
0000
0000
0000
0000
,  // measure 26
3001
0000
0000
0000
0000
0000
0000
0000
0000
0000
0000
0000
0000
0000
0000
0000
0000
0000
0000
0000
0000
0000
0000
0000
0100
0000
0000
0000
0000
0000
0000
0000
0000
0000
0000
0000
0000
0000
0000
0000
0010
0000
0000
0000
0000
0000
0000
0000
1000
0000
0000
0000
0000
0000
0000
0000
0000
0000
0000
0000
0001
0000
0000
0000
0000
0000
0000
0000
0000
0000
0000
0000
0100
0000
0000
0000
0000
0000
00M0
0000
0000
0000
0000
0000
0100
0000
0000
0000
0000
0000
0000
0000
0000
0000
0000
0000
1000
0000
0000
0000
0000
0000
0000
0000
0000
0000
0000
0000
0000
0000
0000
0000
0000
0000
0000
0000
0000
0000
0000
0000
0001
0000
0000
0000
0000
0000
0000
0000
0000
0000
0000
0000
0000
0000
0000
0000
0000
0000
0000
0000
0000
0000
0000
0000
0012
0000
0000
0000
0000
0000
0000
0000
0000
0000
0000
0000
0000
0000
0000
0000
0000
0000
0000
0000
0000
0000
0000
0000
0000
0000
0000
0000
0000
0000
0000
0000
0000
0000
0000
0000
0000
0000
0000
0000
0000
0000
0000
0000
0000
0000
0000
0000
,  // measure 27
1003
0000
0000
0100
0000
0010
0100
0000
0000
1000
0000
0000
0004
0000
0000
0000
0000
0000
0023
0000
0000
MM0M
0000
0000
,  // measure 28
1030
0000
0000
0000
0000
0000
0000
0000
0000
0000
0000
0000
0000
0000
0000
0000
0000
0000
0000
0000
0000
0000
0000
0000
0100
0000
0000
0000
0000
0000
0000
0000
0000
0000
0000
0000
0000
0000
0000
0000
1000
0000
0000
0000
0000
0000
0000
0000
0001
0000
0000
0000
0000
0000
0000
0000
0000
0000
0000
0000
1000
0000
0000
0000
0000
0000
0000
0000
0000
0000
0000
0000
0100
0000
0000
0000
0000
0000
00M0
0000
0000
0000
0000
0000
0100
0000
0000
0000
0000
0000
0000
0000
0000
0000
0000
0000
0001
0000
0000
0000
0000
0000
0000
0000
0000
0000
0000
0000
0000
0000
0000
0000
0000
0000
0000
0000
0000
0000
0000
0000
0200
0000
0000
0000
0000
0000
0000
0000
0000
0000
0000
0000
0000
0000
0000
0000
0000
0000
0000
0000
0000
0000
0000
0000
1310
0000
0000
0000
0000
0000
0000
0000
0000
0000
0000
0000
0000
0000
0000
0000
0000
0000
0000
0000
0000
0000
0000
0000
0100
0000
0000
0000
0000
0000
0000
0000
0000
0000
0000
0000
0000
0000
0000
0000
0000
0000
0000
0000
0000
0000
0000
0000
,  // measure 29
0001
0000
0000
0000
0010
0M00
0010
0000
1000
0000
0000
0000
0001
0000
0000
0000
0200
0000
0000
0000
M0MM
0000
0000
0000
2300
0000
0000
0000
0000
0000
0000
0000
,  // measure 30
3001
0000
0000
0000
0000
0000
0000
0000
0000
0000
0000
0000
0000
0000
0000
0000
0000
0000
0000
0000
0000
0000
0000
0000
0010
0000
0000
0000
0000
0000
0000
0000
0000
0000
0000
0000
0000
0000
0000
0000
0001
0000
0000
0000
0000
0000
0000
0000
1000
0000
0000
0000
0000
0000
0000
0000
0000
0000
0000
0000
0000
0000
0000
0000
0000
0000
0000
0000
0000
0000
0000
0000
0100
0000
0000
0000
0000
0000
00M0
0000
0000
0000
0000
0000
0100
0000
0000
0000
0000
0000
0000
0000
0000
0000
0000
0000
0001
0000
0000
0000
0000
0000
0000
0000
0000
0000
0000
0000
0000
0000
0000
0000
0000
0000
0000
0000
0000
0000
0000
0000
0100
0000
0000
0000
0000
0000
0000
0000
0000
0000
0000
0000
0000
0000
0000
0000
0000
0000
0000
0000
0000
0000
0000
0000
1000
0000
0000
0000
0000
0000
0000
0000
0000
0000
0000
0000
0000
0000
0000
0000
1000
0000
0000
0000
0000
0000
0000
0000
0000
0000
0000
0000
0000
0000
0000
0000
0000
0000
0000
0000
0000
0000
0000
0000
0000
0000
0000
0000
0000
0000
0000
0000
,  // measure 31
0100
0000
0000
0001
0000
1000
0100
0000
0000
0010
0000
0000
0200
0000
0000
M0MM
0000
0000
0301
0000
0000
0000
0000
0000
,  // measure 32
1000
0000
0000
0000
0000
0000
0001
0000
0000
0000
0100
0000
0010
0000
0000
000M
0000
0000
0010
0000
0000
0000
0001
0000
1000
0000
0000
0000
0000
0000
0200
0000
0000
0000
0000
0000
0311
0000
0000
0000
0000
0000
0100
0000
0000
0000
1000
0000
,  // measure 33
0001
0000
0000
0100
0000
0010
0100
0000
0000
0001
0000
0000
0002
0000
0000
0100
0000
0000
2003
0000
0000
0100
0000
3001
,  // measure 34
0000
0000
0000
0000
0100
0000
0000
0000
0000
0000
1000
00M0
1000
0000
0000
0000
0000
0000
0001
0000
0000
0000
0000
0000
0010
0000
0000
0000
0000
0000
0100
0000
0000
0000
0000
0000
0001
0000
0000
0000
0001
0000
0000
0000
0000
0000
1000
0000
,  // measure 35
0000
0000
0000
0010
0000
0000
0001
0000
0100
0010
0000
0000
2000
0000
0000
0100
0000
0000
3002
0000
0000
0100
0000
0000
,  // measure 36
1003
0000
0000
0000
0000
0000
0010
0000
0000
0000
1000
0000
0100
0000
0000
00M0
0000
0000
0100
0000
0000
0000
0001
0000
1000
0000
0000
0000
0000
0000
0200
0000
0000
0000
0000
0000
0311
0000
0000
0000
0000
0000
0100
0000
0000
0000
1000
0000
,  // measure 37
0001
0000
0000
1000
0000
0010
0100
0000
0000
0001
0000
0000
2000
0000
0000
0010
0000
0000
3002
0000
0000
0010
0000
1003
,  // measure 38
0000
0000
0000
0000
0100
0000
0000
0000
0000
0000
0001
00M0
0001
0000
0000
0000
0000
0000
1000
0000
0000
0000
0000
0000
0010
0000
0000
0000
0000
0000
0100
0000
0000
0000
0000
0000
1000
0000
0000
0000
1000
0000
0000
0000
0000
0000
0001
0000
,  // measure 39
0000
0000
0000
0010
0000
0000
1000
0000
0001
0010
0000
0000
0002
0000
0000
0100
0000
0000
2003
0000
0000
0100
0000
0000
,  // measure 40
3001
0100
0010
0100
0001
1000
0100
0010
0001
0000
1000
0000
0010
0000
0100
0001
,  // measure 41
1000
0000
0100
0000
0010
0000
0001
1000
0010
0000
1000
0000
0200
0000
0300
0000
,  // measure 42
0020
0000
0031
1000
0010
0100
0010
1000
0001
0000
0010
0100
0010
0001
1000
0010
,  // measure 43
0400
0000
0000
0000
0000
0000
0000
0000
0000
0000
0000
0000
0000
0000
0000
0000
0000
0000
0301
0000
0000
0000
0000
0000
0000
0000
1000
0000
0000
0000
0000
0000
0000
0000
0000
0200
0000
0000
0000
0000
0000
0000
0000
0000
0000
0000
0000
0000
0000
0000
0000
0000
0310
0000
0000
0000
0000
0000
0000
0000
0000
0000
0000
0000
,  // measure 44
0001
0000
0000
0000
0000
0000
0000
0000
0000
0000
0000
0000
0000
0000
0000
0000
1000
0000
0000
0000
0000
0000
0000
0000
0010
0000
0000
0000
0000
0000
0000
0000
0000
0000
0000
0000
0000
0000
0000
0000
0010
0000
0000
0000
0000
0000
0000
0000
0100
0000
0000
0000
0000
0000
0000
0000
0000
0000
0000
0000
0001
0000
0000
0000
0000
0000
0000
0000
0000
0000
0000
0000
0100
0000
0000
0000
0000
0000
00M0
0000
0000
0000
0000
0000
0100
0000
0000
0000
0000
0000
0000
0000
0000
0000
0000
0000
1000
0000
0000
0000
0000
0000
0000
0000
0000
0000
0000
0000
0000
0000
0000
0000
0000
0000
0000
0000
0000
0000
0000
0000
0200
0000
0000
0000
0000
0000
0000
0000
0000
0000
0000
0000
0000
0000
0000
0000
0000
0000
0000
0000
0000
0000
0000
0000
0311
0000
0000
0000
0000
0000
0000
0000
0000
0000
0000
0000
0000
0000
0000
0000
0000
0000
0000
0000
0000
0000
0000
0000
0100
0000
0000
0000
0000
0000
0000
0000
0000
0000
0000
0000
0000
0000
0000
0000
1000
0000
0000
0000
0000
0000
0000
0000
,  // measure 45
0001
0000
0000
0000
0010
0M00
0010
0000
1000
0000
0000
0000
0001
0000
0000
0000
0200
0000
0000
0000
M0MM
0000
0000
0000
2300
0000
0000
0000
0000
0000
0000
0000
,  // measure 46
3001
0000
0000
0000
0000
0000
0000
0000
0000
0000
0000
0000
0000
0000
0000
0000
0010
0000
0000
0000
0000
0000
0000
0000
0100
0000
0000
0000
0000
0000
0000
0000
0000
0000
0000
0000
0000
0000
0000
0000
0100
0000
0000
0000
0000
0000
0000
0000
1000
0000
0000
0000
0000
0000
0000
0000
0000
0000
0000
0000
0001
0000
0000
0000
0000
0000
0000
0000
0000
0000
0000
0000
0100
0000
0000
0000
0000
0000
00M0
0000
0000
0000
0000
0000
0100
0000
0000
0000
0000
0000
0000
0000
0000
0000
0000
0000
1000
0000
0000
0000
0000
0000
0000
0000
0000
0000
0000
0000
0000
0000
0000
0000
0000
0000
0000
0000
0000
0000
0000
0000
0001
0000
0000
0000
0000
0000
0000
0000
0000
0000
0000
0000
0000
0000
0000
0000
0000
0000
0000
0000
0000
0000
0000
0000
1002
0000
0000
0000
0000
0000
0000
0000
0000
0000
0000
0000
0000
0000
0000
0000
0000
0000
0000
0000
0000
0000
0000
0000
0000
0000
0000
0000
0000
0000
0000
0000
0000
0000
0000
0000
0000
0000
0000
0000
0000
0000
0000
0000
0000
0000
0000
0000
,  // measure 47
1003
0000
0000
0100
0000
0010
0100
0000
0000
1000
0000
0000
0004
0000
0000
0000
0000
0000
0023
0000
0000
MM0M
0000
0000
,  // measure 48
1030
0000
0000
0000
0000
0000
0000
0000
0000
0000
0000
0000
0000
0000
0000
0000
0001
0000
0000
0000
0000
0000
0000
0000
0100
0000
0000
0000
0000
0000
0000
0000
0000
0000
0000
0000
0000
0000
0000
0000
0100
0000
0000
0000
0000
0000
0000
0000
0010
0000
0000
0000
0000
0000
0000
0000
0000
0000
0000
0000
1000
0000
0000
0000
0000
0000
0000
0000
0000
0000
0000
0000
0010
0000
0000
0000
0000
0000
0M00
0000
0000
0000
0000
0000
0010
0000
0000
0000
0000
0000
0000
0000
0000
0000
0000
0000
0001
0000
0000
0000
0000
0000
0000
0000
0000
0000
0000
0000
0000
0000
0000
0000
0000
0000
0000
0000
0000
0000
0000
0000
0200
0000
0000
0000
0000
0000
0000
0000
0000
0000
0000
0000
0000
0000
0000
0000
0000
0000
0000
0000
0000
0000
0000
0000
1310
0000
0000
0000
0000
0000
0000
0000
0000
0000
0000
0000
0000
0000
0000
0000
0000
0000
0000
0000
0000
0000
0000
0000
0100
0000
0000
0000
0000
0000
0000
0000
0000
0000
0000
0000
0000
0000
0000
0000
0001
0000
0000
0000
0000
0000
0000
0000
,  // measure 49
1000
0000
0000
0000
0100
00M0
0100
0000
0001
0000
0000
0000
1000
0000
0000
0000
0200
0000
0000
0000
M0MM
0000
0000
0000
0302
0000
0000
0000
0000
0000
0000
0000
,  // measure 50
1003
0000
0000
0000
0000
0000
0000
0000
0000
0000
0000
0000
0000
0000
0000
0000
0001
0000
0000
0000
0000
0000
0000
0000
0010
0000
0000
0000
0000
0000
0000
0000
0000
0000
0000
0000
0000
0000
0000
0000
0010
0000
0000
0000
0000
0000
0000
0000
0100
0000
0000
0000
0000
0000
0000
0000
0000
0000
0000
0000
1000
0000
0000
0000
0000
0000
0000
0000
0000
0000
0000
0000
0010
0000
0000
0000
0000
0000
0M00
0000
0000
0000
0000
0000
0010
0000
0000
0000
0000
0000
0000
0000
0000
0000
0000
0000
0001
0000
0000
0000
0000
0000
0000
0000
0000
0000
0000
0000
0000
0000
0000
0000
0000
0000
0000
0000
0000
0000
0000
0000
0100
0000
0000
0000
0000
0000
0000
0000
0000
0000
0000
0000
0000
0000
0000
0000
0000
0000
0000
0000
0000
0000
0000
0000
1000
0000
0000
0000
0000
0000
0000
0000
0000
0000
0000
0000
0000
0000
0000
0000
1000
0000
0000
0000
0000
0000
0000
0000
0000
0000
0000
0000
0000
0000
0000
0000
0000
0000
0000
0000
0000
0000
0000
0000
0000
0000
0000
0000
0000
0000
0000
0000
,  // measure 51
0100
0000
0000
0001
0000
1000
0100
0000
0000
1000
0000
0000
0020
0000
0000
MM0M
0000
0000
0032
0000
0000
0000
0000
0000
,  // measure 52
1003
0000
0100
0010
0000
0010
0001
0000
1000
0010
0000
0000
1000
0000
0000
0200
0000
0000
0311
0000
0000
0100
0000
1000
,  // measure 53
0001
0000
0000
0100
0000
0010
0100
0000
0001
1000
0000
0000
0002
0000
0000
0010
0000
0000
2003
0000
0000
0010
0000
3001
,  // measure 54
0000
0000
0000
0000
0100
0000
0000
0000
0000
0000
1000
00M0
1000
0000
0000
0000
0000
0000
0001
0000
0000
0000
0000
0000
0010
0000
0000
0000
0000
0000
0001
0000
0000
0000
0000
0000
1001
0000
0000
0000
0000
0000
1000
0000
0000
0000
0000
0000
,  // measure 55
0001
0000
0000
0010
0000
0100
0010
0000
0001
1000
0000
0000
0002
0000
0000
0100
0000
0000
2003
0000
0000
0100
0000
0000
,  // measure 56
3001
0000
0010
0100
0000
0100
1000
0000
0001
0010
0000
0000
0001
0000
0000
0200
0000
0000
1310
0000
0000
0100
0000
0001
,  // measure 57
1000
0000
0000
0100
0000
0010
0001
0000
1000
0010
0000
0000
2000
0000
0000
0010
0000
0000
3002
0000
0000
0010
0000
1003
,  // measure 58
0000
0000
0000
0000
0100
0000
0000
0000
0000
0000
0001
00M0
0001
0000
0000
0000
0000
0000
1000
0000
0000
0000
0000
0000
0010
0000
0000
0000
0000
0000
0100
0000
0000
0000
0000
0000
1000
0000
0000
0000
1000
0000
0000
0000
0000
0000
0000
0000
,  // measure 59
0100
0000
0000
0001
0000
1000
0001
0000
0010
0000
0000
0100
2000
0000
0000
0000
0000
0000
3002
0000
0000
0000
0000
0000
,  // measure 60
0003
0000
0000
0000
;

//---------------dance-single - ----------------
#NOTEDATA:;
#CHARTNAME:;
#STEPSTYPE:dance-single;
#DESCRIPTION:;
#CHARTSTYLE:;
#DIFFICULTY:Hard;
#METER:8;
#RADARVALUES:0.439982,0.460883,0.146312,0.460883,0.256046,421.000000,401.000000,20.000000,63.000000,0.000000,0.000000,2.000000,0.000000,0.000000,0.439982,0.460883,0.146312,0.460883,0.256046,421.000000,401.000000,20.000000,63.000000,0.000000,0.000000,2.000000,0.000000,0.000000;
#CREDIT:CopperPuppy;
#NOTES:
0000
0000
0000
0000
0000
0000
0002
0003
,
1000
0000
0000
0000
0000
0000
0000
0000
0000
0000
0000
0000
0000
0000
0000
0000
0010
0000
0000
0000
0000
0000
0000
0000
0000
0000
0000
0000
0000
0000
0000
0000
0100
0000
0000
0000
0000
0000
0000
0000
0001
0000
0000
0000
0000
0000
0000
0000
0010
0000
0000
0000
0000
0000
0000
0100
0000
0000
0000
0000
1000
0000
0000
0000
,
0002
0000
0000
0003
0000
0100
0000
0000
0100
0000
0000
0000
0010
0000
0000
0000
0000
0000
2000
0000
0000
3000
0000
0000
,
0001
0000
0000
0000
0010
0000
0100
0000
0010
0000
0001
0000
1000
0000
0100
0020
,
0000
0000
0030
0001
2000
0000
0000
3010
0200
0000
0000
0301
2000
0000
0000
3100
,
0020
0000
0000
0000
0000
0000
0030
0000
0000
0000
0001
0000
0000
0000
0000
0000
0001
0000
0000
0000
0000
0000
0000
0000
0100
0000
0000
0000
0000
0000
0010
0000
0000
0000
0000
0000
0100
0000
0000
0000
0000
0000
0001
0000
0000
1000
0000
0000
,
0000
0000
0000
0200
0000
0000
0000
0000
0000
0000
0000
0000
0000
0000
0000
0000
0000
0000
0000
0000
0000
0000
0000
0000
0300
0000
0000
0000
0000
0000
0000
0000
0000
0000
0000
0000
0000
0000
0000
0000
0010
0000
0000
0000
0000
0000
0000
0000
0000
0000
0000
0000
0000
0000
0000
0000
0000
0000
0000
0000
0000
0000
0000
0000
0010
0000
0000
0000
0000
0000
0000
0000
0000
0000
0000
0000
0000
0000
0000
0000
0000
0000
0000
0000
0000
0000
0000
0000
0000
0000
0000
0000
0000
0000
0000
0000
0100
0000
0000
0000
0000
0000
0000
0000
0000
0000
0000
0000
0000
0000
0000
0000
0000
0000
0000
0000
0000
0000
0000
0000
0000
0000
0000
0000
0000
0000
0000
0000
0000
0000
0000
0000
0000
0000
0000
0000
0000
0000
0000
0000
0000
0000
0000
0000
2000
0000
0000
0000
0000
0000
0000
0000
0000
0000
0000
0000
0000
0000
0000
0000
0000
0000
0000
0000
0000
0000
0000
0000
3000
0000
0000
0000
0000
0000
0000
0000
0000
0000
0000
0000
0000
0000
0000
0000
0000
0000
0000
0000
0000
0000
0000
0000
,
0001
0000
0100
0010
1000
0001
0010
0200
,
1300
0001
1000
0000
0010
0000
0100
0000
0001
0000
1000
0000
1001
0000
0001
0000
,
0010
0000
0100
0000
1100
0000
1000
0001
0100
0000
0010
0000
2000
0000
0000
3001
,
0010
0001
1000
0010
0100
0001
1001
1000
,
0100
0000
0010
0000
0011
0000
0000
0001
1000
0000
0001
0000
0200
0000
0000
0000
,
0310
0100
0001
0000
1000
0000
0100
0000
1000
0000
0001
0000
1001
0000
0001
0000
,
0100
0010
1010
1000
0001
1000
0200
0000
,
0310
0000
0001
1000
0001
0000
0100
0000
0020
0000
1030
0000
0001
0000
0010
0000
,
0002
0000
0000
0000
0000
0000
0000
0000
0000
0000
0000
0000
0000
0000
0000
0000
0003
0000
1000
0000
0000
0000
0000
0000
0000
0000
0010
0000
0000
0000
0000
0000
0000
0000
0000
0200
0000
0000
0000
0000
0000
0000
0000
0000
0000
0000
0000
0000
0000
0000
0000
0000
0301
0000
0000
0000
0000
0000
0000
0000
0000
0000
0000
0000
,
1001
0000
0000
0000
0000
0001
0000
0000
0010
0000
0000
0000
0100
0000
0000
0000
0000
0000
1100
0000
0000
0000
0000
0000
,
1000
0000
0000
0000
0000
0001
0000
0000
0100
0000
0000
0000
0020
0000
0000
0000
0000
0000
2030
0000
0000
0000
0000
0000
,
3001
0000
0000
0000
0000
0100
0000
0000
0001
0000
0000
0000
1000
0000
0000
0000
0000
0000
1100
0000
0000
0000
0000
0000
,
1000
0000
0000
0000
0000
0001
0000
0000
0000
0100
0000
0000
0020
0000
0000
0000
0000
0000
2030
0000
0000
0000
0000
0000
,
3001
0000
0000
0000
0000
1000
0000
0000
0100
0000
0000
0000
0010
0000
0000
0000
0000
0000
0110
0000
0000
0000
0000
0000
,
0100
0000
0000
0000
0000
1000
0000
0000
0001
0000
0000
0000
0200
0000
0000
0000
0000
0000
0320
0000
0000
0000
0000
0000
,
1030
0000
0000
0000
0000
0001
0000
0000
0010
0000
0000
0000
0001
0000
0000
0000
0000
0000
0100
0000
0100
0000
0000
0000
,
0010
0000
1000
0100
0020
0000
0034
0000
,
4003
0000
3001
0100
0010
1000
1010
0000
,
1000
0100
0010
0001
2000
0000
3020
0000
,
0130
0000
0010
1000
0001
0010
0012
0000
,
1003
0000
0000
0000
0000
0010
0000
0000
0000
0100
0000
0000
0002
0000
0000
0000
0000
0000
2003
0000
0000
0000
0000
0000
,
3100
0000
0010
0100
1000
0001
1001
0000
,
0001
0100
0010
1000
0200
0000
0320
0000
,
0031
0000
0000
0000
0000
0000
1000
0000
0000
0010
0000
0000
1000
0000
0000
0001
0000
0000
0010
0000
0010
0000
0000
0000
,
0100
0010
0001
1000
0002
0000
0203
0000
,
0310
0000
0000
1000
0000
0001
0000
0000
0000
1000
0000
0100
0000
0000
0000
1000
0000
0000
1001
0000
0000
0000
0000
0000
,
0001
0000
0000
0100
0000
0000
0010
0000
0000
1000
0000
0000
0002
0000
0000
0013
0000
0000
0002
0000
0000
1003
0000
0001
,
0000
0000
0010
0000
0000
0000
0100
0000
0000
1000
0000
0000
0010
0000
0000
0100
0000
0000
0001
0000
0001
0000
0000
1000
,
0000
0100
0010
0100
2000
3001
2000
3010
,
0100
0000
0000
0001
0000
1000
0000
0000
0000
0010
0000
1000
0000
0000
0000
0001
0000
0000
0011
0000
0000
0000
0000
0000
,
0001
0000
0000
1000
0000
0000
0100
0000
0000
1000
0000
0000
0002
0000
0000
0103
0000
0000
0002
0000
0000
1003
0000
0001
,
0000
0000
0100
0000
0000
0000
0010
0000
0000
1000
0000
0000
0001
0000
0000
0010
0000
0000
0100
0000
0100
0000
0000
0010
,
0000
0001
1000
0010
0200
0301
0200
0310
,
1000
0001
0010
0100
1000
0001
0000
1000
,
0010
0100
0000
0001
0010
0001
2000
3000
,
0000
0001
0100
0010
1000
0100
0010
0100
,
2000
0000
0000
0000
0000
0000
0000
0000
0000
0000
0000
0000
0000
0000
0000
0000
3000
0000
0001
0000
0000
0000
0000
0000
0000
0000
1000
0000
0000
0000
0000
0000
0000
0000
0000
0020
0000
0000
0000
0000
0000
0000
0000
0000
0000
0000
0000
0000
0000
0000
0000
0000
0130
0000
0000
0000
0000
0000
0000
0000
0000
0000
0000
0000
,
0001
0000
1000
0000
0100
0000
1000
0001
1000
0000
0010
0000
0110
0000
0000
0000
,
0010
1000
0001
0010
0200
0000
2300
0000
,
3001
0000
0100
0000
0001
0000
1000
0010
0100
0000
0001
0000
1001
0000
0000
0000
,
2000
0000
0000
0000
0000
3200
0000
0000
0000
0320
0000
0000
0032
0000
0000
0000
0000
0000
2003
0000
0000
0000
0000
0000
,
3001
0000
0100
0000
0010
0000
0100
0001
1000
0000
0100
0000
1100
0000
0000
0000
,
1000
0001
0100
0001
2000
0000
3020
0000
,
0130
0000
0000
0000
0000
0000
0001
0000
0000
0000
0000
0000
1000
0000
0000
0000
0000
0000
0100
0000
0000
0010
0000
0000
0001
0000
0000
0000
0000
0000
1000
0000
0000
0000
0000
0000
0010
0000
0000
0000
0010
0000
0000
0000
0000
0000
0000
0000
,
1000
0001
0010
0100
2000
0000
3002
0000
,
1003
0010
0100
0001
1000
0100
1100
0000
,
1000
0000
0000
0001
0000
0000
0100
0000
0000
0010
0000
0000
2000
0000
0000
3001
0000
0000
2000
0000
0000
3100
0000
1000
,
0000
0000
0001
0000
0000
0000
0100
0000
0000
0010
0000
0000
1000
0000
0000
0100
0000
0000
0010
0000
0000
0000
0000
0000
,
0100
1000
0001
0100
0002
0013
0002
1003
,
0001
0100
0010
1000
0001
0010
0011
0000
,
0001
0000
0000
1000
0000
0000
0010
0000
0000
1000
0000
0000
0200
0000
0000
0310
0000
0000
0200
0000
0000
1300
0000
0001
,
0000
0000
0100
0000
0000
0000
0001
0000
0000
1000
0000
0000
0010
0000
0000
0100
0000
0000
0001
0000
0001
0000
0000
0000
,
1000
0000
0000
0000
0000
0100
0000
0000
0010
0000
0000
0000
0002
0000
0000
0000
0000
0000
2003
0000
0000
0000
0000
0000
,
3000
0000
0000
0000
;

//---------------dance-single - ----------------
#NOTEDATA:;
#CHARTNAME:;
#STEPSTYPE:dance-single;
#DESCRIPTION:;
#CHARTSTYLE:;
#DIFFICULTY:Medium;
#METER:5;
#RADARVALUES:0.280083,0.263362,0.073156,0.285309,0.000000,268.000000,258.000000,10.000000,39.000000,0.000000,0.000000,0.000000,0.000000,0.000000,0.280083,0.263362,0.073156,0.285309,0.000000,268.000000,258.000000,10.000000,39.000000,0.000000,0.000000,0.000000,0.000000,0.000000;
#CREDIT:CopperPuppy;
#NOTES:
0000
0000
0000
0001
,
1000
0000
0010
0000
0100
0001
1000
0100
,
0010
0001
1000
0010
,
0100
0000
0001
0000
1000
0100
1000
0001
,
0200
0320
2030
3002
,
0013
0000
0000
0000
0001
1000
0010
0100
,
0001
1000
0100
0010
,
0100
1000
0002
0203
,
0310
1000
0001
0000
0010
0000
0100
0000
,
1000
0001
0100
0000
0010
0000
0100
0000
,
0001
1000
0100
0000
1000
0000
0001
0000
,
0100
0010
0100
0000
0001
0000
1000
0000
,
0001
0010
0100
0000
1000
0000
0001
0000
,
0100
0010
1000
0002
,
1003
0100
1000
0001
0100
0000
0010
0000
,
2000
3000
0000
0000
,
0001
0010
0001
1001
,
1000
0010
0200
0301
,
1000
0100
0010
0100
,
1000
0001
0100
0020
,
1030
0001
0010
0011
,
0001
1000
0020
1030
,
0001
0000
0100
0000
0010
0000
1000
1000
,
0001
0010
0100
2000
,
3001
0100
0010
0110
,
0100
0001
2000
3100
,
0010
0001
1000
0010
,
0100
0010
1000
0002
,
0013
0100
1000
1001
,
0001
0100
0002
1003
,
0100
0000
0010
0000
0001
0000
1000
1000
,
0001
0100
0010
2000
,
3001
0010
0001
1001
,
1000
0010
0200
0320
,
1030
0000
0001
1000
0001
0010
0100
0100
,
0010
0001
2000
3020
,
0130
0001
1000
1100
,
1000
0001
0200
0320
,
0130
0000
0001
1000
0100
1000
0001
0001
,
0100
0010
2000
3002
,
1003
0000
0001
0000
,
0100
0000
0010
1000
,
0001
0000
1000
0000
,
0200
0300
0000
0000
,
1000
0001
0100
0000
0010
0000
1010
0000
,
1000
0000
0001
0010
0200
0000
2300
0000
,
3001
0100
0010
0000
1000
0000
0001
0000
,
0010
0000
0001
1000
0020
0000
0230
0000
,
0301
1000
0100
0000
0010
0000
0011
0000
,
0001
0000
1000
0010
0200
0000
0302
0000
,
1003
0100
0010
0000
0001
0000
1000
1000
,
0010
0100
0010
2000
,
3001
0010
0100
0000
1000
0000
1001
0000
,
0001
0100
0020
2030
,
3001
0000
0010
0100
1000
0000
0001
0000
,
0100
0001
2000
3200
,
0310
0100
1000
0000
0001
0000
0101
0000
,
0001
1000
0200
0320
,
0031
0000
1000
0010
0100
0000
0001
0001
,
1000
0000
0001
2000
,
3000
0000
0000
0000
;

//---------------dance-single - ----------------
#NOTEDATA:;
#CHARTNAME:;
#STEPSTYPE:dance-single;
#DESCRIPTION:;
#CHARTSTYLE:;
#DIFFICULTY:Easy;
#METER:3;
#RADARVALUES:0.128546,0.131132,0.000000,0.000000,0.000000,123.000000,123.000000,0.000000,0.000000,0.000000,0.000000,0.000000,0.000000,0.000000,0.128546,0.131132,0.000000,0.000000,0.000000,123.000000,123.000000,0.000000,0.000000,0.000000,0.000000,0.000000,0.000000,0.000000;
#CREDIT:CopperPuppy;
#NOTES:
0000
0000
0000
0001
,
0000
0000
1000
0000
,
0001
0000
0100
0000
,
0010
0000
1000
0000
,
0001
0000
0010
0000
,
0100
0000
1000
0000
,
0001
0000
0100
0000
,
0010
0000
0100
0000
,
0001
0000
1000
0000
,
0100
0000
0010
0000
,
0001
0000
1000
0000
,
0010
0000
0100
0000
,
0010
0000
1000
0000
,
0001
0000
0010
0000
,
0100
0000
1000
0000
,
0001
0000
0000
0000
,
1000
0000
0001
0000
,
0100
0000
0010
1000
,
0001
0000
0010
0000
,
0100
0000
0010
0000
,
0001
0000
1000
0000
,
0010
0000
0100
0001
,
1000
0000
0100
0000
,
0010
0000
0001
0000
,
1000
0000
0010
0000
,
0100
0000
0001
1000
,
0001
0000
0010
0000
,
0100
0000
1000
0001
,
0100
0000
0010
0000
,
0100
0000
0001
1000
,
0100
0000
0010
0000
,
0001
0000
1000
0000
,
0010
0000
0100
0000
,
0001
0000
1000
0000
,
0100
0000
0010
0000
,
0100
0000
1000
0000
,
0001
0000
0100
0000
,
0010
0000
1000
0000
,
0001
0000
0010
0000
,
0100
0000
0010
0000
,
0001
0000
1000
0000
,
0010
0000
0100
0000
,
0001
0000
0010
0000
,
0100
0000
0000
0000
,
1000
0000
0001
0000
,
0100
0000
0010
1000
,
0001
0000
0010
0000
,
0100
0000
1000
0000
,
0001
0000
0100
0000
,
0010
0000
0100
0001
,
1000
0000
0100
0000
,
0010
0000
0001
0000
,
1000
0000
0010
0000
,
0100
0000
0001
0000
,
1000
0000
0100
0000
,
1000
0000
0001
0000
,
0100
0000
0010
0000
,
1000
0000
0001
0000
,
0010
0000
0001
0000
,
1000
0000
0000
0001
;

//---------------dance-single - ----------------
#NOTEDATA:;
#CHARTNAME:;
#STEPSTYPE:dance-single;
#DESCRIPTION:;
#CHARTSTYLE:;
#DIFFICULTY:Beginner;
#METER:1;
#RADARVALUES:0.062705,0.065566,0.000000,0.000000,0.000000,60.000000,60.000000,0.000000,0.000000,0.000000,0.000000,0.000000,0.000000,0.000000,0.062705,0.065566,0.000000,0.000000,0.000000,60.000000,60.000000,0.000000,0.000000,0.000000,0.000000,0.000000,0.000000,0.000000;
#CREDIT:CopperPuppy;
#NOTES:
0000
0000
0000
0000
,
0001
0000
0000
0000
,
1000
0000
0000
0000
,
0010
0000
0000
0000
,
0100
0000
0000
0000
,
0001
0000
0000
0000
,
1000
0000
0000
0000
,
0100
0000
0000
0000
,
0010
0000
0000
0000
,
0001
0000
0000
0000
,
1000
0000
0000
0000
,
0010
0000
0000
0000
,
0100
0000
0000
0000
,
0010
0000
0000
0000
,
1000
0000
0000
0000
,
0001
0000
0000
0000
,
0010
0000
0000
0000
,
0100
0000
0000
0000
,
1000
0000
0000
0000
,
0001
0000
0000
0000
,
0100
0000
0000
0000
,
0010
0000
0000
0000
,
0100
0000
0000
0000
,
0001
0000
0000
0000
,
1000
0000
0000
0000
,
0100
0000
0000
0000
,
0010
0000
0000
0000
,
0001
0000
0000
0000
,
1000
0000
0000
0000
,
0010
0000
0000
0000
,
0100
0000
0000
0000
,
0001
0000
0000
0000
,
1000
0000
0000
0000
,
0100
0000
0000
0000
,
0010
0000
0000
0000
,
0100
0000
0000
0000
,
1000
0000
0000
0000
,
0001
0000
0000
0000
,
0100
0000
0000
0000
,
0010
0000
0000
0000
,
1000
0000
0000
0000
,
0001
0000
0000
0000
,
0010
0000
0000
0000
,
0001
0000
0000
0000
,
1000
0000
0000
0000
,
0010
0000
0000
0000
,
0100
0000
0000
0000
,
0001
0000
0000
0000
,
1000
0000
0000
0000
,
0100
0000
0000
0000
,
1000
0000
0000
0000
,
0001
0000
0000
0000
,
0100
0000
0000
0000
,
0010
0000
0000
0000
,
0100
0000
0000
0000
,
0001
0000
0000
0000
,
1000
0000
0000
0000
,
0100
0000
0000
0000
,
0010
0000
0000
0000
,
0001
0000
0000
1000
;
