#TITLE:Paws and Play;
#SUBTITLE:;
#ARTIST:Azazal;
#TITLETRANSLIT:;
#SUBTITLETRANSLIT:;
#ARTISTTRANSLIT:;
#GENRE:;
#CREDIT:;
#BANNER:Paws and Play-bn.png;
#BACKGROUND:Paws and Play-bg.png;
#LYRICSPATH:;
#CDTITLE:cd-title-Benpai.png;
#MUSIC:Paws and Play.ogg;
#OFFSET:0.009000;
#SAMPLESTART:34.900093;
#SAMPLELENGTH:17.454546;
#SELECTABLE:YES;
#DISPLAYBPM:110.000000;
#BPMS:0.000000=110.000000
,108.500000=165.000000
,110.000000=110.000000
,110.500000=165.000000
,112.000000=110.000000
,179.500000=165.000000
,179.875000=55.000000
,180.000000=110.000000
;
#STOPS:108.500000=0.045000,
108.750000=0.090000,
109.250000=0.046000,
109.500000=0.090000,
110.500000=0.045000,
110.750000=0.090000,
111.250000=0.046000,
111.500000=0.090000
;
#BGCHANGES:;
#KEYSOUNDS:;
#ATTACKS:;

//---------------dance-single - FS XO JH BR SJ 32nds----------------
#NOTES:
     dance-single:
     owo:
     Challenge:
     11:
     0.651390,0.846968,0.187798,0.045071,0.845089,607.000000,582.000000,25.000000,6.000000,53.000000,0.000000,0.651390,0.846968,0.187798,0.045071,0.845089,607.000000,582.000000,25.000000,6.000000,53.000000,0.000000:
0000
0000
0000
0000
,
0000
0000
0000
0000
,
0001
0000
0100
M00M
0100
0000
1000
0000
0001
0010
0001
0000
0100
0000
0010
0000
,
1000
1000
1000
0001
0001
0001
0M10
0010
0010
0100
0100
0400
,
1300
0000
0010
M00M
0010
0000
0001
0000
0010
M00M
0010
0000
0100
M00M
0100
0000
,
1000
0000
0001
0000
0100
0000
0010
0000
1000
0000
0100
0000
0100
0000
0100
0010
,
0001
0000
0100
M00M
0100
0000
1000
0000
0100
M00M
0100
0000
1000
0000
0100
0000
,
0010
0000
1000
0000
0100
0000
0010
0000
0001
0001
0100
0000
0010
0000
1000
1000
,
0001
0000
0100
M00M
0100
0000
1000
0001
0010
0000
1000
0010
0000
0100
1000
0000
,
0001
0010
0001
0100
0000
0000
0010
1000
0010
0100
0000
0000
0001
4000
0100
0000
,
3100
0000
0010
M00M
0010
0000
1000
0001
0100
0000
1000
0100
0000
0010
1000
0000
,
0100
0010
0001
0000
1000
0001
0100
0010
0000
0010
M00M
0010
0002
0000
1003
0100
,
0010
0000
0100
M00M
0100
0000
0001
1000
0010
0000
0001
0010
0000
0100
0001
0000
,
1000
0010
1000
0100
0000
0000
0010
0001
0010
0100
0000
0000
1000
0004
0100
0000
,
0103
0000
0010
M00M
0010
0000
0001
1000
0100
0000
0001
0100
0000
0010
0001
0000
,
0100
0010
1000
0000
0001
1000
0100
0010
0000
0010
M00M
0010
2000
0000
3001
1000
,
0010
0100
0001
0010
0100
0010
0001
1000
,
0010
0000
0010
0000
0100
0000
0001
0000
0001
0000
0010
0000
0001
0100
0000
0010
,
0100
0001
1000
0100
0010
0001
1000
0010
0100
0001
0010
0100
1000
0010
0100
0001
,
1000
0001
1000
0100
0010
0001
1000
0001
1000
0010
0100
0001
1000
0100
0010
0001
1000
0000
0000
0000
0100
0000
0100
0000
0010
0000
0010
0000
0001
0000
1000
0000
,
1001
0000
0000
0000
0004
0000
0003
0000
0101
0000
0000
0000
4000
0000
3000
0000
1100
0000
0000
0000
0100
00M0
0100
0000
0001
0000
0000
0000
0010
0000
0100
0000
,
4000
0000
3000
0000
4000
0000
3000
0000
1010
0000
0000
0000
0001
0000
0000
0000
0011
0000
0000
0000
0010
0M00
0010
0000
1000
0000
0100
0000
0000
0000
1000
0000
,
0010
0000
0000
0000
0400
0000
0300
0000
1010
0000
0000
0000
0004
0000
0003
0000
0101
0000
0000
0000
0100
00M0
0100
0000
1000
0000
0000
0000
0100
0000
0010
0000
,
0004
0003
0004
0003
0101
0000
1000
1000
0000
0100
M00M
0100
0004
0000
0000
0003
,
0011
0000
0010
0000
0100
1000
0000
0010
0000
0100
0010
0000
0002
0000
0013
0000
,
0100
0000
0001
0000
1000
0100
0000
0010
0000
0001
0010
0000
0400
0000
0000
0300
,
1100
0000
0000
0000
0001
0000
0000
0000
1000
0000
0000
0000
0010
0100
0001
0000
1000
0000
0100
0000
0010
0000
0000
0000
0001
0000
0100
0000
0010
0000
0000
0000
,
1000
0000
0100
4040
3030
0100
4040
3030
0001
0000
0100
0044
0033
0100
0044
0033
,
1000
0000
0100
M00M
0100
0000
0001
0000
0100
M00M
0100
0000
0010
M00M
0010
0000
,
1000
0000
0001
0000
0010
0000
0100
0000
1000
1000
0010
0000
0100
0000
0001
0001
,
1000
0000
0010
M00M
0010
0000
0001
1000
0100
0000
0001
0100
0000
0010
0001
0000
,
1000
0100
1000
0010
0000
0000
0100
0001
0100
0010
0000
0000
1000
0004
0010
0000
,
0013
0000
0100
M00M
0100
0000
0001
1000
0010
0000
0001
0010
0000
0100
0001
0000
,
0010
0100
1000
0000
0000
0001
0100
0010
0000
0010
M00M
0010
0002
0000
0000
0000
,
1003
0100
0010
0001
1000
0010
0100
0001
,
1000
0100
1000
0000
0001
0100
0001
0000
0010
0000
0100
0000
1000
0010
0000
0100
,
0010
0000
1000
0000
0001
0000
1000
0000
0100
0010
0001
1000
0001
0100
0010
1000
0001
1000
0100
0010
0001
1000
0010
0100
0001
0000
1000
0000
0010
0000
0000
0000
,
0110
0000
0001
0100
M00M
0100
1000
0001
0011
0000
1000
0010
0100
0100
0001
1000
,
1001
0000
0001
0010
0100
0000
1000
0000
1001
0000
0001
0010
M00M
0010
1000
0000
,
0100
0010
0010
0001
1000
0001
0100
0000
0010
0000
1000
0000
1100
0000
0100
0010
,
0001
0000
1000
1000
0010
0000
0100
0001
1000
0000
0100
0010
M00M
0010
1000
0000
,
0001
0010
0010
0100
1000
0001
0100
0000
0110
0000
0010
1000
0100
0000
0010
0001
,
1000
0000
0001
0001
0100
0000
0010
0000
1000
0000
0001
0010
M00M
0010
1000
0100
,
0010
0001
0001
1000
0010
0100
0001
0000
1000
0000
0100
0000
1100
0000
1000
0001
,
0100
0000
0010
0010
1000
0000
0001
0000
0010
0000
0100
1000
0001
0000
0200
0000
,
0310
0000
1000
0010
0100
0100
0001
0000
0020
0000
0130
1000
0001
0001
0100
0100
,
0110
0000
1000
0001
0010
0000
0100
1000
0010
0100
0100
0001
1000
0001
0010
0000
,
0100
1000
1000
0001
0100
0010
0010
0010
1000
0000
0001
0000
0011
0000
0010
0100
,
1000
0000
0001
0001
0100
0000
0010
0000
1000
0100
0100
0010
0001
1000
0010
0000
,
0100
0000
0000
0001
0000
0000
0001
0000
0000
1000
0000
0000
0100
0000
0000
0010
0000
0000
0100
0000
0000
1000
0000
0000
0001
0000
0000
0000
1000
0000
0010
0000
0000
0000
0000
0000
0110
0000
0000
0000
0000
0000
0100
0000
0000
0001
0000
0000
,
1000
0000
0100
0100
0010
0000
0001
0000
1000
0010
0010
0100
0001
1000
0100
0000
,
0010
0000
0000
0100
0000
0000
0100
0000
0000
1000
0000
0000
0010
0000
0000
0100
0000
0000
0100
0000
0000
0100
0000
0000
0001
0000
0000
0000
1000
0000
0100
0000
0000
0000
0000
0000
0110
0000
0000
0000
0000
0000
0010
0000
0000
0100
0000
0000
,
1000
0000
0001
0001
0100
0000
0010
0000
1000
0000
0001
0100
M00M
0100
1000
0000
,
0100
0010
0010
0001
1000
0010
0100
0000
0001
0000
0010
0000
0001
0001
1000
0010
,
0100
0000
0000
0000
,
00M0
0000
0000
0000
;

//---------------dance-single - ----------------
#NOTES:
     dance-single:
     :
     Beginner:
     1:
     0.108386,0.121693,0.015024,0.007512,0.000000,101.000000,99.000000,2.000000,1.000000,0.000000,0.000000,0.108386,0.121693,0.015024,0.007512,0.000000,101.000000,99.000000,2.000000,1.000000,0.000000,0.000000:
0000
0000
0000
0000
,
0000
0000
0000
0000
,
0000
0000
0000
0000
,
0000
0000
0000
0000
,
1000
0000
1000
0000
,
0001
0000
0001
0000
,
1000
0000
1000
0000
,
0001
0000
0001
0000
,
0100
0000
0010
0000
,
1000
0000
0001
0000
,
0010
0000
0100
0000
,
1000
0000
0001
0000
,
0100
0000
0010
0000
,
1000
0000
0001
0000
,
0010
0000
0100
0000
,
1000
0000
0001
0000
,
0100
0000
0100
0000
,
0100
0000
0100
0000
,
0010
0000
0010
0000
,
0020
0000
0000
0000
,
1030
0000
1000
0000
,
0001
0000
0001
0000
,
1000
0000
1000
0000
,
0001
0000
0001
0000
,
0010
0000
0010
0000
,
0100
0000
0100
0000
,
0010
0000
0010
0000
,
0100
0000
0100
0000
,
1000
0000
1000
0000
,
0001
0000
0001
0000
,
1000
0000
0010
0000
,
0100
0000
0001
0000
,
0010
0000
0100
0000
,
1000
0000
0001
0000
,
1000
0000
1000
0000
,
0001
0000
0001
0000
,
0100
0000
0010
0000
,
1001
0000
0000
0000
,
1000
0000
0100
0000
,
1000
0000
0100
0000
,
0010
0000
0001
0000
,
0010
0000
0001
0000
,
1000
0000
0010
0000
,
1000
0000
0010
0000
,
0100
0000
0001
0000
,
0100
0000
0001
0000
,
1000
0000
0100
0000
,
1000
0000
0100
0000
,
0010
0000
0001
0000
,
0010
0000
0001
0000
,
1000
0000
0010
0000
,
1000
0000
0010
0000
,
0100
0000
0001
0000
,
1000
0000
0001
0000
,
1001
0000
0000
0000
;

//---------------dance-single - ----------------
#NOTES:
     dance-single:
     :
     Easy:
     3:
     0.198529,0.182539,0.007512,0.000000,0.000000,185.000000,184.000000,1.000000,0.000000,0.000000,0.000000,0.198529,0.182539,0.007512,0.000000,0.000000,185.000000,184.000000,1.000000,0.000000,0.000000,0.000000:
0000
0000
0000
0000
,
0000
0000
0000
0000
,
0000
0000
0000
0000
,
0000
0000
0000
0000
,
1000
0001
1000
0001
,
0100
0010
0100
0010
,
1000
0001
1000
0001
,
0010
0100
0010
0100
,
1000
0001
1000
0000
,
0001
1000
0001
0000
,
0100
0010
0100
0000
,
0010
0100
0010
0000
,
1000
0001
1000
0001
,
0010
0100
0010
0100
,
1000
0001
1000
0001
,
0100
0000
0010
0000
,
1000
1000
1000
0000
,
0001
0001
0001
0000
,
0010
0010
0100
0100
,
1000
1000
1001
0000
,
0001
0100
0001
0100
,
0010
1000
0010
1000
,
0001
0100
0001
0100
,
0010
1000
0010
1000
,
0001
0010
0001
0010
,
0100
1000
0100
1000
,
0001
0010
0001
0010
,
0100
0000
1000
0000
,
0001
0001
1000
1000
,
0001
0001
1000
1000
,
0001
0100
0001
0100
,
0010
1000
0010
1000
,
0001
0100
0001
0100
,
0010
0000
1000
0000
,
0001
1000
0001
1000
,
0100
0010
0100
0010
,
0001
1000
0010
0100
,
0001
0000
1000
0000
,
0001
1000
0100
1000
,
0001
1000
0100
0010
,
0001
1000
0010
1000
,
0001
1000
0010
0100
,
0001
1000
0100
1000
,
0001
1000
0100
0010
,
0001
1000
0010
1000
,
0001
0000
1000
0000
,
0001
0010
0001
0010
,
0100
1000
0100
1000
,
0001
0010
0001
0010
,
0100
1000
0100
1000
,
0001
0100
0001
0100
,
0010
1000
0010
1000
,
0001
0100
0001
0100
,
0010
1000
0010
1000
,
0001
0000
0000
0000
;

//---------------dance-single - ----------------
#NOTES:
     dance-single:
     :
     Medium:
     6:
     0.298330,0.304232,0.022536,0.142726,0.000000,278.000000,275.000000,3.000000,19.000000,0.000000,0.000000,0.298330,0.304232,0.022536,0.142726,0.000000,278.000000,275.000000,3.000000,19.000000,0.000000,0.000000:
0000
0000
0000
0000
,
0000
0000
0000
0000
,
0000
0000
0000
0000
,
0000
0000
0000
0000
,
1000
0000
0001
0000
0100
0010
1000
0000
,
0001
0000
1000
0000
0001
0010
0100
0000
,
1000
0000
0001
0000
1000
0010
0100
0000
,
0001
0000
1000
0000
0001
0010
0100
0000
,
1000
0040
0000
0130
0001
1000
0100
0000
,
1000
0001
1000
0000
0001
1000
0002
0000
,
1003
0400
0000
0310
0001
1000
0010
0000
,
0100
0001
0000
1000
0001
1000
0100
0000
,
1000
0004
0000
0013
0100
1000
0001
0000
,
1000
0010
0000
1000
0010
0100
0001
0000
,
1000
0400
0000
0310
0001
1000
0010
0000
,
1000
0001
0000
1000
0001
1000
0001
0000
,
1000
0100
0010
0001
2000
0000
0000
0000
,
3001
0100
0010
1000
0002
0000
0000
0000
,
1003
0100
0010
0001
1000
0010
0100
0001
,
4000
0000
0000
0000
3004
0000
0000
0003
1001
0000
0000
0000
0000
0000
0000
0000
,
4000
0000
3001
0100
0020
0000
2030
0000
,
3001
0010
0200
0000
1300
0001
1000
0000
,
0004
0000
0203
0000
0310
1000
0001
0000
,
0040
0000
0230
0000
1300
0001
1000
0000
,
0020
0000
0230
0000
0301
1000
0001
0000
,
0020
0000
0230
0000
1300
0001
1000
0000
,
0004
0000
0203
0000
0310
1000
0001
0000
,
2000
0000
3002
0000
,
1003
0100
1000
0000
0001
0000
0001
0000
,
1000
0010
1000
0000
0001
0000
0001
0000
,
1000
0040
0000
0130
0001
1000
0100
0000
,
1000
0001
1000
0000
0001
1000
0002
0000
,
1003
0400
0000
0310
0001
1000
0010
0000
,
0100
0001
0000
1000
0001
1000
0100
0000
,
1000
0001
0010
0100
2000
0000
0000
0000
,
3001
0100
0010
1000
0002
0000
0000
0000
,
1003
0100
0010
0001
1000
0010
0100
0001
,
1001
0000
0110
0000
,
4000
0000
3004
0000
0013
0100
0010
0000
,
0001
1000
0001
0000
1000
0001
0100
0010
,
4000
0000
3004
0000
0013
0100
0010
0000
,
0001
1000
0001
0000
0100
0010
0100
0001
,
4000
0000
3400
0000
0310
0001
0010
0000
,
0100
1000
0100
0000
0010
0001
1000
0010
,
0400
0000
0304
0000
1003
0001
1000
0000
,
0001
1000
0001
0000
0100
0000
0020
0000
,
1030
0001
1000
0000
0001
1000
0100
0000
,
0010
0001
1000
0000
0010
0100
0001
1000
,
0100
0000
0010
0000
0001
1000
0001
0000
,
1000
0010
1000
0000
0001
0010
0100
1000
,
0001
0000
0100
0000
0010
1000
0001
0000
,
1000
0001
1000
0000
0001
0010
0100
1000
,
0001
0000
0100
0000
0010
0100
0010
0000
,
1000
0001
0010
0000
0100
1000
0004
0000
,
0003
0000
0000
0000
;

//---------------dance-single - ----------------
#NOTES:
     dance-single:
     :
     Hard:
     9:
     0.580563,0.578417,0.135214,0.045071,0.653536,541.000000,523.000000,18.000000,6.000000,53.000000,0.000000,0.580563,0.578417,0.135214,0.045071,0.653536,541.000000,523.000000,18.000000,6.000000,53.000000,0.000000:
// measure 0
0000
0000
0000
0000
,  // measure 1
0000
0000
0000
0000
,  // measure 2
0001
0000
0100
M00M
0100
0000
1000
0000
0001
0010
0001
0000
0100
0000
0010
0000
,  // measure 3
1000
1000
1000
0001
0001
0001
0M10
0010
0010
0100
0100
0400
,  // measure 4
1300
0000
0010
M00M
0010
0000
0001
0000
0010
M00M
0010
0000
0100
M00M
0100
0000
,  // measure 5
1000
0000
0001
0000
0100
0000
0010
0000
1000
0000
0100
0000
0100
0000
0100
0010
,  // measure 6
0001
0000
0100
M00M
0100
0000
1000
0000
0100
M00M
0100
0000
1000
0000
0100
0000
,  // measure 7
0010
0000
1000
0000
0100
0000
0010
0000
0001
0001
0100
0000
0010
0000
1000
1000
,  // measure 8
0001
0000
0100
M00M
0100
0000
1000
0001
0010
0000
1000
0010
0000
0100
1000
0000
,  // measure 9
0001
0010
0001
0100
0000
0000
0010
1000
0010
0100
0000
0000
0001
4000
0100
0000
,  // measure 10
3100
0000
0010
M00M
0010
0000
1000
0001
0100
0000
1000
0100
0000
0010
1000
0000
,  // measure 11
0100
0010
0001
0000
1000
0001
0100
0010
0000
0010
M00M
0010
0002
0000
1003
0100
,  // measure 12
0010
0000
0100
M00M
0100
0000
0001
1000
0010
0000
0001
0010
0000
0100
0001
0000
,  // measure 13
1000
0010
1000
0100
0000
0000
0010
0001
0010
0100
0000
0000
1000
0004
0100
0000
,  // measure 14
0103
0000
0010
M00M
0010
0000
0001
1000
0100
0000
0001
0100
0000
0010
0001
0000
,  // measure 15
0100
0010
1000
0000
0001
1000
0100
0010
0000
0010
M00M
0010
2000
0000
3001
1000
,  // measure 16
0010
0100
0001
0010
0100
0010
0001
1000
,  // measure 17
0010
0000
0010
0000
0100
0000
0001
0000
0001
0000
0010
0000
0001
1000
0000
0010
,  // measure 18
0400
0304
4003
3400
,  // measure 19
0310
0001
0010
0001
1000
0010
1000
0010
0100
0000
0001
1000
0001
1000
0100
0000
,  // measure 20
1100
0000
0000
0000
0004
0000
0003
0000
0101
0000
0000
0000
4000
0000
3000
0000
1100
0000
0000
0000
0100
00M0
0100
0000
0001
0000
0000
0000
0010
0000
0100
0000
,  // measure 21
4000
0000
3000
0000
4000
0000
3000
0000
1010
0000
0000
0000
0001
0000
0000
0000
0011
0000
0000
0000
0010
0M00
0010
0000
1000
0000
0100
0000
0000
0000
1000
0000
,  // measure 22
0010
0000
0000
0000
0400
0000
0300
0000
1010
0000
0000
0000
0004
0000
0003
0000
0101
0000
0000
0000
0100
00M0
0100
0000
1000
0000
0000
0000
0100
0000
0010
0000
,  // measure 23
0004
0003
0004
0003
0101
0000
1000
1000
0000
0100
M00M
0100
0004
0000
0000
0003
,  // measure 24
0011
0000
0010
0000
0100
1000
0000
0010
0000
0100
0010
0000
0002
0000
0013
0000
,  // measure 25
0100
0000
0001
0000
1000
0100
0000
0010
0000
0001
0010
0000
0400
0000
0000
0300
,  // measure 26
1100
0000
0001
0000
1000
0000
0001
0100
0001
0100
0010
0000
1000
0000
0001
0000
,  // measure 27
0010
0000
0100
4000
3000
0100
4000
3000
0001
0000
1000
0004
0003
1000
0004
0003
,  // measure 28
1000
0000
0100
M00M
0100
0000
0001
0000
0100
M00M
0100
0000
0010
M00M
0010
0000
,  // measure 29
1000
0000
0001
0000
0010
0000
0100
0000
1000
1000
0010
0000
0100
0000
0001
0001
,  // measure 30
1000
0000
0010
M00M
0010
0000
0001
1000
0100
0000
0001
0100
0000
0010
0001
0000
,  // measure 31
1000
0100
1000
0010
0000
0000
0100
0001
0100
0010
0000
0000
1000
0004
0010
0000
,  // measure 32
0013
0000
0100
M00M
0100
0000
0001
1000
0010
0000
0001
0010
0000
0100
0001
0000
,  // measure 33
0010
0100
1000
0000
0000
0001
0100
0010
0000
0010
M00M
0010
0002
0000
0000
0000
,  // measure 34
1003
0100
0010
0001
1000
0010
0100
0001
,  // measure 35
1000
0100
1000
0000
0001
0100
0001
0000
0010
0000
0100
0000
1000
0010
0000
0100
,  // measure 36
0040
0000
4030
0000
3004
0000
0013
0100
,  // measure 37
0110
0000
0001
0100
M00M
0100
1000
0000
0001
0000
0100
0000
0010
1000
0010
1000
,  // measure 38
0001
0000
1000
0100
0010
0000
0001
0000
1001
0000
1000
0010
M00M
0010
0001
0000
,  // measure 39
1000
0001
1000
0001
0100
0000
0010
0000
1000
0000
0001
0000
0011
0000
0001
1000
,  // measure 40
0010
0000
1000
1000
0001
0000
0100
0001
1000
0000
0100
0010
M00M
0010
1000
0000
,  // measure 41
0001
0010
0001
0010
0100
0000
1000
0000
1100
0000
1000
0001
0100
0000
0010
1000
,  // measure 42
0001
0000
1000
1000
0100
0000
0010
0000
0001
0000
1000
0010
M00M
0010
0001
0000
,  // measure 43
1000
0010
1000
0010
0100
0000
0001
0000
1000
0000
0100
0000
1100
0000
0010
0001
,  // measure 44
1000
0000
0001
0001
0100
0000
0010
0000
1000
0000
0001
1000
0100
0000
0020
0000
,  // measure 45
0031
0000
1000
0010
0100
0010
0100
0000
0002
0000
0000
1003
0100
0000
0010
0001
,  // measure 46
1000
0000
0001
1000
0010
0000
0100
0000
0001
1000
0001
1000
0100
0000
0010
0000
,  // measure 47
0001
1000
0001
1000
0010
0000
0100
0001
1000
0000
0100
0000
0110
0000
0010
0001
,  // measure 48
1000
0000
0001
0001
0100
0000
0010
0000
1000
0001
0010
0001
0010
0000
0100
0000
,  // measure 49
1000
0001
0100
0001
0100
0000
0010
1000
0001
0000
1000
0000
1100
0000
1000
0001
,  // measure 50
0100
0000
0001
0001
1000
0000
0100
0000
0010
0001
0010
0001
1000
0000
0001
0000
,  // measure 51
1000
0010
1000
0010
0100
0000
0001
0001
1000
0000
0100
0000
0110
0000
0010
0001
,  // measure 52
1000
0000
0001
0001
0100
0000
0010
0000
1000
0000
0001
0100
M00M
0100
1000
0000
,  // measure 53
0001
0100
0001
0100
0010
0000
1000
0000
0001
0000
0010
0000
0001
0001
1000
0100
,  // measure 54
0010
0000
0000
0000
,  // measure 55
00M0
0000
0000
0000
;
