#TITLE:Pasadena;
#SUBTITLE:(feat. Buddy);
#ARTIST:Tinashe;
#TITLETRANSLIT:;
#SUBTITLETRANSLIT:;
#ARTISTTRANSLIT:RnB;
#GENRE:;
#CREDIT:Feraligatr;
#BANNER:pasadena-bn.png;
#BACKGROUND:pasadena-bg-wide.png;
#LYRICSPATH:;
#CDTITLE:;
#MUSIC:Tinashe - Pasadena (feat. Buddy).ogg;
#OFFSET:0.009000;
#SAMPLESTART:39.061001;
#SAMPLELENGTH:16.743999;
#LASTBEATHINT:412.825806;
#SELECTABLE:YES;
#DISPLAYBPM:172.000000;
#BPMS:0.000000=172.000000
;
#STOPS:
;
#BGCHANGES:;
#KEYSOUNDS:;
#ATTACKS:;

//---------------dance-single - Feraligatr----------------
#NOTES:
     dance-single:
     Feraligatr:
     Challenge:
     9:
     0.648276,0.668276,0.144828,0.779310,0.206897,658.000000,637.000000,21.000000,113.000000,14.000000,0.000000,0.648276,0.668276,0.144828,0.779310,0.206897,658.000000,637.000000,21.000000,113.000000,14.000000,0.000000:
// measure 0
0000
0000
0000
0000
,  // measure 1
0000
0000
0000
0000
,  // measure 2
0000
0000
0000
0000
,  // measure 3
0000
0000
0000
0000
0000
0000
0000
0000
0000
0000
0000
0000
0000
0000
0001
1000
,  // measure 4
0100
0010
0002
0000
0000
1003
0100
0010
,  // measure 5
0002
0000
0000
0003
010M
0000
0010
0000
0002
0000
1000
0003
0001
0000
0100
0000
,  // measure 6
0010
1000
0002
0000
0000
1003
0100
0010
,  // measure 7
0002
0000
0000
0003
1001
0000
0000
0000
1010
0000
0000
0000
0110
0000
0010
1000
,  // measure 8
0001
0010
0200
0000
0000
1300
0001
0010
,  // measure 9
0200
0000
0000
0300
0M01
0000
1000
0000
0002
0000
0100
0003
0001
0000
1000
0000
,  // measure 10
0100
1000
0002
0000
0000
1003
0010
0100
,  // measure 11
0002
0000
0000
0003
1001
0000
0000
0000
0011
0000
0000
0000
0110
0000
0000
0000
,  // measure 12
1001
0000
1000
0100
0010
1000
0010
0001
,  // measure 13
0200
0000
0301
0000
0000
1000
0100
0010
,  // measure 14
0001
1000
0010
0100
0010
0001
0010
1000
,  // measure 15
0200
0000
0000
03M0
0100
0000
0001
0000
0020
0000
0000
0M30
0010
0000
1000
0001
,  // measure 16
0010
0000
0001
0010
0100
0001
0100
1000
,  // measure 17
0020
0000
0130
0000
0000
0001
1000
0100
,  // measure 18
0010
0001
1000
0010
0100
1000
0100
0001
,  // measure 19
0020
0000
0000
0M30
0010
0000
1000
0000
0200
0000
0000
03M0
0100
0000
0001
1000
,  // measure 20
0010
0100
0001
1000
0100
1000
0001
0100
,  // measure 21
2000
0000
3002
0000
0013
1000
0100
0010
,  // measure 22
0001
1000
0010
0100
0001
1000
0100
1000
,  // measure 23
0020
0000
0000
0M30
0010
0000
0001
0000
0200
0000
0000
03M0
0100
0000
1000
0001
,  // measure 24
0100
0010
0100
0001
2000
0000
3100
0010
,  // measure 25
2000
0000
3002
0000
0103
1000
0010
0100
,  // measure 26
0001
1000
0100
0010
0001
1000
0010
1000
,  // measure 27
0200
0000
0000
03M0
0100
0000
0001
0000
0020
0000
0000
0M30
0010
0000
1000
0001
,  // measure 28
0010
0100
2000
0000
0000
3001
0010
0100
,  // measure 29
2000
0000
0000
3000
M010
0000
0100
0000
2000
0000
0001
3000
1000
0000
0010
0000
,  // measure 30
0100
0001
2000
0000
0000
3001
0010
0100
,  // measure 31
2000
0000
0000
3000
1001
0000
0000
0000
0101
0000
0000
0000
0110
0000
0100
0001
,  // measure 32
1000
0100
0020
0000
0000
0031
1000
0100
,  // measure 33
0020
0000
0000
0030
10M0
0000
0001
0000
2000
0000
0010
3000
1000
0000
0001
0000
,  // measure 34
0010
0001
2000
0000
0000
3001
0100
0010
,  // measure 35
2000
0000
0000
3000
1001
0000
0000
0000
0011
0000
0000
0000
0110
0000
0000
0000
,  // measure 36
0010
0000
0100
0000
0002
0000
2000
0000
0000
0000
0000
0003
3010
0000
0100
0000
,  // measure 37
2000
0000
3001
0100
0020
0000
1030
0000
,  // measure 38
0010
0000
0100
0000
2000
0000
0002
0000
0000
0000
0000
3000
0013
0000
0100
0000
,  // measure 39
0002
0000
0000
0000
0013
0000
0001
0000
1000
0000
0010
0000
0100
0000
0001
1000
,  // measure 40
0100
0000
0010
0000
2000
0000
0002
0000
0000
0000
0000
3000
0103
0000
0010
0000
,  // measure 41
0002
0000
0013
0100
1000
0010
0100
0001
,  // measure 42
0100
0000
0010
0000
0002
0000
2000
0000
0000
0000
0000
0003
3100
0000
0010
0000
,  // measure 43
2000
0000
3100
0010
0002
0000
0003
0000
,  // measure 44
1000
0000
0100
0000
1000
0000
0000
0020
0000
0000
0000
0130
0000
0010
0000
1000
,  // measure 45
0000
0002
0000
0000
0000
1003
0000
0100
0000
0002
0000
2003
0000
3020
0000
0032
,  // measure 46
0000
0103
0000
0010
0000
1000
0000
0200
0000
0000
0000
0310
0000
0100
0000
1000
,  // measure 47
0000
0002
0000
0000
0000
0103
0000
0001
0000
0010
0200
0000
0302
0000
0203
0000
,  // measure 48
1300
0000
0010
0000
1000
0000
0000
0200
0000
0000
0310
0000
0001
0000
1000
0000
,  // measure 49
0000
0002
0000
0000
0103
0000
0010
0000
1000
0000
0200
0000
0302
0000
2003
0000
,  // measure 50
0000
3010
0001
1000
0100
1000
0010
0100
,  // measure 51
0000
0000
0001
1000
0100
0000
0010
0001
0000
0000
1000
0000
0010
0100
0001
0000
,  // measure 52
1000
0000
0001
0000
0010
0100
1000
0000
0001
0000
0100
0000
0001
0000
1000
0000
,  // measure 53
0000
0100
1000
0001
0010
0010
0100
0001
,  // measure 54
0010
0100
1000
0001
0100
0100
0010
0010
,  // measure 55
0000
1000
0001
0010
0100
0100
0001
1000
,  // measure 56
0010
0010
0100
1000
0010
0010
0001
0100
,  // measure 57
0010
0010
0001
1000
0100
0100
0010
1000
,  // measure 58
0100
0100
0001
1000
0010
0010
0100
1000
,  // measure 59
0010
0000
0000
0000
0000
0000
0100
0001
,  // measure 60
1001
0000
0000
1000
0000
0000
0200
0000
0000
0000
0310
0000
0100
0000
1000
0000
,  // measure 61
0010
0100
0001
0000
1000
0100
0010
0001
,  // measure 62
0200
0000
0000
0310
1000
0000
0002
0000
0000
0000
0013
0000
0100
0000
1000
0000
,  // measure 63
0010
0000
0100
0000
0001
0000
0000
0000
1000
0000
0100
0000
0010
0000
0001
1000
,  // measure 64
0010
0100
0001
2000
0000
3100
0010
0001
,  // measure 65
0100
0010
1000
0000
0001
0010
0100
1000
,  // measure 66
0010
0000
0000
0100
0000
0000
0000
0001
0010
0000
0000
0100
0000
0000
1000
0000
,  // measure 67
0010
1000
0000
0001
0000
0100
0001
0000
0010
0000
0100
1000
0000
0000
0002
0000
,  // measure 68
0000
0000
0103
0010
1000
0001
0010
0100
,  // measure 69
2000
3020
0230
0000
,  // measure 70
0301
1000
0100
0010
0100
1000
0001
0100
,  // measure 71
0020
0000
1030
0100
0001
1000
0010
0001
,  // measure 72
0100
0010
1000
0001
0010
0100
1000
0001
,  // measure 73
0200
0310
2000
0000
,  // measure 74
3001
1000
0100
0010
0001
1000
0010
0100
,  // measure 75
0002
0000
1003
0100
0020
0000
0031
0000
,  // measure 76
1100
0000
0001
1000
0001
0010
0100
0001
,  // measure 77
0200
0000
0310
0001
1000
0010
0100
0001
,  // measure 78
0020
0000
0000
0000
0130
0000
0010
0000
0001
0000
1000
0000
0010
0100
1000
0000
,  // measure 79
0200
0000
0000
0000
0310
0000
1000
0000
0001
0000
0010
0000
0100
0000
1000
0001
,  // measure 80
0200
0000
0320
2000
0030
3001
0010
0100
,  // measure 81
2000
0000
3002
0000
0103
0001
0010
0100
,  // measure 82
1000
0001
0100
0010
1000
0001
0100
0001
,  // measure 83
0020
0000
0000
0000
0130
0000
1000
0000
0002
0000
0000
0000
0103
0000
0001
1000
,  // measure 84
0100
0010
0002
0000
0000
1003
0100
0010
,  // measure 85
0002
0000
0000
0003
010M
0000
0010
0000
0002
0000
1000
0003
0001
0000
0100
0000
,  // measure 86
0010
1000
0002
0000
0000
1003
0100
0010
,  // measure 87
0002
0000
0000
0003
1001
0000
0000
0000
1010
0000
0000
0000
0110
0000
0010
1000
,  // measure 88
0001
0010
0200
0000
0000
1300
0001
0010
,  // measure 89
0200
0000
0000
0300
0M01
0000
1000
0000
0002
0000
0100
0003
0001
0000
1000
0000
,  // measure 90
0100
1000
0002
0000
0000
1003
0010
0100
,  // measure 91
0002
0000
0000
0003
1001
0000
0000
0000
1100
0000
0000
0000
0110
0000
0000
0000
,  // measure 92
0010
0000
0100
0000
0002
0000
2000
0000
0000
0000
0000
0003
3010
0000
0100
0000
,  // measure 93
2000
0000
3001
0100
0020
0000
1030
0000
,  // measure 94
0010
0000
0100
0000
2000
0000
0002
0000
0000
0000
0000
3000
0013
0000
0100
0000
,  // measure 95
0002
0000
0000
0000
0013
0000
0001
0000
1000
0000
0010
0000
0100
0000
0001
1000
,  // measure 96
0100
0000
0010
0000
2000
0000
0002
0000
0000
0000
0000
3000
0103
0000
0010
0000
,  // measure 97
0002
0000
0013
0100
1000
0010
0100
0001
,  // measure 98
0100
0000
0010
0000
0002
0000
2000
0000
0000
0000
0000
0003
3100
0000
0010
0000
,  // measure 99
2000
0000
0000
0000
3100
0000
0010
0000
0001
0000
1000
0000
0010
0000
0100
0001
,  // measure 100
0020
0000
0000
0000
,  // measure 101
0230
0000
0000
0000
,  // measure 102
0300
0000
0000
0000
;

//---------------dance-single - sangyule----------------
#NOTES:
     dance-single:
     :
     Beginner:
     1:
     0.092611,0.137931,0.000000,0.000000,0.000000,94.000000,94.000000,0.000000,0.000000,0.000000,0.000000,0.092611,0.137931,0.000000,0.000000,0.000000,94.000000,94.000000,0.000000,0.000000,0.000000,0.000000:
0000
0000
0000
0000
,
0000
0000
0000
0000
,
0000
0000
0000
0000
,
0000
0000
0000
0000
,
1000
0000
0000
0000
,
0001
0000
0000
0000
,
0100
0000
0000
0000
,
0010
0000
0010
0000
,
1000
0000
0000
0000
,
0001
0000
0000
0000
,
0010
0000
0000
0000
,
0001
0000
0000
0000
,
1000
0000
0000
0000
,
0001
0000
0000
0000
,
1000
0000
0000
0000
,
0001
0000
0000
0000
,
0100
0000
0000
0000
,
0010
0000
0000
0000
,
0100
0000
0000
0000
,
0010
0000
0000
0000
,
1000
0000
0000
0000
,
0001
0000
0000
0000
,
1000
0000
0000
0000
,
0001
0000
0000
0000
,
0010
0000
0000
0000
,
0100
0000
0000
0000
,
0010
0000
0000
0000
,
0000
0000
0000
0000
,
0001
0000
0000
0000
,
1000
0000
0000
0000
,
0010
0000
0000
0000
,
0100
0000
0100
0000
,
0001
0000
0000
0000
,
1000
0000
0000
0000
,
0100
0000
0000
0000
,
1000
0000
0000
0000
,
0010
0000
0000
0000
,
1000
0000
0000
0000
,
0001
0000
0000
0000
,
0010
0000
0000
0000
,
0100
0000
0000
0000
,
1000
0000
0000
0000
,
0001
0000
0000
0000
,
0000
0000
0000
0000
,
0100
0000
0000
0000
,
0010
0000
0000
0000
,
0100
0000
0000
0000
,
0010
0000
0000
0000
,
1000
0000
0000
0000
,
0001
0000
0000
0000
,
1000
0000
0000
0000
,
0001
0000
0000
0000
,
1000
0000
0000
0000
,
0100
0000
0000
0000
,
0010
0000
0000
0000
,
0001
0000
0000
0000
,
1000
0000
0000
0000
,
0010
0000
0000
0000
,
0100
0000
0000
0000
,
0001
0000
0000
0000
,
0000
0000
0000
0000
,
1000
0000
0000
0000
,
0001
0000
0000
0000
,
0010
0000
0000
0000
,
0100
0000
0000
0000
,
1000
0000
0000
0000
,
0000
0000
0000
0000
,
0000
0000
0000
0000
,
0001
0000
0000
0000
,
1000
0000
0000
0000
,
0001
0000
0000
0000
,
1000
0000
0000
0000
,
0010
0000
0000
0000
,
0100
0000
0000
0000
,
0010
0000
0000
0000
,
0100
0000
0000
0000
,
0001
0000
0000
0000
,
1000
0000
0000
0000
,
0100
0000
0000
0000
,
0010
0000
0000
0000
,
0001
0000
0000
0000
,
1000
0000
0000
0000
,
0010
0000
0000
0000
,
0000
0000
0000
0000
,
1000
0000
0000
0000
,
0100
0000
0000
0000
,
0010
0000
0000
0000
,
0001
0000
0001
0000
,
1000
0000
0000
0000
,
0010
0000
0000
0000
,
0100
0000
0000
0000
,
0001
0000
0000
0000
,
0010
0000
0000
0000
,
0100
0000
0000
0000
,
0010
0000
0000
0000
,
0001
0000
0000
0000
,
1000
0000
0000
0000
,
0001
0000
0000
0000
,
0100
0000
0000
0000
,
0010
0000
0000
0000
,
1000
0000
0000
0000
;

//---------------dance-single - sangyule----------------
#NOTES:
     dance-single:
     :
     Easy:
     3:
     0.202956,0.281379,0.013793,0.034483,0.000000,206.000000,204.000000,2.000000,5.000000,0.000000,0.000000,0.202956,0.281379,0.013793,0.034483,0.000000,206.000000,204.000000,2.000000,5.000000,0.000000,0.000000:
0000
0000
0000
0000
,
0000
0000
0000
0000
,
0000
0000
0000
0000
,
0000
0000
0000
0000
,
1000
0001
0000
0001
,
1000
0000
1000
0000
,
0100
0010
0000
0010
,
0001
1000
1000
1000
,
0001
0100
0000
0100
,
0010
0000
0010
0000
,
1000
0001
0000
0001
,
0010
0000
0000
0000
,
0100
0000
1000
0000
,
0001
0000
0000
0100
,
0010
0000
1000
0000
,
0001
0000
0001
0000
,
0010
0000
0001
0000
,
1000
0000
0000
0100
,
1000
0000
0001
0000
,
0010
0000
0010
0000
,
0100
0000
1000
0000
,
0001
0000
1000
0000
,
0010
0000
0100
0000
,
0001
0000
1000
0000
,
0100
0000
0010
0000
,
0100
0000
1000
0000
,
0001
0000
0100
0000
,
0010
0000
0000
0000
,
1000
0001
0000
0001
,
0010
0000
0010
0000
,
0100
1000
0000
1000
,
0001
1000
1000
1000
,
0010
0100
0000
0001
,
0100
0000
0100
0000
,
0001
1000
0000
1000
,
0100
0000
0000
0000
,
0010
0000
0001
0000
,
1000
0000
1000
0000
,
0001
0000
0100
0000
,
0010
0000
0010
0000
,
1000
0000
0001
0000
,
1000
0000
1000
0000
,
0100
0000
0010
0000
,
0000
0000
0000
0000
,
0000
0001
0000
0001
,
0000
1000
0000
1000
,
0000
0010
0000
0010
,
0000
0100
0000
0100
,
0000
0001
0000
0001
,
0000
1000
0000
1000
,
0000
0100
0000
0010
,
0000
0000
0000
0000
,
0000
0001
0000
1000
,
0000
0001
0000
1000
,
0000
0010
0000
0100
,
0000
0001
0000
1000
,
0000
0100
0000
0100
,
0000
0010
0000
0010
,
0000
0001
0000
0001
,
0000
0000
0000
0000
,
1001
0000
1000
0000
,
0010
0000
0100
0100
,
0001
0000
1000
0000
,
0001
0000
0010
0010
,
0100
0000
1000
0000
,
0010
0000
1000
1000
,
0002
0000
0023
0000
,
0230
0000
0000
0300
,
0000
1000
0000
1000
,
0000
0001
0000
0001
,
0000
0100
0000
0100
,
0000
0010
0000
0010
,
0000
1000
0000
1000
,
0000
0001
0000
0001
,
0000
0010
0000
0100
,
0000
1000
0000
0000
,
1001
0000
0001
0000
,
0100
0000
0010
1000
,
0010
0000
1000
0000
,
0001
0000
0010
0100
,
0010
0000
0001
0000
,
1000
0000
1000
0000
,
0010
0000
0100
0000
,
0001
0000
0000
0000
,
1000
0100
0000
0100
,
0010
0000
0010
0000
,
0001
1000
0000
1000
,
0010
0100
0100
0100
,
0001
1000
0000
1000
,
0100
0000
0100
0000
,
0010
0001
0000
0001
,
1000
0000
0000
0000
,
0010
0000
0100
0000
,
0001
0000
0001
0000
,
1000
0000
0100
0000
,
0010
0000
0010
0000
,
0001
0000
1000
0000
,
0001
0000
0001
0000
,
0100
0000
0010
0000
,
1000
0000
1000
0000
,
0200
0000
0000
0000
,
0320
0000
0000
0000
,
0030
0000
0000
0000
;

//---------------dance-single - sangyule----------------
#NOTES:
     dance-single:
     :
     Medium:
     5:
     0.345813,0.457241,0.000000,0.227586,0.000000,351.000000,351.000000,0.000000,33.000000,0.000000,0.000000,0.345813,0.457241,0.000000,0.227586,0.000000,351.000000,351.000000,0.000000,33.000000,0.000000,0.000000:
0000
0000
0000
0000
,
0000
0000
0000
0000
,
0000
0000
0000
0000
,
0000
0000
0000
0000
,
0001
1000
0002
0000
0000
0000
0013
0000
,
0100
1000
0100
0000
,
1000
0001
2000
0000
0000
0000
3010
0000
,
0100
0001
0001
0001
,
1000
0001
2000
0000
0000
0000
3100
0000
,
0010
0001
0010
0000
,
0100
1000
0200
0000
0000
0000
1300
0000
,
0001
0100
0100
0100
,
0001
0000
0010
0000
0000
0001
1000
0000
,
0100
1000
0000
0010
,
0100
0000
0001
0000
0000
0100
0010
0000
,
1000
1000
0100
0010
,
0001
0000
1000
0000
0000
0001
0100
0000
,
0010
1000
0000
0100
,
1000
0000
0100
0000
0000
1000
0001
0000
,
0010
0010
0001
1000
,
0010
0000
1000
0000
0000
0010
0100
0000
,
0001
1000
0200
0000
,
1300
0000
0010
0000
0000
1000
0001
0000
,
0100
0010
1000
0001
,
0010
0000
0001
0000
0000
0010
0100
0000
,
1000
0001
0200
0000
,
0310
0000
1000
0000
0000
0010
0100
0000
,
0001
0000
0000
0001
,
1000
0001
2000
0000
0000
0000
3100
0000
,
0010
0001
0010
0000
,
0001
1000
0002
0000
0000
0000
0103
0000
,
0010
1000
1000
1000
,
0100
0010
0200
0000
0000
0000
1300
0000
,
0001
0100
0001
0000
,
0010
0001
0020
0000
0000
0000
0130
0000
,
1000
0001
0001
0001
,
0010
0000
0001
2000
0000
0000
3010
0000
,
0100
0100
0001
1000
,
0100
0000
0010
0002
0000
0000
1003
0000
,
0010
0100
0002
0000
,
0103
0000
0010
2000
0000
0000
3001
0000
,
0010
0010
0100
1000
,
0001
0000
0100
0020
0000
0000
1030
0000
,
0002
0000
0000
0003
,
1000
0000
0100
1000
0000
0000
0100
0000
,
0000
0000
0010
0001
0000
0000
0010
0000
,
0000
0000
0001
1000
0000
0000
0001
0000
,
0000
0000
0100
0010
0000
0000
0100
0000
,
0000
0000
0001
1000
0000
0000
0001
0000
,
0000
0000
0010
0100
0000
0000
0010
0000
,
0000
0000
0100
1000
0000
0000
0100
0000
,
0000
0000
0000
0000
,
0000
0000
1000
0001
0000
0000
1000
0000
,
0000
0000
0010
0100
0000
0000
0010
0000
,
0000
0000
1000
0001
0000
0000
1000
0000
,
0000
0000
0100
0010
0000
0000
0100
0000
,
1000
0000
0001
1000
0001
0000
0100
0001
,
0100
0000
0010
1000
0010
0000
1000
0001
,
1000
0000
0100
1000
0100
0000
0010
0001
,
0010
0000
0000
0000
,
0001
0000
1000
0000
0000
0001
0100
0000
,
0010
1000
0010
1000
,
0001
0000
0010
0000
0000
0100
0010
0000
,
0001
0000
1000
0000
0001
0000
1000
0100
,
0010
0000
0001
0000
0000
1000
0001
0000
,
0100
0010
0100
0001
,
2000
0000
3002
0000
,
0023
0000
0000
0030
,
0000
0000
0100
1000
0100
0000
1000
0000
,
0001
0001
0200
0000
,
0310
0000
1000
0001
1000
0000
0100
0000
,
0010
0010
0001
1000
,
0000
0000
0001
1000
0001
0000
0100
0000
,
0010
0010
2000
0000
,
3001
0000
0010
0001
0010
0000
0100
0000
,
1000
1000
0001
0000
,
0100
0000
0001
0000
0000
1000
0001
0000
,
0010
0100
0010
0010
,
0001
0000
1000
0000
0000
0010
1000
0000
,
0001
0010
0001
0001
,
1000
0000
0001
0000
0000
1000
0001
0000
,
0100
0100
0020
0000
,
1030
0000
0001
0000
0000
0010
0001
0000
,
0100
0000
0000
0001
,
1000
0100
2000
0000
0000
0000
3001
0000
,
0100
0010
0100
0000
,
0001
1000
0002
0000
0000
0000
0013
0000
,
0100
1000
1000
1000
,
0001
0100
0002
0000
0000
0000
0103
0000
,
0010
1000
0010
0000
,
1000
0100
2000
0000
0000
0000
3001
0000
,
0010
0100
0100
0100
,
0010
0000
0001
2000
0000
0000
3010
0000
,
0100
0100
0001
1000
,
0001
0000
0010
0200
0000
0000
1300
0000
,
0010
0100
0002
0000
,
1003
0000
0100
0020
0000
0000
0031
0000
,
1000
0010
0100
0010
,
1000
0000
0001
0020
0000
0000
0130
0000
,
1000
0000
0001
0000
1000
0000
0010
0100
,
0002
0000
0000
0000
,
2003
0000
0000
0000
,
3000
0000
0000
0000
;

//---------------dance-single - sangyule----------------
#NOTES:
     dance-single:
     :
     Hard:
     7:
     0.478818,0.597931,0.068966,0.344828,0.003448,486.000000,476.000000,10.000000,50.000000,0.000000,0.000000,0.478818,0.597931,0.068966,0.344828,0.003448,486.000000,476.000000,10.000000,50.000000,0.000000,0.000000:
0000
0000
0000
0000
,
0000
0000
0000
0000
,
0000
0000
0000
0000
,
0000
0000
0000
0000
,
1000
0001
0020
0000
0000
0000
0130
1000
,
0001
0000
1000
0001
1000
0000
0000
0000
,
0010
1000
0002
0000
0000
0000
0013
0100
,
1000
1100
1100
1100
,
0100
1000
0002
0000
0000
0000
0103
0010
,
1000
0000
0001
0010
0001
0000
0000
0000
,
1000
0010
2000
0000
0000
0000
3100
0010
,
0001
1000
1000
1000
,
0000
0000
0010
0100
0010
0100
0001
1000
,
0200
0010
0000
1300
,
0000
0001
1000
0001
0100
0010
0100
0001
,
1000
0000
0001
0010
0001
0000
0100
0000
,
0000
0000
0010
1000
0010
0100
0001
1000
,
0002
0010
0000
1003
,
0000
0100
1000
0100
1000
0001
0100
0010
,
1000
0000
0001
0010
0100
0000
1000
0000
,
0000
0000
0010
0100
0001
1000
0100
1000
,
0020
0100
2030
0000
,
3000
0001
0010
0001
0010
0000
0100
1000
,
0010
0000
0100
0001
1000
0000
0010
0000
,
0000
1000
0001
1000
0001
0000
0010
0100
,
2000
0000
0010
0000
3020
0000
0000
0030
,
0000
0100
0010
0100
0001
1000
0001
0010
,
0100
0000
0000
0000
,
1000
0010
0200
0000
0000
0000
0301
1000
,
0100
0000
0010
0001
1000
0000
0000
0000
,
0010
0100
0002
0000
0000
0000
0013
0100
,
0010
0011
0011
0011
,
0001
1000
0002
0000
0000
0000
0103
0010
,
1000
0000
0001
0010
0001
0000
0000
0000
,
0100
0001
2000
0000
0000
0000
3001
0010
,
0100
1000
1000
1000
,
0010
0100
0010
0200
0000
0000
0301
1000
,
0001
0000
0001
0010
0001
0000
1000
0000
,
0100
1000
0100
2000
0000
0000
3001
0010
,
0001
0000
1000
0001
0200
0000
0300
0000
,
0001
1000
0001
2000
0000
0000
3001
0100
,
0001
0000
0001
1000
0001
0000
0010
0000
,
0001
1000
0001
2000
0000
0000
3100
0010
,
0001
0000
0000
0000
,
1000
0000
0010
0100
0000
0000
0001
0000
,
1000
1000
0100
0010
,
0001
0000
1000
0001
0000
0000
0100
0000
,
0010
0010
1000
0000
,
0001
0000
0010
0100
0000
0000
1000
0000
,
0001
0001
0100
0100
,
0000
0010
1000
0010
1000
0010
0100
0001
,
2000
0000
0000
3000
,
0100
0000
1000
0001
1000
0000
1001
0000
,
0000
0001
0100
0001
0100
0010
1000
0001
,
0010
0100
0010
0100
1000
0000
0001
0000
,
0000
1000
0001
1000
0010
0100
0010
0100
,
0001
1000
0001
1000
0100
0010
0100
0010
,
0001
1000
0001
1000
0010
0100
0010
0100
,
0001
1000
0001
0100
0010
1000
0001
1000
,
0100
0000
0000
0000
0000
0000
1000
0001
,
1000
0000
0000
0010
0000
0000
0100
0000
0000
0000
0001
0000
1000
0000
0001
0000
,
2000
0100
3002
0010
,
1003
0010
1000
0010
0000
0100
0001
1000
,
0002
0100
2003
0010
,
3001
0010
0100
0010
0000
0001
1000
0001
,
2000
0010
3002
0010
,
2003
3000
0002
0003
,
0200
0000
0000
0300
,
0000
0000
0010
1000
0010
1000
0001
1000
,
0200
0310
0002
0000
,
1003
0001
0100
0010
0100
0001
1000
0001
,
0020
0000
0130
1000
0010
0100
0001
0100
,
0000
0001
1000
0001
1000
0100
0010
0100
,
2000
3001
0200
0000
,
0301
0000
0100
0010
0100
0010
1000
0001
,
1000
0000
0100
0010
0002
0000
0003
0000
,
1000
0000
0001
0010
0100
1000
0100
1000
,
0001
0000
0100
0000
0010
1000
0010
1000
,
0001
0000
0010
0100
1000
0001
0100
0001
,
0100
0000
0010
1000
0001
0010
0001
0010
,
0100
0000
2000
0000
0000
3010
0100
0001
,
2000
0000
0001
0000
3002
0000
0000
0003
,
0000
1000
0100
1000
0001
1000
0001
0100
,
0010
0000
0000
0000
,
1000
0100
0020
0000
0000
0000
0031
1000
,
0010
0000
0100
0001
1000
0000
0000
0000
,
0100
1000
0002
0000
0000
0000
0103
0010
,
1000
1010
1010
1010
,
0010
0100
0002
0000
0000
0000
1003
0100
,
0010
0000
0100
1000
0001
0000
0000
0000
,
0100
0010
2000
0000
0000
0000
3001
0010
,
0100
1000
1000
1000
,
0010
0100
0010
0200
0000
0000
0301
1000
,
0001
0000
0001
0100
0001
0000
1000
0000
,
0100
0010
0100
0020
0000
0000
0031
1000
,
0001
0000
1000
0001
0200
0000
0300
0000
,
0001
1000
0001
2000
0000
0000
3001
0100
,
0001
0000
0001
1000
0001
0000
0010
0000
,
0001
1000
0001
2000
0000
0000
3100
1000
,
0001
0000
0100
0001
0200
0000
0000
0300
,
0020
0000
0000
0000
,
2030
0000
0000
0000
,
3000
0000
0000
0000
;
