#TITLE:Overworld;
#SUBTITLE:;
#ARTIST:Distayne;
#TITLETRANSLIT:;
#SUBTITLETRANSLIT:;
#ARTISTTRANSLIT:;
#GENRE:;
#CREDIT:;
#BANNER:Overworld-bn.png;
#BACKGROUND:Overworld-bg-wide.png;
#LYRICSPATH:;
#CDTITLE:cd-title-Benpai.png;
#MUSIC:Overworld.ogg;
#OFFSET:0.009000;
#SAMPLESTART:44.990997;
#SAMPLELENGTH:15.000000;
#SELECTABLE:YES;
#DISPLAYBPM:128.000000;
#BPMS:0.000000=128.000000
,103.000000=192.000000
,103.750000=64.000000
,104.000000=128.000000
,127.000000=192.000000
,127.750000=64.000000
,128.000000=128.000000
,136.000000=192.000000
,136.750000=64.000000
,137.000000=128.000000
,152.000000=192.000000
,152.750000=64.000000
,153.000000=128.000000
,275.000000=192.000000
,275.750000=64.000000
,276.000000=128.000000
;
#STOPS:
;
#BGCHANGES:;
#KEYSOUNDS:;
#ATTACKS:;

//---------------dance-single - ----------------
#NOTES:
     dance-single:
     :
     Challenge:
     11:
     0.713721,0.915582,0.166092,0.352115,1.086242,752.000000,727.000000,25.000000,53.000000,29.000000,0.000000,0.713721,0.915582,0.166092,0.352115,1.086242,752.000000,727.000000,25.000000,53.000000,29.000000,0.000000:
// measure 0
0000
0000
0000
0000
,  // measure 1
0000
0000
0000
0000
,  // measure 2
0000
0000
0000
0000
,  // measure 3
0000
0000
0000
0000
,  // measure 4
0002
0000
0103
0001
0010
0100
1000
0002
,  // measure 5
0000
0000
0000
0000
0103
0000
0001
0000
0010
0000
0100
1000
0001
0100
0010
1000
,  // measure 6
0100
0000
0010
0100
0000
1000
0001
0200
0010
0000
1000
0000
0310
0000
0100
0000
,  // measure 7
0001
0000
0010
0001
0000
1000
0010
0200
0001
0000
0000
0000
0310
1000
0100
0010
,  // measure 8
0002
0000
0013
0001
0100
0010
1000
0002
,  // measure 9
0000
0000
0000
0000
0013
0000
0001
0000
0100
0000
0010
1000
0001
0010
0100
1000
,  // measure 10
0010
0000
0100
0010
0000
1000
0001
0020
0100
0000
1000
0000
0130
0000
0010
0000
,  // measure 11
0001
0000
0100
0010
1000
0000
0001
0010
0100
0000
1000
0010
0100
0000
0001
1000
,  // measure 12
0002
0000
0000
0003
0002
0000
0023
0230
,  // measure 13
0000
0000
0000
0000
0000
0000
0300
0000
0200
0000
0300
0000
1000
0010
0100
0001
,  // measure 14
0001
1000
0000
0001
0000
0010
0000
1000
0000
0010
0000
0100
0000
0000
1000
0001
,  // measure 15
0000
0000
0100
0000
0010
0000
1000
0000
0100
0000
0010
0000
0000
0000
0001
0100
0000
0000
0000
0000
0001
0000
1000
0000
0100
0000
0000
0000
0010
0000
0000
0000
,  // measure 16
1001
0000
0001
0000
1000
0000
0001
0000
0010
0000
0000
0100
0000
1000
0000
0000
,  // measure 17
0010
0000
0100
0000
0010
0000
1000
0000
0001
0000
0000
0010
0000
0100
0010
0000
,  // measure 18
0001
0000
1000
0000
0001
0000
1000
0000
0010
0000
0000
0100
0000
0001
0000
0000
,  // measure 19
0010
0000
0100
0000
0010
0000
0001
0000
1000
0000
0000
0010
0000
0100
0010
0000
,  // measure 20
1000
0001
0100
0001
1000
0100
0010
0001
1000
0001
0100
0010
1000
0010
0100
0001
,  // measure 21
0010
0100
1000
0001
0100
0010
0100
0001
0010
0100
1000
0001
0100
0010
1000
0001
,  // measure 22
0010
0100
0010
0100
1000
0001
1000
0001
0100
0010
1000
0001
0010
0100
1000
0010
,  // measure 23
0100
0001
0100
0001
0100
0000
0010
0000
1000
0000
0001
0000
0010
0000
0100
0000
2000
0000
0000
0000
0000
0000
0000
0000
3001
0000
0000
0000
0100
0000
0001
0000
,  // measure 24
2002
0000
0000
3003
1000
0100
0000
0001
0M00
0001
0100
0000
0010
0000
0000
0001
,  // measure 25
00M0
0001
1000
0000
0400
0000
0300
0001
0M00
0001
0010
0100
4000
0000
0000
3000
,  // measure 26
1001
0000
0000
0000
0000
0000
0000
0000
0000
0000
0000
0000
0000
0000
0000
0000
0000
0000
0000
0000
0000
0000
0000
0000
0000
0000
0000
0000
0000
0000
0000
0000
0000
0000
0000
0000
0000
0000
0000
0000
0000
0000
0000
0000
0000
0000
0000
0000
0001
0000
0000
0000
0000
0000
0000
0000
0000
0000
0000
0000
1000
0000
0000
0000
0001
0000
0000
0000
0000
0000
0000
0000
0100
0000
0000
0000
0000
0000
0000
0000
0000
0000
0000
0000
1000
0000
0000
0000
0000
0000
0000
0000
0000
0000
0000
0000
0M00
0000
0000
0000
0000
0000
0000
0000
0000
0000
0000
0000
1000
0000
0000
0000
0000
0000
0000
0000
0000
0000
0000
0000
0010
0000
0000
0000
0000
0000
0000
0000
0000
0000
0000
0000
0000
0000
0000
0000
0000
0000
0000
0000
0000
0000
0000
0000
0110
0000
0000
0000
0000
0000
0000
0000
0000
0000
0000
0000
0000
0000
0000
0000
0000
0000
0000
0000
0000
0000
0000
0000
0100
0000
0000
0000
0000
0000
00M0
0000
0000
0000
0000
0000
0100
0000
0000
0000
0000
0000
0000
0000
0000
0000
0000
0000
,  // measure 27
1000
0001
0000
0010
0000
1000
0000
0010
0000
0100
1000
0001
0101
0000
0110
0000
,  // measure 28
2020
0000
0000
3030
1000
0010
0000
0001
00M0
0001
1000
0000
0100
0010
0000
1000
,  // measure 29
00M0
0000
0000
1000
0000
0000
0100
0000
0000
0000
0000
0000
0010
0000
0000
0100
0000
0000
0000
0000
0000
0001
0000
0000
00M0
0000
0000
0001
0000
0000
0010
0000
0000
0100
0000
0000
1000
0000
0001
0000
1000
0000
0010
0000
0000
0000
0000
0000
,  // measure 30
0110
0000
0000
0000
0000
0000
0000
0000
0000
0000
0000
0000
0000
0000
0000
0000
0000
0000
0000
0000
0000
0000
0000
0000
0000
0000
0000
0000
0000
0000
0000
0000
0000
0000
0000
0000
0000
0000
0000
0000
0000
0000
0000
0000
0000
0000
0000
0000
1000
0000
0000
0000
0000
0000
0000
0000
0000
0000
0000
0000
0001
0000
0000
0000
1000
0000
0000
0000
0000
0000
0000
0000
0100
0000
0000
0000
0000
0000
0000
0000
0000
0000
0000
0000
0001
0000
0000
0000
0000
0000
0000
0000
0000
0000
0000
0000
00M0
0000
0000
0000
0000
0000
0000
0000
0000
0000
0000
0000
0001
0000
0000
0000
0000
0000
0000
0000
0000
0000
0000
0000
0010
0000
0000
0000
0000
0000
0000
0000
0000
0000
0000
0000
0000
0000
0000
0000
0000
0000
0000
0000
0000
0000
0000
0000
0110
0000
0000
0000
0000
0000
0000
0000
0000
0000
0000
0000
0000
0000
0000
0000
0000
0000
0000
0000
0000
0000
0000
0000
0100
0000
0000
0000
0000
0000
00M0
0000
0000
0000
0000
0000
0100
0000
0000
0000
0000
0000
0000
0000
0000
0000
0000
0000
,  // measure 31
0010
0000
1000
0001
0010
0000
0100
1000
0001
0000
0100
0010
2000
0000
0000
3000
,  // measure 32
1002
0000
0000
0000
0013
0100
1000
0001
0000
0100
0000
0001
0040
0000
0000
0000
,  // measure 33
0130
0010
0001
0100
1000
0100
0010
1000
0000
0100
0000
0001
0000
0100
0010
0001
,  // measure 34
1002
0000
0000
0000
0000
0000
0000
0000
0103
0000
0000
0000
0010
0000
0100
0000
00M0
0000
0100
0000
0000
0000
1000
0000
0001
0000
0000
0000
0100
00M0
0100
0000
,  // measure 35
2000
0000
0000
3000
0001
0010
0100
0001
0100
1000
0001
0100
0010
0000
1000
0000
,  // measure 36
2001
0000
0000
0000
3100
0010
0001
1000
0000
0010
0000
1000
0400
0000
0000
0000
,  // measure 37
0310
0100
1000
0010
0001
0010
0100
0001
0000
0010
0000
1000
0000
0010
0100
1000
,  // measure 38
2001
0000
0000
0000
0000
0000
0000
0000
0000
0000
0000
0000
3010
0000
0000
0000
0000
0000
0100
0000
0000
0010
0000
0000
0000
0000
0000
00M0
0000
0000
0001
0000
1000
0000
0001
0000
0100
0000
0000
0010
0000
0000
0100
0000
0001
0000
1000
0000
,  // measure 39
0100
0000
0000
0000
0110
0000
0000
1100
0000
0000
0001
1000
0010
0000
0100
0000
,  // measure 40
0102
0000
0000
0000
,  // measure 41
0000
0000
0000
0000
,  // measure 42
0003
0000
0000
0000
,  // measure 43
0001
0000
1000
0000
0000
1000
0000
0000
0010
0000
1000
0100
0010
0001
0100
0010
,  // measure 44
1000
0000
0000
0000
0000
0000
0100
0000
0000
0000
0000
0000
0000
0000
0000
0100
0000
0000
0000
0000
0000
0000
0000
0000
0100
0000
0000
0000
0000
0000
1000
0000
0001
0000
1000
0000
0001
0000
0000
0000
0000
0000
0100
0000
0000
0000
0000
0000
,  // measure 45
0010
1000
0001
0000
0000
0001
0000
0000
0001
0000
0000
0001
0020
0000
0230
0000
,  // measure 46
2300
0000
3020
0000
0230
0000
0301
1000
0000
0000
0100
0010
0001
1000
0010
0000
,  // measure 47
0100
0000
0000
0000
0000
0000
0010
0000
0000
1000
0000
0000
0001
0000
0000
0010
0000
0000
0000
0000
0000
0200
0000
0000
0000
0000
0000
0000
0000
0000
0310
0000
0000
0001
0000
0000
1000
0000
0001
0000
0100
0000
0010
0000
1000
0000
0100
0000
,  // measure 48
0020
0000
0000
0000
0032
0000
0000
0000
0103
0000
0010
1000
0000
0100
1000
0001
,  // measure 49
0001
0100
0000
0010
0000
1000
0000
0200
0000
0320
0000
0032
0000
0000
1003
0000
,  // measure 50
0010
0000
0100
0010
1000
0001
0000
0010
0000
0001
0000
0100
1000
0000
0100
0000
,  // measure 51
0001
0000
0000
1000
0000
0000
0000
0000
0000
0001
0000
0000
0010
0000
0000
0001
0000
0000
0000
0000
0000
0200
0000
0000
0000
0000
0000
0000
0000
0000
0310
0000
0000
1000
0000
0000
0100
0000
0010
0000
0001
0000
1000
0000
0010
0000
1000
0000
,  // measure 52
0200
0000
0000
0000
0320
0000
0000
0000
0130
0000
0010
0001
0100
0000
0010
0000
,  // measure 53
0001
0000
0010
0200
0000
0000
0301
0000
0010
0100
0000
2000
0000
0000
3001
1000
,  // measure 54
0000
0100
0000
0010
0100
1000
0000
0002
0000
0000
0103
0010
1000
0000
0001
0000
,  // measure 55
1001
0000
1000
0000
0001
0000
1000
0000
0100
0000
0000
0010
0000
0001
0000
0000
,  // measure 56
0100
0000
0010
0000
0100
0000
0001
0000
1000
0000
0000
0100
0000
0010
0100
0000
,  // measure 57
1000
0001
0100
0001
1000
0100
0010
0001
1000
0001
0100
0010
1000
0010
0100
0001
,  // measure 58
0010
0100
1000
0001
0100
0010
0100
0001
0010
0100
1000
0001
0100
0010
1000
0001
,  // measure 59
0010
0100
0010
0100
1000
0001
1000
0001
0100
0010
1000
0100
0010
0001
1000
0010
,  // measure 60
0100
0001
0100
0001
0100
0000
0010
0000
1000
0000
0001
0000
0010
0000
0100
0000
2000
0000
0000
0000
0000
0000
0000
0000
3001
0000
0000
0000
0010
0000
0000
0000
,  // measure 61
0220
0000
0000
0000
0000
0000
0330
0000
0001
0000
0000
0000
0010
0000
1000
0000
00M0
0000
1000
0000
0100
00M0
0100
0000
0010
0000
0000
0000
0000
0000
0001
0000
,  // measure 62
00M0
0000
0001
0000
0100
00M0
0100
0000
1000
0000
0001
0000
0010
0000
1000
0000
00M0
0000
1000
0000
0100
0000
0010
0000
0004
0000
0000
0000
0000
0000
0003
0000
,  // measure 63
1001
0000
0000
0000
0000
0000
0000
0000
0000
0000
0000
0000
0000
0000
0000
0000
0000
0000
0000
0000
0000
0000
0000
0000
0000
0000
0000
0000
0000
0000
0000
0000
0000
0000
0000
0000
0000
0000
0000
0000
0000
0000
0000
0000
0000
0000
0000
0000
1000
0000
0000
0000
0000
0000
0000
0000
0000
0000
0000
0000
0001
0000
0000
0000
1000
0000
0000
0000
0000
0000
0000
0000
0010
0000
0000
0000
0000
0000
0000
0000
0000
0000
0000
0000
0001
0000
0000
0000
0000
0000
0000
0000
0000
0000
0000
0000
00M0
0000
0000
0000
0000
0000
0000
0000
0000
0000
0000
0000
0001
0000
0000
0000
0000
0000
0000
0000
0000
0000
0000
0000
0100
0000
0000
0000
0000
0000
00M0
0000
0000
0000
0000
0000
0100
0000
0000
0000
0000
0000
0000
0000
0000
0000
0000
0000
1000
0000
0000
0000
0000
0000
0000
0000
0000
0000
0000
0000
0000
0000
0000
0000
0000
0000
0000
0000
0000
0000
0000
0000
0040
0000
0000
0000
0000
0000
0000
0000
0000
0000
0000
0000
0000
0000
0000
0000
0000
0000
0000
0000
0000
0000
0000
0000
,  // measure 64
0130
0000
0001
0000
1000
0001
1000
0000
0100
0000
0010
0000
0001
0000
0100
0000
0010
0000
0000
0000
1000
0000
0001
0000
1001
0000
0000
0000
1100
0000
0000
0000
,  // measure 65
0110
0000
0000
0000
0000
0000
0000
0000
0001
0000
0000
0000
0100
0000
1000
0000
0M00
0000
1000
0000
0010
0M00
0010
0000
0100
0000
0000
0000
0000
0000
0001
0000
,  // measure 66
0M00
0000
0000
0000
0000
0000
0000
0000
0000
0000
0000
0000
0001
0000
0000
0000
0000
0000
0000
0000
0000
0000
0000
0000
0010
0000
0000
0000
0000
0000
0M00
0000
0000
0000
0000
0000
0010
0000
0000
0000
0000
0000
0000
0000
0000
0000
0000
0000
1000
0000
0000
0000
0000
0000
0000
0000
0000
0000
0000
0000
0001
0000
0000
0000
0000
0000
0100
0000
0000
0000
0000
0000
0001
0000
0000
0000
0000
0000
0000
0000
0000
0000
0000
0000
1000
0000
0000
0000
0000
0000
0000
0000
0000
0000
0000
0000
0200
0000
0000
0000
0000
0000
0000
0000
0000
0000
0000
0000
0000
0000
0000
0000
0000
0000
0000
0000
0000
0000
0000
0000
0000
0000
0000
0000
0000
0000
0000
0000
0000
0000
0000
0000
0310
0000
0000
0000
0000
0000
0000
0000
0000
0000
0000
0000
0001
0000
0000
0000
0000
0000
0000
0000
1000
0000
0000
0000
0000
0000
0000
0000
0001
0000
0000
0000
0000
0000
0000
0000
0100
0000
0000
0000
0000
0000
0000
0000
0000
0000
0000
0000
0000
0000
0000
0000
0000
0000
0000
0000
0000
0000
0000
0000
,  // measure 67
0110
0000
0000
0000
0000
0000
0000
0000
0000
0000
0000
0000
0000
0000
0000
0000
0000
0000
0000
0000
0000
0000
0000
0000
0000
0000
0000
0000
0000
0000
0000
0000
0000
0000
0000
0000
0000
0000
0000
0000
0000
0000
0000
0000
0000
0000
0000
0000
0001
0000
0000
0000
0000
0000
0000
0000
0000
0000
0000
0000
1000
0000
0000
0000
0001
0000
0000
0000
0000
0000
0000
0000
0010
0000
0000
0000
0000
0000
0000
0000
0000
0000
0000
0000
1000
0000
0000
0000
0000
0000
0000
0000
0000
0000
0000
0000
0M00
0000
0000
0000
0000
0000
0000
0000
0000
0000
0000
0000
1000
0000
0000
0000
0000
0000
0000
0000
0000
0000
0000
0000
0100
0000
0000
0000
0000
0000
0000
0000
0000
0000
0000
0000
0000
0000
0000
0000
0000
0000
0000
0000
0000
0000
0000
0000
0110
0000
0000
0000
0000
0000
0000
0000
0000
0000
0000
0000
0000
0000
0000
0000
0000
0000
0000
0000
0000
0000
0000
0000
0010
0000
0000
0000
0000
0000
0M00
0000
0000
0000
0000
0000
0010
0000
0000
0000
0000
0000
0000
0000
0000
0000
0000
0000
,  // measure 68
1000
0000
0001
0010
0100
0000
1000
0010
0100
0000
0010
1000
0002
0000
0000
0003
,  // measure 69
2001
0000
0000
0000
3100
0000
0010
0001
0100
0000
0010
0000
1000
0001
0100
00M0
,  // measure 70
0200
0000
0010
0000
1300
0000
0001
1000
0010
0000
0100
0001
0100
0010
1000
0100
,  // measure 71
0010
0000
0100
1000
0000
0001
0100
0001
2000
0000
0000
0000
3001
0010
0100
00M0
,  // measure 72
0100
0000
0001
1000
0000
0100
0010
0001
1000
0001
0100
0010
0100
0001
0010
0100
,  // measure 73
2000
0000
0000
0000
3001
0000
0100
0001
0010
0000
0100
0000
0010
0001
0100
00M0
,  // measure 74
0200
0000
1000
0000
0310
0000
0100
1000
0010
0000
0100
0001
0010
0100
1000
0010
,  // measure 75
0100
0000
0010
1000
0000
0001
0010
0001
2000
0000
0000
0000
3010
0100
0001
0000
,  // measure 76
0010
0000
0100
1000
0010
0000
0100
0001
1000
0000
0100
0010
0001
0000
1000
0010
,  // measure 77
0200
0000
0000
0000
,  // measure 78
0000
0000
0000
0300
;

//---------------dance-single - sangyule----------------
#NOTES:
     dance-single:
     :
     Beginner:
     1:
     0.097757,0.153469,0.086368,0.000000,0.000000,103.000000,90.000000,13.000000,0.000000,0.000000,0.000000,0.097757,0.153469,0.086368,0.000000,0.000000,103.000000,90.000000,13.000000,0.000000,0.000000,0.000000:
0000
0000
0000
0000
,
0000
0000
0000
0000
,
0000
0000
0000
0000
,
0000
0000
0000
0000
,
0001
0000
0000
0000
,
0001
0000
0000
0000
,
1000
0000
0000
0000
,
0010
0000
0000
0000
,
0100
0000
0000
0000
,
0100
0000
0000
0000
,
0001
0000
0000
0000
,
1000
0000
0000
0000
,
0100
0000
0000
0000
,
1000
0000
0000
0000
,
0001
0000
0000
0000
,
0010
0000
0000
0000
,
0100
0000
0000
0000
,
1000
0000
1000
0000
,
0001
0000
0000
0000
,
0100
0000
0100
0000
,
0010
0000
0010
0000
,
1000
0000
1000
0000
,
0001
0000
0001
0000
,
1000
0000
0000
0000
,
1001
0000
0000
0000
,
0001
0000
0000
0000
,
1001
0000
0000
0000
,
1000
0000
0000
0000
,
0110
0000
0000
0000
,
0100
0000
0000
0000
,
0110
0000
0000
0000
,
0010
0000
0000
0000
,
1001
0000
0000
0000
,
1000
0000
0000
0000
,
1001
0000
0000
0000
,
0001
0000
0000
0000
,
0110
0000
0000
0000
,
0010
0000
0000
0000
,
0110
0000
0000
0000
,
1000
0000
0001
0000
,
0100
0000
0000
0000
,
0000
0000
0000
0000
,
0000
0000
0000
0000
,
0001
0000
0000
0000
,
0001
0000
0000
0000
,
1000
0000
0000
0000
,
1000
0000
0000
0000
,
0100
0000
0000
0000
,
0010
0000
0000
0000
,
0001
0000
0000
0000
,
1000
0000
0000
0000
,
0001
0000
0000
0000
,
0001
0000
0000
0000
,
0100
0000
0000
0000
,
0010
0000
0000
0000
,
1000
0000
0000
0000
,
0001
0000
0001
0000
,
1000
0000
1000
0000
,
0100
0000
0100
0000
,
0010
0000
0010
0000
,
0001
0000
0000
0000
,
0110
0000
1000
0000
,
0000
0000
1000
0000
,
0110
0000
0001
0000
,
0000
0000
0001
0000
,
1001
0000
0100
0000
,
0000
0000
0010
0000
,
1001
0000
0010
0000
,
0100
0000
0000
0000
,
1001
0000
0000
0000
,
1000
0000
1000
0000
,
0010
0000
0000
0000
,
0100
0000
0100
0000
,
0001
0000
0000
0000
,
1000
0000
1000
0000
,
0001
0000
0001
0000
,
0010
0000
0000
0000
,
0100
0000
0000
0000
;

//---------------dance-single - sangyule----------------
#NOTES:
     dance-single:
     :
     Easy:
     3:
     0.216394,0.259104,0.053149,0.099655,0.003322,228.000000,220.000000,8.000000,15.000000,0.000000,0.000000,0.216394,0.259104,0.053149,0.099655,0.003322,228.000000,220.000000,8.000000,15.000000,0.000000,0.000000:
0000
0000
0000
0000
,
0000
0000
0000
0000
,
0000
0000
0000
0000
,
0000
0000
0000
0000
,
0000
0001
0000
0001
,
0000
1000
0000
1000
,
0000
0010
0000
0010
,
0000
0100
0000
0100
,
0000
0001
0000
0001
,
0000
1000
0000
1000
,
0000
0100
0000
0100
,
0000
0010
0000
0010
,
0002
1000
0000
0100
,
2003
0001
0000
3010
,
0002
0010
0000
1000
,
0203
0010
0302
1000
,
0013
0010
0100
0100
,
1000
0001
0100
0010
,
1000
1000
0001
0001
,
0010
0100
1000
0001
,
0100
0010
0100
0010
,
1000
0001
1000
0001
,
0010
0100
1000
0001
,
0100
0100
0010
0000
,
1001
0000
0001
0010
,
0001
1000
0001
0200
,
0310
0000
1000
0100
,
1000
1000
0001
0001
,
0100
0000
0001
0100
,
0001
1000
0001
0010
,
0100
0000
1000
0010
,
0100
0100
0001
0002
,
1003
0000
0100
0100
,
0010
0000
0001
0001
,
2000
3000
0010
0010
,
0100
0001
0010
0100
,
1000
0000
0001
0001
,
0100
0000
0010
0010
,
2000
3000
0001
0001
,
0010
0000
0000
0000
0010
0000
0000
0200
0000
0000
0000
0000
0000
0000
0000
0000
,
2300
0000
0000
0000
,
0000
0000
0000
0000
,
3000
0000
0000
0000
,
0001
0000
0001
0000
,
0010
0000
0010
0000
,
0100
0000
0100
0000
,
1000
0000
1000
0000
,
0001
0100
0000
0010
,
0000
1000
0000
0001
,
0010
0100
0000
1000
,
0000
0001
0000
0100
,
0010
1000
0000
0001
,
0000
0010
0000
0001
,
0100
0010
0000
1000
,
0000
0100
0000
1000
,
0001
0001
0100
0100
,
0010
1000
0010
0100
,
0001
0001
1000
1000
,
0100
0010
0001
1000
,
0010
0100
0010
1000
,
0001
0001
1000
0000
,
1001
0001
0011
0000
,
0010
0000
0110
0100
,
1000
0001
0101
0000
,
0100
0100
0010
0010
,
1000
0001
1001
0000
,
1000
0000
1010
0010
,
0100
0001
0101
0100
,
0020
0000
0000
0030
,
1000
1000
0001
0010
,
0100
0100
1000
1000
,
0001
0001
0200
0000
,
0310
0010
1000
1000
,
0001
0001
0010
0100
,
0010
0010
0001
0001
,
1000
1000
0010
0010
,
0100
0100
0002
0000
,
2003
0000
0000
0000
,
3000
0000
0000
0000
;

//---------------dance-single - sangyule----------------
#NOTES:
     dance-single:
     :
     Medium:
     7:
     0.422348,0.440476,0.139517,0.265747,0.285678,445.000000,424.000000,21.000000,40.000000,16.000000,0.000000,0.422348,0.440476,0.139517,0.265747,0.285678,445.000000,424.000000,21.000000,40.000000,16.000000,0.000000:
0000
0000
0000
0000
,
0000
0000
0000
0000
,
0000
0000
0000
0000
,
0000
0000
0000
0000
,
0002
0000
0013
0000
0100
1000
0001
0200
,
0000
0000
0310
0000
1000
0100
0010
0001
,
0200
0000
0310
0000
1000
0001
1000
0200
,
0010
0000
2300
0000
0010
0000
3001
0100
,
0002
0000
1003
0000
0100
0010
0001
2000
,
0000
0000
3010
0000
0100
0001
0010
0100
,
2000
0000
3001
0000
0100
0001
1000
0002
,
0010
0010
1000
1003
,
0020
0000
0100
0000
1030
0000
0001
0020
,
0000
0000
0100
0000
0031
0000
1000
0010
,
0200
0000
0001
0000
0310
1000
0001
0020
,
0000
0230
1000
0310
,
0011
0000
0001
0000
1000
0000
0001
0000
0100
0000
0000
0001
0000
1000
0000
0000
,
0100
0000
0010
0000
0100
0000
0010
0000
0001
0000
0000
1000
0000
0001
1000
0000
,
0010
0000
0100
0000
0010
0000
0100
0000
0001
0000
0000
1000
0000
0001
0000
0000
,
1000
0000
0100
0000
0010
0000
0001
0000
1000
0000
0000
0010
0000
1000
0010
0000
,
0100
0001
0100
0001
1000
0100
0010
0001
,
1000
0010
0100
0010
1000
0001
1000
0100
,
0010
0001
0100
0010
1000
0001
1000
0001
,
0040
0000
0130
M00M
,
0110
0000
0000
0000
0001
0000
0000
1000
0000
0100
0000
0000
0011
0000
0000
1000
,
0000
0100
0000
0000
0011
0000
0000
1000
0000
0100
0000
0000
0010
0000
0000
0000
,
0110
0000
0000
0000
1000
0000
0001
0100
0000
0001
0000
0000
1000
0000
0000
0000
,
0000
0001
0000
0010
0000
1000
0000
0020
0000
0000
0031
0000
1000
0000
0001
0000
,
0201
0000
0000
0000
0310
0000
0000
1000
0000
0010
0000
0000
0101
0000
0000
1000
,
0000
0010
0000
0000
0101
0000
0000
1000
0000
0010
0000
0000
0100
0000
0001
0000
,
1001
0000
0000
0000
1000
0000
0001
1000
0000
0100
0000
0000
0020
0000
0000
0000
,
0031
1000
0010
1000
0001
1000
0100
0000
,
0110
0000
0000
0000
0001
0000
0000
1000
0000
0001
0000
0100
0000
0010
0000
0000
,
2000
0000
0000
0000
3100
0000
0010
0000
0000
0001
0000
1000
0000
0001
0100
0000
,
0020
0000
0000
0000
1030
0000
0000
0100
0000
1000
0000
0001
0000
0100
0000
0000
,
0020
0000
0000
0000
0030
1000
0000
0001
0000
0000
0100
0000
0010
0000
0010
0000
,
2000
0000
0000
0000
3001
0000
0000
0010
0000
0100
0000
1000
0000
0100
0000
0000
,
0020
0000
0000
0000
0031
0000
1000
0000
0000
0010
0000
0100
0000
0010
0100
0000
,
0002
0000
0000
0000
1003
0000
0000
0100
0000
0000
0040
0000
0031
0000
1000
0000
,
1010
0000
0000
0000
1010
0000
0000
0002
0000
0000
0000
0000
0013
0000
0100
0000
,
200M
000M
000M
000M
,
000M
000M
300M
000M
,
M000
M000
M000
M000
,
0001
0000
1000
0000
0000
0010
0000
0000
1000
0000
0000
0001
0000
0000
0010
0000
,
0000
0000
0100
0000
0000
1000
0000
0000
0100
0000
0000
0000
0010
0000
0001
0000
,
1000
0000
0001
0000
0000
0100
0000
0000
0010
0000
0000
1000
0000
0000
0001
0000
,
0000
0000
1000
0000
0000
0100
0000
0000
1000
0000
0000
0000
0010
0000
0100
0000
,
0001
0000
1000
0000
0000
0100
0000
0000
1000
0000
0000
0001
0000
0000
0100
0000
,
0010
0000
1000
0000
0000
0001
0000
0000
0010
0000
0000
0000
0001
0000
0100
0000
,
0010
0000
1000
0000
0000
0010
0000
0000
0100
0000
0000
0001
0000
0000
1000
0000
,
0100
0000
0010
0000
0000
0001
0000
0000
0010
0000
0000
0000
0100
0000
1000
0000
,
0001
0000
1000
0000
0000
0010
0000
0000
0100
0000
0000
0001
0000
0000
1000
0000
,
0001
0000
0010
0000
0000
0001
0000
0000
1000
0000
0000
0000
0010
0000
0100
0000
,
0001
0000
0010
0000
0000
0100
0000
0000
1000
0000
0000
0100
0000
0000
0010
0000
,
0001
0000
1000
0000
0000
0010
0000
0000
0100
0000
0000
0000
0001
0000
1000
0000
,
1001
0000
0001
0000
0010
0000
0100
0000
1000
0000
0000
0001
0000
1000
0000
0000
,
0001
0000
0100
0000
0001
0000
0100
0000
0010
0000
0000
1000
0000
0001
1000
0000
,
0100
0010
0100
0010
0001
1000
0001
1000
,
0010
0100
0010
1000
0001
0010
0001
1000
,
0100
0010
0001
1000
0010
1000
0010
0100
,
0004
0000
0000
0000
1003
0000
00M0
0M00
,
2001
0000
3010
0000
0101
0001
0010
0000
,
1100
1000
0010
0000
0101
0001
0020
0000
,
0032
0000
0103
0000
1010
1000
0100
0000
,
0000
1000
0000
0010
0000
0001
0000
0020
0000
0000
1030
0000
0001
0000
0001
0000
,
0020
0000
0130
0000
0011
0001
0100
0000
,
0010
0000
1000
0000
0400
0000
0000
0300
0011
0000
0000
0001
0000
0000
2000
0000
,
3020
0000
0130
0000
0011
0001
1000
0000
,
0010
0100
0010
0100
0001
0000
1000
0000
,
0002
0000
1003
0010
0001
0010
0100
0002
,
0000
0000
1003
0100
0001
0100
1000
0010
,
0100
0000
0001
0100
0000
0010
0000
2000
0000
0000
0000
0000
3000
0000
0001
0000
,
0010
0000
0000
0001
0000
1000
0000
0002
0000
0000
0000
0000
0103
0000
0010
0000
,
2000
0000
0000
3001
0100
1000
0100
0010
,
2000
0000
3100
0010
1000
0010
0001
0100
,
0010
0000
0000
1000
0000
0001
0000
2000
0000
0000
0000
0000
3000
0000
0100
0000
,
0001
0100
1000
0010
0001
0010
1000
0001
,
2000
0000
0000
0000
,
3000
0000
0000
0000
;

//---------------dance-single - sangyule----------------
#NOTES:
     dance-single:
     :
     Hard:
     9:
     0.559018,0.595938,0.112943,0.265747,0.700908,589.000000,572.000000,17.000000,40.000000,27.000000,0.000000,0.559018,0.595938,0.112943,0.265747,0.700908,589.000000,572.000000,17.000000,40.000000,27.000000,0.000000:
0000
0000
0000
0000
,
0000
0000
0000
0000
,
0000
0000
0000
0000
,
0000
0000
0000
0000
,
0002
0000
1003
0010
0100
0001
1000
0002
,
0000
0000
0000
0000
1003
0000
0100
0000
0010
0000
0001
0000
0100
0010
1000
0001
,
1000
0000
0100
0010
0000
0001
0000
2000
0000
0000
0000
0000
3000
0000
0010
0000
,
0100
0000
0001
0100
0000
0000
0010
2000
0000
0000
0000
0000
3000
0100
0010
0001
,
2000
0000
3010
0100
0001
0010
0100
2000
,
0000
0000
0000
0000
3001
0000
0100
0000
0010
0000
1000
0000
0001
0010
0100
1000
,
0010
0000
0100
0001
0000
1000
0200
0000
0000
0000
0300
0000
0000
0000
0010
0000
,
0001
0000
1000
0100
1000
0000
0001
0100
0001
0000
1000
0100
0010
0000
0001
1000
,
0002
0000
0100
0000
2003
0000
3100
0020
,
0000
0000
0000
0000
0001
0000
0000
0000
0130
0000
0000
0000
1000
0001
0100
0010
,
0100
0001
0000
1000
0000
0100
0000
0010
0000
0001
0000
1000
0000
0000
0001
1000
,
0000
0010
0000
0100
0001
0100
0000
0020
0000
0000
1030
0000
0100
0000
0010
0000
,
0011
0000
0001
0000
2000
0000
0000
0000
0000
0000
3000
0000
0000
0010
0100
0001
,
0010
0000
0100
1000
0100
0000
0010
0001
0010
0000
0001
1000
0010
0000
0100
0010
,
1000
0000
0001
0000
0020
0000
0000
0000
0000
0000
0000
0000
0030
0100
1000
0001
,
1000
0000
0010
0100
0010
0000
1000
0001
1000
0000
0100
0010
0001
0000
1000
0000
,
0010
0000
0100
0000
0001
0000
1000
0000
0001
0000
0010
0000
0100
1000
0100
0010
,
0001
0000
0100
0010
1000
0000
0100
0010
0001
0000
0100
0010
1000
0000
0001
1000
,
0100
0000
0010
0000
0001
0000
0010
0000
0100
0000
1000
0000
0010
1000
0010
0100
,
0001
0000
0010
0100
1000
0000
0001
0100
0010
0000
0000
0000
0010
0000
0000
0000
,
1001
0000
0000
0000
1000
0000
0001
0100
00M0
0100
1000
0000
0001
0000
0000
0100
,
00M0
0100
1000
0000
0001
0000
0000
0100
00M0
0100
1000
0000
0100
0000
0000
0000
,
0020
0000
0000
0000
0031
0000
1000
0010
0M00
0010
0001
0000
0100
0000
0010
1000
,
0000
0001
0000
0010
0000
1000
0000
0010
0000
0001
1000
0001
0100
0000
0100
0000
,
0120
0000
0000
0000
1030
0000
0001
0010
0M00
0010
1000
0000
0001
0000
0000
0010
,
0M00
0010
1000
0000
0001
0000
0000
0010
0M00
0010
1000
0000
0001
0000
0001
0000
,
0011
0000
0000
0000
1000
0000
0001
0100
00M0
0100
1000
0000
0010
0000
0100
0000
,
0001
0000
1000
0100
1000
0000
0001
0010
0001
0000
1000
0010
0100
0000
0000
0000
,
0101
0000
0000
0000
0001
0000
0010
0100
0000
1000
0000
0001
0000
0200
0000
0000
,
0310
0000
0000
0000
1000
0001
1000
0001
0000
0010
0000
1000
0000
0010
0001
1000
,
0020
0000
0000
0000
0130
0000
0001
1000
0000
1000
0000
0100
0000
0010
0000
0000
,
0011
0000
0000
0000
0001
0100
0000
0010
0000
1000
0100
1000
0001
0000
0100
0000
,
0110
0000
0000
0000
0010
0000
1000
0001
0000
1000
0000
0100
0000
0010
0000
0000
,
0110
0000
0000
0000
0100
0001
0100
0001
0000
0010
0000
0100
0000
1000
0001
0100
,
0020
0000
0000
0000
1030
0000
0100
1000
0000
0010
0100
0001
1000
0000
1000
0000
,
1100
0000
0000
0000
0011
0000
0000
2020
0000
0000
0000
0000
3030
0000
0000
0000
,
0M02
0M00
0M00
0M00
,
0M00
0M00
0M00
0M00
,
00M3
00M0
00M0
00M0
,
0100
0000
0001
0000
0000
0001
0000
0000
0001
0000
0000
0001
0000
0000
1000
0100
,
0000
0000
1000
0000
0000
1000
0000
0000
1000
0000
0010
0100
0001
0000
1000
0000
,
0001
0010
0100
0000
0000
0100
0000
0000
0100
0000
0000
0100
0000
0000
1000
0001
,
0000
0000
1000
0000
0000
1000
0000
0000
1000
0000
0000
0000
0010
0000
0100
0000
,
0101
0000
0001
0000
1000
0100
0000
2000
0000
0000
3010
0000
0100
0001
0100
0010
,
1000
0000
0000
0000
0001
0000
0000
0000
0010
0000
0100
1000
0100
0000
2000
0000
,
3001
0010
0000
0001
0000
0100
0000
0010
0000
1000
0000
0010
0000
0000
0100
0000
,
0001
0000
1000
0100
0010
0001
0000
0010
0000
0100
0000
1000
0000
0000
0010
0000
,
0100
0001
0000
0010
0100
1000
0000
0002
0000
0000
0103
0000
0010
1000
0100
0010
,
0100
0000
0000
0000
1000
0000
0000
0000
0001
0000
0100
0010
1000
0000
0010
0000
,
0100
1000
0000
0200
0000
0000
0000
0000
0000
0000
0000
0000
0300
0000
0000
0000
,
0000
0001
0000
1000
0100
0010
0000
0002
0000
0000
0103
0000
0001
0000
0100
0000
,
0110
0000
0010
0000
2000
0000
0000
0000
0000
0000
0000
0000
3000
0001
0010
0100
,
1000
0000
0001
0100
0001
0000
1000
0010
1000
0000
0001
0010
0100
0000
1000
0000
,
0001
0000
0100
0000
0020
0000
0000
0000
0000
0000
0000
0000
0030
1000
0001
1000
,
0100
0000
0010
0001
0010
0000
0100
1000
0100
0000
1000
0010
0100
0000
0001
0000
,
1000
0000
0100
0000
1000
0000
0100
0000
0010
0000
0001
0000
1000
0001
0100
0010
,
0100
0000
0001
0010
0100
0000
1000
0100
0010
0000
0000
0000
0001
0000
0001
0000
,
1002
0000
0000
0000
0013
0000
0001
0100
00M0
0100
1000
0001
1000
0000
0000
0100
,
00M0
0100
0001
1000
0001
0000
0000
0010
0M00
0010
1000
0000
0040
0000
0000
0000
,
0230
0000
0000
0000
0301
0000
1000
0010
0M00
0010
0001
1000
0040
0000
0000
0000
,
0130
0001
0000
0010
0000
1000
0000
0020
0000
0000
0031
1000
0010
0000
0010
0000
,
0120
0000
0000
0000
1030
0000
0001
0010
0M00
0010
1000
0001
1000
0000
0000
0010
,
0M00
0010
0001
1000
0004
0000
0000
0000
0013
0100
0000
1000
0040
0000
0000
0000
,
0230
0000
0000
0000
0301
0000
1000
0100
00M0
0100
0010
0000
1000
0000
0001
0000
,
0010
0000
0001
1000
0001
0000
0100
0001
0100
0000
0010
1000
0100
0000
0000
0000
,
1100
0000
1000
0010
0001
0010
0100
0020
,
0000
0000
0000
0000
1030
0000
0100
0000
0001
0000
0100
1000
0000
0100
0010
0001
,
0100
0000
0010
1000
0000
0001
0010
0200
0000
0000
0000
0000
0300
0000
0010
0000
,
0001
0000
1000
0001
0000
0100
0010
2000
0000
0000
0000
3000
0000
0100
0010
0001
,
2000
0000
3001
0100
1000
0100
0010
0200
,
0000
0000
0000
0000
0301
0000
0010
0000
1000
0000
0010
0001
0000
1000
0010
0100
,
0001
0000
1000
0001
0000
0010
0200
0000
0000
0000
0000
0000
0300
0000
1000
0000
,
1001
0000
0001
0100
0010
0000
1000
0100
1000
0000
0001
1000
0001
0000
0100
0010
,
0200
0000
0000
0000
,
0300
0000
0000
0000
;
