#VERSION:0.83;
#TITLE:Outbreak;
#SUBTITLE:;
#ARTIST:Zomboy;
#TITLETRANSLIT:;
#SUBTITLETRANSLIT:;
#ARTISTTRANSLIT:;
#GENRE:;
#ORIGIN:;
#CREDIT:;
#BANNER:outbreakbn.jpg;
#BACKGROUND:outbreak.jpg;
#PREVIEWVID:;
#JACKET:;
#CDIMAGE:;
#DISCIMAGE:;
#LYRICSPATH:;
#CDTITLE:;
#MUSIC:Outbreak.ogg;
#OFFSET:-0.093000;
#SAMPLESTART:54.949997;
#SAMPLELENGTH:12.000000;
#SELECTABLE:YES;
#BPMS:0.000=140.000;
#STOPS:;
#DELAYS:;
#WARPS:;
#TIMESIGNATURES:0.000=4=4;
#TICKCOUNTS:0.000=4;
#COMBOS:0.000=1;
#SPEEDS:0.000=1.000=0.000=0;
#SCROLLS:0.000=1.000;
#FAKES:;
#LABELS:0.000=Song Start;
#BGCHANGES:;
#KEYSOUNDS:;
#ATTACKS:
;

//---------------dance-single - ----------------
#NOTEDATA:;
#CHARTNAME:;
#STEPSTYPE:dance-single;
#DESCRIPTION:;
#CHARTSTYLE:;
#DIFFICULTY:Challenge;
#METER:12;
#RADARVALUES:0.791644,0.991314,0.246289,0.418692,0.923585,675.000000,645.000000,30.000000,51.000000,26.000000,0.000000,6.000000,0.000000,0.000000,0.791644,0.991314,0.246289,0.418692,0.923585,675.000000,645.000000,30.000000,51.000000,26.000000,0.000000,6.000000,0.000000,0.000000;
#CREDIT:Maxx & CopperPuppy;
#NOTES:
0000
0000
0000
0000
,
0000
0000
0000
0000
,
0000
0000
0000
0000
,
0000
0000
0000
0000
,
0001
0000
0000
0000
1000
0000
1000
0010
0100
0000
0001
0000
0000
1000
0000
0000
,
0100
0000
0010
0000
0010
0000
0010
0001
1000
0010
0100
0000
0000
0001
0000
0000
,
1000
0000
0000
0000
0100
0000
0100
0010
0100
0000
1000
0000
0000
0001
0000
0000
,
0100
0000
0010
0000
0010
1000
0001
0000
0010
0000
0000
0001
0000
0000
1000
0000
,
1100
0000
1000
0000
0001
0000
0100
0010
1000
0000
0001
0010
0000
0100
1000
0001
,
0100
0000
0010
1000
0000
0001
1000
0100
0010
0000
0001
0000
1000
0200
0000
0000
,
0310
0000
0001
0000
0100
0010
0100
0001
1000
0000
0100
0010
0000
0001
1000
0010
,
1000
0000
0001
0100
0000
0001
1000
0100
0010
0000
0001
0000
1000
0002
0000
0000
,
0013
0100
1000
0001
0100
0000
0010
0100
0001
0000
1000
0000
0100
0002
0000
0000
,
0103
1000
0001
0100
0010
1000
0001
0010
0001
1000
0010
1000
0001
0200
0000
0300
,
0001
0000
1000
0100
0010
0001
1000
0010
0100
0000
0001
1000
0010
0000
2000
0000
,
3001
0000
1000
0100
0010
0000
0001
0100
0010
0000
1000
0000
0010
0002
0000
0000
,
0013
0000
1000
0000
0001
0000
0010
0100
1000
0000
0001
0000
0100
0010
0000
0000
,
1000
0000
0000
0001
0000
0100
0010
1000
0001
0000
0010
0000
0100
1000
0000
0000
,
0001
0000
0000
0000
0100
0000
0000
0000
0001
0000
0000
0000
1000
0000
0000
0000
0000
0000
0100
0000
0000
0000
0000
0000
0010
0000
0000
0000
0000
0000
0001
0000
0000
1000
0000
0000
0010
0000
0000
0000
0000
0000
1000
0000
0000
0001
0000
0000
,
0010
0000
0100
1000
0001
0100
0010
0100
0001
0000
1000
0000
0001
0020
0000
0000
,
0130
0000
1000
0001
0100
0000
0001
0000
0010
0M00
0010
0000
1000
0000
0100
M000
,
0100
0000
0010
000M
0010
0000
0001
0010
0100
0000
1000
0000
0001
0200
0000
0300
,
0001
1000
0000
0100
0000
0010
0001
1000
0010
0000
0100
0001
1000
0100
0000
0000
,
0010
0001
0010
0000
0100
0000
1000
0001
1000
0000
0010
0000
1000
0100
0010
0000
,
0011
0000
2000
0000
0000
3001
0010
0100
,
1000
0001
0100
0020
0000
0130
0001
2000
,
3000
0000
0200
0000
0310
0001
1000
0100
,
1000
0001
0100
2000
0000
3100
0001
1000
,
0001
0010
0001
0010
0100
1000
0100
1000
,
0001
0100
0001
0100
0010
1000
0010
1000
,
0001
0100
0010
1000
0001
0010
0100
1000
0001
0100
0010
0100
0001
1000
0100
1000
,
0001
0000
0100
0000
0010
0000
1000
0000
0001
0000
0010
0000
0001
0000
1000
0000
0010
0000
0100
0000
0001
0000
1000
0000
0100
0000
0000
0000
0000
0000
1000
0000
0000
0000
0000
0000
0010
0000
0000
1000
0000
0000
0100
0000
0000
0000
0000
0000
,
2010
0000
0000
3100
0001
0100
1000
0002
0010
0000
1003
0000
0001
1000
0100
1000
,
0012
0000
0000
0103
1000
0100
0001
2000
0010
0000
3001
0000
1000
0100
01M0
0100
,
2010
0000
0000
0000
0000
0000
3100
0000
0001
0000
0100
0000
1000
0000
0002
0000
0010
0000
0000
0000
1003
0000
0000
0000
0010
0M00
0010
0000
0002
0000
0000
0000
,
1003
0000
0000
0000
0000
0000
0010
0000
0100
0000
0010
0000
1000
0000
0000
0000
0000
0000
0001
0000
0000
1000
0000
0000
0100
0000
0000
0000
0000
0000
1000
0000
0000
0000
0000
0000
0010
0000
0000
0000
0000
0000
1000
0000
0000
0000
0000
0000
,
0102
0000
0000
0013
1000
0010
0001
2000
0100
0000
3001
0000
1000
0001
0010
0001
,
2100
0000
0000
3010
0001
0010
1000
0002
0100
0000
1003
0000
0001
0010
0M10
0010
,
0102
0000
0000
0000
0000
0000
0013
0000
1000
0000
0010
0000
0001
0000
2000
0000
0100
0000
0000
0000
3001
0000
0000
0000
0100
00M0
0100
0000
2000
0000
0000
0000
,
3004
0000
0000
0000
0000
0000
0000
0000
0000
0000
0000
0000
0000
0000
0000
0000
0000
0000
0000
0000
0000
0000
0000
0000
1003
0000
0000
0000
0000
0000
0010
0000
0100
0000
0001
0000
1000
0000
0000
0100
0000
0000
1000
0000
0000
0001
0000
0000
,
0100
0000
1000
0M00
1000
0000
0001
0010
0001
1000
0010
0000
0010
0000
1000
0000
,
0100
0000
0001
0M00
0001
0000
1000
0100
2000
0000
3020
0000
0130
0001
2000
0000
,
3010
0000
0000
0000
0001
0000
00M0
0000
0001
0000
0000
0000
1000
0000
0001
0000
1000
0000
0000
0000
0100
00M0
0100
0000
0000
0000
0010
0M00
0010
0000
0000
0000
,
0001
0000
0100
0000
01M0
0000
0100
0000
0000
0000
0010
0M00
0010
0000
0001
0000
1000
0000
0000
0000
0100
0000
0000
0000
0110
0000
0000
0000
0010
0000
0001
0000
,
0100
0000
1000
00M0
1000
0001
0010
0001
2000
0000
0100
0000
3001
0000
1000
0100
,
0010
0000
1000
0M00
1000
0001
0100
0001
2000
0000
0010
0000
3001
0000
1000
0010
,
0100
0000
1000
00M0
1000
0001
0010
0001
2000
0000
0100
0000
3001
0010
0M10
0010
,
0101
1000
0101
0010
0101
1000
0101
0010
0101
1000
0010
0000
1000
0001
0100
0000
,
1010
0000
1000
0000
0100
0000
0010
0001
1100
0001
0010
0000
0100
0000
2000
0000
,
3001
0020
0000
0000
0031
0000
0100
0001
1010
0001
0100
0000
0010
0000
2000
0000
,
3004
0000
0000
0000
1003
0000
0010
1000
0101
1000
0010
0000
0100
0000
0002
0000
,
0013
0000
0000
0000
0000
0000
0100
0000
0010
0000
0001
0000
1000
0000
0000
0000
0000
0000
0010
0000
0000
0000
0000
0000
0200
0000
0000
0000
0000
0000
0302
0000
0000
0000
0000
0000
1003
0000
0000
0100
0000
0000
0010
0000
0000
0000
0000
0000
,
0011
0000
0001
0000
0100
0000
0010
1000
0101
1000
0010
0000
0100
0000
0002
0000
,
1003
0020
0000
0000
1030
0000
0100
1000
0011
1000
0100
0000
0010
0000
0002
0000
,
0403
0000
0000
0000
0301
0000
0010
0001
1100
0001
0010
0000
0100
0000
1000
0000
,
1001
0000
0000
0000
0000
0000
0000
0000
0000
0101
0000
0000
0000
0000
0000
0000
0000
0000
1010
0000
0000
0000
0000
0000
1000
0000
0000
0000
0000
0000
0001
0000
0010
0000
0001
0000
1000
0000
0000
0010
0000
0000
0100
0000
0000
0001
0000
0000
,
2000
0000
0000
0000
3001
0000
1000
0000
0010
0M00
0010
0000
0002
0000
0000
0000
,
1003
0000
0010
0000
1000
0000
0001
0000
0100
00M0
0100
0000
2000
0000
0000
0000
,
3004
0000
0000
0000
0000
0000
0000
0000
1003
0000
0100
00M0
0100
0000
0001
0000
1000
0000
0010
0M00
0010
0000
0001
0000
1000
0000
0000
0000
0000
0000
0001
0000
,
1000
0000
0100
00M0
0100
0000
0001
0000
1000
0000
0010
0M00
0010
0000
0001
1000
0100
0000
0000
0000
1000
0000
0000
0000
0010
0000
1000
0000
0001
0000
0010
0000
,
0200
0000
0000
0000
1300
0000
0001
0000
0100
00M0
0100
0000
2000
0000
0000
0000
,
3001
0000
0100
0000
0001
0000
1000
0000
0010
0M00
0010
0000
0002
0000
0000
0000
,
1003
0200
0000
0000
0310
0000
0001
0000
1000
0020
0000
0000
1030
0100
0010
0001
,
1100
0000
0010
0000
1100
0000
0001
0000
1100
0000
0010
0000
1100
0000
0001
0000
1100
0000
0001
1000
0001
0000
0010
0000
0100
0000
1000
0000
0001
0000
0100
0000
,
0010
0000
0000
0000
1000
0000
1000
0001
0010
0000
0100
0000
0000
1000
0000
0000
,
0001
0000
0100
0000
0100
0000
0100
0001
1000
0000
0100
0000
0000
0010
0002
0000
,
1003
0000
0000
0000
0001
0000
0001
0100
0010
0000
1000
0000
0000
0100
0000
0000
,
0010
0100
0100
0100
1000
0001
0400
0310
,
4000
0000
0000
0000
,
3000
0000
0000
0000
;

//---------------dance-single - ----------------
#NOTEDATA:;
#CHARTNAME:;
#STEPSTYPE:dance-single;
#DESCRIPTION:;
#CHARTSTYLE:;
#DIFFICULTY:Beginner;
#METER:1;
#RADARVALUES:0.091479,0.111651,0.041048,0.032839,0.000000,78.000000,73.000000,5.000000,4.000000,0.000000,0.000000,0.000000,0.000000,0.000000,0.091479,0.111651,0.041048,0.032839,0.000000,78.000000,73.000000,5.000000,4.000000,0.000000,0.000000,0.000000,0.000000,0.000000;
#CREDIT:Maxx;
#NOTES:
0000
0000
0000
0000
,
0000
0000
0000
0000
,
0000
0000
0000
0000
,
0000
0000
0000
0000
,
1000
0000
0000
0000
,
0001
0000
0000
0000
,
1000
0000
0000
0000
,
0001
0000
0000
0000
,
0010
0000
0010
0000
,
0010
0000
0000
0000
,
0100
0000
0100
0000
,
0100
0000
0000
0000
,
1000
0000
1000
0000
,
1000
0000
0000
0000
,
0001
0000
0001
0000
,
0001
0000
0000
0000
,
1000
0000
0000
0000
,
0001
0000
0000
0000
,
0100
0000
0000
0000
,
0010
0000
0000
0000
,
1000
0000
0000
0000
,
0001
0000
0000
0000
,
0010
0000
0000
0000
,
0100
0000
0000
0000
,
2000
0000
0000
0000
,
3001
0000
0000
0000
,
0002
0000
0000
0000
,
1003
0000
0000
0000
,
2000
0000
0000
0000
,
3001
0000
0000
0000
,
0002
0000
0000
0000
,
1003
0000
0000
0000
,
1001
0000
0000
0000
,
1000
0000
0000
0000
,
0001
0000
0000
0000
,
0100
0000
0000
0000
,
0101
0000
0000
0000
,
0001
0000
0000
0000
,
1000
0000
0000
0000
,
0100
0000
0000
0000
,
0110
0000
0000
0000
,
0010
0000
0000
0000
,
0001
0000
0000
0000
,
1000
0000
0000
0000
,
1010
0000
0000
0000
,
0010
0000
0000
0000
,
0100
0000
0000
0000
,
0001
0000
0000
0000
,
1000
0000
1000
0000
,
1000
0000
0000
0000
,
0001
0000
0001
0000
,
0001
0000
0000
0000
,
1000
0000
1000
0000
,
1000
0000
0000
0000
,
0001
0000
0001
0000
,
0001
0000
0000
0000
,
1000
0000
0000
0000
,
0001
0000
0000
0000
,
0010
0000
0000
0000
,
0100
0000
0000
0000
,
1000
0000
0000
0000
,
0001
0000
0000
0000
,
0100
0000
0000
0000
,
0010
0000
0000
0000
,
1000
0000
0000
0000
,
0001
0000
0000
0000
,
1000
0000
0000
0000
,
0001
0000
0000
0000
,
1001
0000
0000
0000
;

//---------------dance-single - ----------------
#NOTEDATA:;
#CHARTNAME:;
#STEPSTYPE:dance-single;
#DESCRIPTION:;
#CHARTSTYLE:;
#DIFFICULTY:Easy;
#METER:2;
#RADARVALUES:0.158329,0.226586,0.090306,0.024629,0.000000,135.000000,124.000000,11.000000,3.000000,0.000000,0.000000,1.000000,0.000000,0.000000,0.158329,0.226586,0.090306,0.024629,0.000000,135.000000,124.000000,11.000000,3.000000,0.000000,0.000000,1.000000,0.000000,0.000000;
#CREDIT:Maxx;
#NOTES:
// measure 0
0000
0000
0000
0000
,  // measure 1
0000
0000
0000
0000
,  // measure 2
0000
0000
0000
0000
,  // measure 3
0000
0000
0000
0000
,  // measure 4
1000
0000
1000
0000
,  // measure 5
0001
0000
0001
0000
,  // measure 6
1000
0000
1000
0000
,  // measure 7
0001
0000
0000
0000
,  // measure 8
1001
0000
0001
0000
,  // measure 9
1000
0000
0001
0000
,  // measure 10
0010
0000
0100
0000
,  // measure 11
0010
0000
0100
0000
,  // measure 12
1000
0000
0001
0000
,  // measure 13
1000
0000
0001
0000
,  // measure 14
0100
0000
0010
0000
,  // measure 15
0100
0000
0010
0000
,  // measure 16
1000
0000
1000
0000
,  // measure 17
0001
0000
0001
0000
,  // measure 18
0010
0000
0100
0000
,  // measure 19
1000
0000
0001
0000
,  // measure 20
0100
0000
0100
0000
,  // measure 21
0010
0000
0010
0000
,  // measure 22
1000
0000
1000
0000
,  // measure 23
0001
0000
0001
0000
,  // measure 24
1001
0000
1000
0000
,  // measure 25
0010
0000
0100
0000
,  // measure 26
0001
0000
1000
0000
,  // measure 27
0100
0000
0010
0000
,  // measure 28
0001
0000
1000
0000
,  // measure 29
0010
0000
0100
0000
,  // measure 30
0001
0000
1000
0000
,  // measure 31
0100
0000
0010
0000
,  // measure 32
0011
0000
0001
0000
,  // measure 33
1001
0000
1000
0000
,  // measure 34
1010
0000
1000
0000
,  // measure 35
1001
0000
0001
0000
,  // measure 36
0101
0000
0001
0000
,  // measure 37
1001
0000
1000
0000
,  // measure 38
1100
0000
1000
0000
,  // measure 39
1001
0000
0000
0000
,  // measure 40
0001
0000
0001
0000
,  // measure 41
1000
0000
1000
0000
,  // measure 42
0001
0000
0001
0000
,  // measure 43
1000
0000
1000
0000
,  // measure 44
0010
0000
0010
0000
,  // measure 45
0100
0000
0100
0000
,  // measure 46
0010
0000
0010
0000
,  // measure 47
2000
0000
0000
0000
,  // measure 48
3001
0000
0001
0000
,  // measure 49
1000
0000
1000
0000
,  // measure 50
0010
0000
0010
0000
,  // measure 51
0100
0000
0100
0000
,  // measure 52
0001
0000
0001
0000
,  // measure 53
1000
0000
1000
0000
,  // measure 54
0100
0000
0100
0000
,  // measure 55
0020
0000
0000
0000
,  // measure 56
0031
0000
1000
0000
,  // measure 57
0001
0000
1000
0000
,  // measure 58
0010
0000
0100
0000
,  // measure 59
0010
0000
0100
0000
,  // measure 60
0001
0000
1000
0000
,  // measure 61
0001
0000
1000
0000
,  // measure 62
0100
0000
0010
0000
,  // measure 63
0400
0000
0300
0000
,  // measure 64
1001
0000
1000
0000
,  // measure 65
0010
0000
0100
0000
,  // measure 66
0001
0000
0010
0000
,  // measure 67
0100
0000
1000
0000
,  // measure 68
0002
0000
0000
0000
,  // measure 69
0003
0000
0000
0000
;

//---------------dance-single - ----------------
#NOTEDATA:;
#CHARTNAME:;
#STEPSTYPE:dance-single;
#DESCRIPTION:;
#CHARTSTYLE:;
#DIFFICULTY:Medium;
#METER:5;
#RADARVALUES:0.336595,0.339879,0.082096,0.016419,0.000000,287.000000,277.000000,10.000000,2.000000,0.000000,0.000000,3.000000,0.000000,0.000000,0.336595,0.339879,0.082096,0.016419,0.000000,287.000000,277.000000,10.000000,2.000000,0.000000,0.000000,3.000000,0.000000,0.000000;
#CREDIT:Maxx;
#NOTES:
0000
0000
0000
0000
,
0000
0000
0000
0000
,
0000
0000
0000
0000
,
0000
0000
0000
0000
,
1000
0000
0001
0000
1000
0000
0001
0100
,
0010
0000
0100
0000
0010
0000
1000
0001
,
0010
0000
0001
0000
0010
0000
0100
1000
,
0001
0000
0000
0000
,
1000
0001
1000
0001
,
0100
0010
0100
0010
,
1000
0001
1000
0001
,
0010
0100
0010
0100
,
1000
0001
1000
0001
,
0100
0010
0100
0010
,
1000
0001
1000
0001
,
0010
0100
0010
0100
,
1000
0000
0010
0000
1000
0000
0010
0100
,
0001
0000
0100
0000
0001
0000
0100
0010
,
1000
0000
0010
0000
1000
0000
0010
0100
,
0001
0000
0100
0000
0001
0000
1000
0100
,
0010
0000
0001
0000
0010
0000
0001
0010
,
0100
0000
1000
0000
0100
0000
1000
0100
,
0010
0000
0001
0000
0010
0000
0001
0010
,
0100
1000
0100
1000
,
1001
0001
0100
0001
,
0100
0010
0100
0010
,
1000
0010
1000
0010
,
1000
0001
1000
0001
,
0010
0100
0010
0100
,
1000
0001
1000
0001
,
0100
0001
0100
0001
,
1000
0100
0010
0001
,
1001
0001
0100
0001
,
1001
1000
0100
1000
,
1001
1000
0010
1000
,
1001
0001
0010
0001
,
1001
0001
0100
0001
,
1001
1000
0100
1000
,
1001
1000
0010
1000
,
0004
0000
0000
0000
,
1003
0100
1000
0000
0001
0000
1000
0000
,
0001
0100
0001
0000
1000
0000
0001
0000
,
0010
0001
0010
0000
0001
0000
1000
0000
,
0010
0100
0001
1000
,
0001
0010
0001
0000
1000
0000
0001
0000
,
1000
0010
1000
0000
0001
0000
1000
0000
,
0001
0100
0001
0000
1000
0000
0100
0000
,
0040
0000
0000
0000
0000
0030
0001
0000
,
1001
0000
1000
0000
0010
0100
0001
0000
,
1000
0000
0001
0000
0010
0100
1000
0000
,
0001
0000
1000
0000
0010
0100
0001
0000
,
1000
0001
0010
0100
,
1000
0000
0001
0000
0100
0010
1000
0000
,
0001
0000
1000
0000
0100
0010
0001
0000
,
1000
0000
0001
0000
0100
0010
1000
0000
,
0002
0000
0000
0000
,
1003
0000
0100
0000
0010
0001
1000
0000
,
0001
0000
0100
0000
0010
1000
0001
0000
,
1000
0000
0100
0000
0010
0001
1000
0000
,
0001
0100
0010
0000
1000
0100
0010
0000
,
0001
0000
1000
0000
0001
0100
0010
0000
,
1000
0000
0001
0000
1000
0100
0010
0000
,
0001
0100
0010
1000
,
0004
0000
0003
1000
,
1001
0000
0001
0100
0010
0000
1000
0000
,
0001
0000
1000
0100
0010
0000
0001
0000
,
1000
0000
0010
0100
0001
0000
1000
0000
,
0001
0000
0010
0100
1000
0000
0010
0000
,
0200
0000
0000
0000
,
0300
0000
0000
0000
;

//---------------dance-single - ----------------
#NOTEDATA:;
#CHARTNAME:;
#STEPSTYPE:dance-single;
#DESCRIPTION:;
#CHARTSTYLE:;
#DIFFICULTY:Hard;
#METER:9;
#RADARVALUES:0.607513,0.679758,0.114935,0.270918,0.369434,518.000000,504.000000,14.000000,33.000000,10.000000,0.000000,12.000000,0.000000,0.000000,0.607513,0.679758,0.114935,0.270918,0.369434,518.000000,504.000000,14.000000,33.000000,10.000000,0.000000,12.000000,0.000000,0.000000;
#CREDIT:Maxx;
#NOTES:
0000
0000
0000
0000
,
0000
0000
0000
0000
,
0000
0000
0000
0000
,
0000
0000
0000
0000
,
0001
0000
0000
0000
1000
0000
1000
0001
0010
0000
0001
0000
0000
1000
0000
0000
,
0010
0000
0100
0000
0100
0000
0001
1000
0100
0000
0010
0000
0000
0001
0000
0000
,
1000
0000
0000
0000
0001
0000
0001
1000
0010
0000
0100
0000
0000
0001
0000
0000
,
1000
0000
0100
0000
0100
0010
0001
0000
1000
0000
0000
0010
0000
0000
1000
0000
,
1001
0000
1000
0000
0100
0000
0010
0100
0010
0000
0001
0000
1000
0000
0010
0000
,
0100
0010
1000
0001
0020
0000
0230
0000
,
0300
0000
1000
0000
0001
0100
0001
0000
1000
0000
0100
0000
0010
0000
0001
0000
,
1000
0010
0100
0010
2000
0000
3002
0000
,
1003
0100
0020
0000
0032
0000
2003
0000
,
3001
0100
0010
1000
0001
0010
0100
0000
,
0000
1000
0001
0100
0010
1000
0010
0200
,
0000
0000
0301
1000
0001
0000
1000
0000
0100
0000
0010
0000
0011
0000
0000
0000
,
0000
0001
1000
0100
0020
0000
0032
0000
,
2003
0000
3010
0100
0002
0000
2003
0000
,
3001
0000
0010
0000
0001
0000
1000
0000
0010
0000
0100
0000
0010
0000
1000
0001
,
1000
0100
0010
0001
2000
0000
3020
0000
,
0130
0000
0001
1000
0001
0000
0010
0000
0100
0000
0100
0000
1000
0000
0001
0000
,
0001
0100
0010
1000
0002
0000
2003
0000
,
3100
0010
0001
1000
0010
0100
0001
0000
,
1000
0100
0010
0001
1000
0010
0100
0001
,
1000
0000
2001
0000
0000
3001
0010
0100
,
1000
0001
0100
0020
0000
0130
0001
2000
,
3000
0000
0200
0000
0310
0001
1000
0100
,
1000
0001
0100
2000
0000
3100
0001
1000
,
0001
0010
0001
0010
0100
1000
0100
1000
,
0001
0100
0001
0100
0010
1000
0010
0100
,
0004
4000
0000
0000
0000
0000
0000
0000
0000
0000
0000
0000
0000
0000
0000
0003
,
3100
0000
0010
0000
0001
0000
1000
0000
0010
0000
0100
0000
0001
1000
0001
0000
,
2001
0000
0000
3001
0100
0000
0010
0000
1000
0000
0001
0000
1000
0001
1000
0000
,
1002
0000
0000
1003
0100
0000
0010
0000
0001
0000
1000
0000
0001
1000
0001
1000
,
0020
0000
0000
1030
0001
0000
0010
0000
0100
0000
1000
0000
0010
0100
0010
0000
,
1000
0000
0004
0000
0000
0000
1003
0100
0010
0000
0001
0000
1000
0000
0001
0000
,
2001
0000
0000
3001
0100
0000
0010
0000
1000
0000
0001
0000
1000
0001
1000
0000
,
1002
0000
0000
1003
0100
0000
0010
0000
0001
0000
1000
0000
0001
1000
0001
1000
,
0020
0000
0000
1030
0001
0000
0010
0000
0100
0000
1000
0000
0010
0100
0010
0000
,
4000
0000
0000
0000
0000
0000
0000
0000
3001
0000
1000
0001
1000
0000
0001
0000
,
1000
0000
0100
00M0
0100
0000
0001
1000
0001
1000
0100
0000
0010
0000
0001
0000
,
1000
0000
0100
00M0
0100
0000
0001
1000
0001
0000
0001
0000
1000
0100
1000
0000
,
0001
0000
0100
00M0
0100
0000
1000
0001
1000
0000
0001
0100
0000
0001
0100
0000
,
0010
1000
0010
1000
0000
0001
0100
0000
0010
0000
1000
0000
1001
0000
1000
0001
,
1000
0000
0100
00M0
0100
0000
0001
1000
0001
0000
0010
0000
0100
0000
1000
0000
,
0001
0000
0100
00M0
0100
0000
1000
0001
1000
0000
0010
0000
0100
0000
0001
0000
,
1000
0000
0100
00M0
0100
0000
0001
1000
0001
0000
0100
0000
0001
1000
0001
1000
,
0400
0000
0000
0000
0000
0000
0000
0000
0300
0000
1000
0000
0001
1000
0010
0000
,
1010
0000
1000
0000
0001
0000
1000
0100
1000
0100
0010
0000
0001
0000
1000
0000
,
0001
1000
0001
0000
0100
0000
0010
1000
0010
1000
0001
0000
0010
0000
0100
0000
,
4000
0000
0000
0000
3001
0000
1000
0010
1000
0010
0100
0000
0001
0000
1000
0000
,
0100
0000
1000
0001
1000
0000
0010
0000
0100
0000
0001
0000
0010
0100
0010
0000
,
0110
0000
0100
0000
1000
0000
0001
0100
0001
0100
0010
0000
1000
0000
0001
0000
,
1000
0100
1000
0000
0001
0000
1000
0010
1000
0010
0100
0000
0001
0000
1000
0000
,
0400
0000
0000
0000
1300
0000
0001
0100
0001
0100
0010
0000
1000
0000
0001
0000
,
0101
0000
0000
1001
0000
0000
1100
0000
1000
0000
0001
0010
0001
0010
0100
1000
,
0002
0000
0000
0000
1003
0000
0001
0000
0100
00M0
0100
0000
2000
0000
0000
0000
,
3001
0000
1000
0000
0010
0M00
0010
0000
0001
0000
1000
0000
0200
0000
0000
0000
,
0340
0000
0000
0000
0031
1000
0001
0000
0100
0000
0010
0000
1000
0000
0000
0001
,
1000
0001
0010
0000
0100
0000
1000
0001
1000
0000
0010
0000
0400
0000
0000
0000
,
0301
0000
0000
0000
1000
0000
0001
0000
0100
00M0
0100
0000
2000
0000
0000
0000
,
3001
0000
0100
0000
0010
0000
1000
0000
0100
00M0
0100
0000
0002
0000
0000
0000
,
1003
0100
1000
0000
0001
0000
1000
0000
0001
0100
0001
0000
1000
0000
0100
0000
,
0040
0000
0000
0000
0000
0031
1000
0010
,
0110
0000
0000
0000
1000
0000
1000
0001
0010
0000
0100
0000
0000
1000
0000
0000
,
0001
0000
0100
0000
0010
0000
0100
0001
1000
0000
0100
0000
0000
0010
0000
0000
,
0001
0000
0000
0000
1000
0000
1000
0001
0100
0000
0010
0000
0000
1000
0000
0000
,
0100
0010
0010
0010
0001
1000
0040
0130
,
0004
0000
0000
0000
,
0003
0000
0000
0000
;
