#VERSION:0.83;
#TITLE:On A Fukn Plane;
#SUBTITLE:;
#ARTIST:12th Planet & Skrillex;
#TITLETRANSLIT:;
#SUBTITLETRANSLIT:;
#ARTISTTRANSLIT:;
#GENRE:;
#ORIGIN:;
#CREDIT:;
#BANNER:on a fkn plane-bn.png;
#BACKGROUND:on a fkn plane-bg.png;
#PREVIEWVID:;
#JACKET:on a fkn plane jacket.png;
#CDIMAGE:;
#DISCIMAGE:;
#LYRICSPATH:;
#CDTITLE:;
#MUSIC:On A Fukn Plane.ogg;
#OFFSET:-0.015000;
#SAMPLESTART:114.035004;
#SAMPLELENGTH:15.000000;
#SELECTABLE:YES;
#BPMS:0.000=200.000;
#STOPS:;
#DELAYS:;
#WARPS:;
#TIMESIGNATURES:0.000=4=4;
#TICKCOUNTS:0.000=4;
#COMBOS:0.000=1;
#SPEEDS:0.000=1.000=0.000=0;
#SCROLLS:0.000=1.000,
379.500=0.000,
383.000=1.000;
#FAKES:;
#LABELS:0.000=Song Start;
#LASTSECONDHINT:114.030968;
#BGCHANGES:;
#KEYSOUNDS:;
#ATTACKS:
;

//---------------dance-single - ----------------
#NOTEDATA:;
#CHARTNAME:;
#STEPSTYPE:dance-single;
#DESCRIPTION:;
#CHARTSTYLE:;
#DIFFICULTY:Challenge;
#METER:11;
#RADARVALUES:0.723283,1.031286,0.237088,0.382400,0.317392,662.000000,620.000000,31.000000,50.000000,27.000000,19.000000,20.000000,0.000000,0.000000,0.723283,1.031286,0.237088,0.382400,0.317392,662.000000,620.000000,31.000000,50.000000,27.000000,19.000000,20.000000,0.000000,0.000000;
#CREDIT:CopperPuppy;
#NOTES:
// measure 0
0000
0000
0000
0000
,  // measure 1
0000
0000
0000
0000
,  // measure 2
0000
0000
0000
0000
,  // measure 3
0000
0000
0000
0000
,  // measure 4
0000
0000
0000
0000
,  // measure 5
0000
0000
0000
0000
,  // measure 6
0000
0000
0000
0000
,  // measure 7
0000
0000
0000
0000
,  // measure 8
1001
0000
1000
0100
0010
0000
0010
0000
,  // measure 9
0010
0001
1000
0000
0010
0000
0100
0001
,  // measure 10
0010
0000
0001
1000
0010
0000
0010
0000
,  // measure 11
0010
1000
0100
0000
0002
0000
0203
0000
,  // measure 12
1300
0000
0001
0000
0100
0000
0010
0000
0100
0000
0001
0000
1000
0100
1000
0100
,  // measure 13
0010
0000
0100
0000
1000
0000
0001
0000
0100
0000
0010
0000
1000
0001
1000
0001
,  // measure 14
0100
0000
0010
0000
1000
0000
0001
0000
0010
0000
0001
0000
1000
0010
1000
0010
,  // measure 15
0100
0000
0001
0000
1000
0000
0100
0000
1000
0000
0001
0000
0100
0010
0100
0010
,  // measure 16
4000
0000
0000
0000
,  // measure 17
0000
0000
0000
0000
,  // measure 18
0000
0000
0000
0000
,  // measure 19
3000
0001
1000
0100
0010
0100
1000
0001
,  // measure 20
0101
0001
1000
0100
0010
0000
0001
0001
,  // measure 21
1000
0000
0010
0010
0100
0000
0001
1000
,  // measure 22
1001
1000
0001
0100
0010
0000
1000
1000
,  // measure 23
0001
0000
0000
0000
0010
0000
0010
0000
0200
0000
0000
0000
1300
0001
1000
0001
,  // measure 24
0100
0100
0010
1000
0001
0000
0010
0010
,  // measure 25
0100
0000
1000
1000
0001
0000
0100
0001
,  // measure 26
0101
0001
1000
0100
0010
0000
0100
0100
,  // measure 27
1000
0000
0000
0000
0001
0000
0001
0000
2000
0000
0000
0000
3100
0010
0100
0010
,  // measure 28
0001
0000
0010
0000
0001
0000
1000
0000
0010
0000
1000
0000
0001
0100
0001
0100
,  // measure 29
0010
0000
1000
0000
0001
0000
1000
0000
0100
0000
0010
0000
0001
1000
0001
1000
,  // measure 30
0100
0000
0010
0000
0001
0000
1000
0000
0010
0000
1000
0000
0001
0010
0001
0010
,  // measure 31
0100
0000
1000
0000
0001
0000
1000
0000
0010
0000
0100
0000
0001
1000
0001
1000
,  // measure 32
0100
0100
0010
0001
1000
1000
0010
0100
,  // measure 33
0001
0001
1000
0100
0010
0010
0001
1000
,  // measure 34
0001
0100
0001
1000
0100
1000
0001
0010
0001
1000
0010
1000
0001
0100
0001
1000
,  // measure 35
0100
0000
0000
0000
0010
0000
0001
1000
,  // measure 36
4101
0000
0000
0000
0000
0000
0000
0000
3010
0M00
0010
0000
0002
0000
0000
0000
,  // measure 37
1003
0010
1000
0100
0020
0000
0032
0000
,  // measure 38
2103
0000
0000
0000
3012
0000
0000
0000
0103
M000
0100
0000
2000
0000
0000
0000
,  // measure 39
3001
0000
0010
0000
0001
0000
0100
0000
0010
0000
1000
0000
0200
0000
0000
0300
,  // measure 40
4110
0000
0000
0000
3001
0010
0001
1000
,  // measure 41
0100
00M0
0100
0000
0002
0000
0000
0003
0002
0000
0000
0000
2003
0000
0000
0000
,  // measure 42
3010
0000
0000
0100
0000
0000
0001
0000
0000
1000
0000
0000
0200
0000
0000
0000
0000
0000
1300
0000
0000
0000
0010
0000
,  // measure 43
0100
0000
0001
0000
0010
0M00
0010
0000
2000
0000
0000
0000
3001
0000
0010
0000
,  // measure 44
1014
0000
0000
0000
0000
0000
0000
0000
0103
00M0
0100
0000
2000
0000
0000
0000
,  // measure 45
3001
0010
0001
0100
0020
0000
2030
0000
,  // measure 46
3102
0000
0000
0000
2013
0000
0000
0000
3100
00M0
0100
0000
0002
0000
0000
0000
,  // measure 47
1003
0000
0010
0000
1000
0000
0100
0000
0010
0000
0001
0000
0200
0000
0000
0300
,  // measure 48
1104
0000
0000
0000
0000
0000
0000
0000
0013
0M00
0010
0000
2000
0000
0000
0000
,  // measure 49
3100
00M0
0100
0000
0001
0000
1000
0000
0200
0000
0000
0000
0310
000M
0010
0000
,  // measure 50
1000
0000
0000
0000
0001
0000
1000
0000
0100
M000
0100
0000
0010
000M
0010
0000
,  // measure 51
0001
1000
1000
0010
1000
0100
0010
0001
,  // measure 52
4101
0000
3001
0040
,  // measure 53
0000
0000
0000
0000
0130
0000
0000
0000
0014
0000
0000
0000
0000
0000
0000
0003
,  // measure 54
1104
0000
1003
0040
,  // measure 55
0000
0000
0000
0000
0130
0000
0000
0000
0104
0000
0000
0000
0000
0000
0000
0003
,  // measure 56
4011
0000
3001
0040
,  // measure 57
0000
0000
0000
0000
0031
0000
0000
0000
1004
0000
0000
0000
0000
0000
0000
0003
,  // measure 58
2010
0000
0000
0000
0000
0000
0000
0000
0000
3001
0000
0000
0001
0000
0000
0000
0000
0000
0010
0000
0000
0000
0100
0000
,  // measure 59
1000
0000
0001
0000
0100
00M0
0100
0000
2000
0000
0000
0000
3001
0000
0100
0000
,  // measure 60
0102
0000
0103
0000
0001
0000
0100
0010
,  // measure 61
1000
0000
0001
0010
0100
0000
0100
0000
,  // measure 62
0010
0001
1000
0010
1000
0000
0001
0000
,  // measure 63
0010
0100
1000
0001
0100
0000
0010
0000
,  // measure 64
1000
0000
0001
0000
0100
0000
0001
0000
1000
0000
0100
0000
0010
0001
0010
0001
,  // measure 65
1000
0000
0010
0000
0100
0000
0010
0000
1000
0000
0001
0000
0010
0100
0010
0100
,  // measure 66
1000
0000
0001
0000
0100
0000
0010
0000
1000
0000
0001
0000
1000
0100
1000
0100
,  // measure 67
0010
0000
0001
0000
1000
0000
0001
0000
0100
0000
0010
0000
1000
0001
1000
0001
,  // measure 68
0400
0000
0000
0000
,  // measure 69
0000
0000
0000
0000
,  // measure 70
0000
0000
0000
0000
,  // measure 71
0300
0001
1000
0100
1000
0001
0100
0010
,  // measure 72
1010
0010
1000
0001
0010
0000
0100
0100
,  // measure 73
1000
0000
0001
0001
0100
0000
0010
1000
,  // measure 74
1001
1000
0010
0100
0001
0000
1000
1000
,  // measure 75
0100
0000
0000
0000
1000
0000
1000
0000
0002
0000
0000
0000
0103
0010
0100
0010
,  // measure 76
1000
1000
0001
0010
0100
0000
0010
0010
,  // measure 77
0001
0000
1000
1000
0010
0000
0100
0001
,  // measure 78
0101
0001
1000
0100
0010
0000
0001
0001
,  // measure 79
1000
0000
0000
0000
0010
0000
0010
0000
0200
0000
0000
0000
0301
1000
0001
1000
,  // measure 80
0100
0000
1000
0000
0001
0000
0100
0000
0010
0000
1000
0000
0001
0010
0001
0010
,  // measure 81
0100
0000
0010
0000
0001
0000
1000
0000
0010
0000
0100
0000
0001
1000
0001
1000
,  // measure 82
0100
0000
0010
0000
0100
0000
1000
0000
0001
0000
0100
0000
0010
1000
0010
1000
,  // measure 83
0001
0000
0010
0000
0001
0000
1000
0000
0100
0000
1000
0000
0001
0100
0001
0100
,  // measure 84
0010
0010
1000
0001
0010
0010
0100
1000
,  // measure 85
0001
0001
0100
0010
1000
1000
0001
1000
,  // measure 86
0001
0010
0001
1000
0010
1000
0001
0100
0001
1000
0100
1000
0001
0010
0001
1000
,  // measure 87
0010
0000
0000
0000
0100
0000
0001
1000
,  // measure 88
1014
0000
0000
0000
0000
0000
0000
0000
0103
00M0
0100
0000
1000
0000
1000
0000
,  // measure 89
0100
00M0
0100
0000
0001
0000
0001
0000
2000
0000
0000
0000
3200
0000
0000
0000
,  // measure 90
2310
0000
0000
0000
3102
0000
0000
0000
0013
0M00
0010
0000
2000
0000
0000
0000
,  // measure 91
3010
0M00
0010
0000
0001
0000
0100
0000
01M0
0000
0100
0000
0001
0000
1000
0000
,  // measure 92
4101
0000
0000
0000
0000
0000
0000
0000
3010
0M00
0010
0000
0002
0000
0000
0000
,  // measure 93
0103
0000
0010
0000
2000
0000
0000
3000
2000
0000
0000
0000
3002
0000
0000
0000
,  // measure 94
0013
0000
0100
0000
1000
0000
0001
0000
0100
00M0
0100
0000
2000
0000
300M
0000
,  // measure 95
0000
0000
0000
0000
,  // measure 96
4011
0000
0000
0000
0000
0000
0000
0000
3100
00M0
0100
0000
0002
0000
0000
0000
,  // measure 97
1003
0010
1000
0100
0020
0000
0032
0000
,  // measure 98
2103
0000
0000
0000
3012
0000
0000
0000
0103
00M0
0100
0000
2000
0000
0000
0000
,  // measure 99
3001
0000
0010
0000
0001
0000
0100
0000
0010
0000
1000
0000
0200
0000
0000
0300
,  // measure 100
4101
0000
0000
0000
0000
0000
0000
0000
3010
0M00
0010
0000
0002
0000
0000
0000
,  // measure 101
0103
00M0
0100
0000
1000
0000
0001
0000
0200
0000
0000
0000
0310
000M
0010
0000
,  // measure 102
0002
0000
0000
0000
1003
0000
0001
0000
0100
M000
0100
0000
0010
000M
0010
0000
,  // measure 103
1000
0001
0001
0010
0001
0100
0010
1000
,  // measure 104
0004
0000
0000
0000
,  // measure 105
0000
0000
0000
0000
,  // measure 106
0000
0000
0000
0000
,  // measure 107
0003
1000
0100
0010
0100
1000
0001
0100
;

//---------------dance-single - ----------------
#NOTEDATA:;
#CHARTNAME:;
#STEPSTYPE:dance-single;
#DESCRIPTION:;
#CHARTSTYLE:;
#DIFFICULTY:Hard;
#METER:7;
#RADARVALUES:0.465436,0.660788,0.175904,0.550657,0.000000,426.000000,403.000000,23.000000,72.000000,0.000000,0.000000,6.000000,0.000000,0.000000,0.465436,0.660788,0.175904,0.550657,0.000000,426.000000,403.000000,23.000000,72.000000,0.000000,0.000000,6.000000,0.000000,0.000000;
#CREDIT:CopperPuppy;
#NOTES:
0000
0000
0000
0000
,
0000
0000
0000
0000
,
0000
0000
0000
0000
,
0000
0000
0000
0000
,
0000
0000
0000
0000
,
0000
0000
0000
0000
,
0000
0000
0000
0000
,
0000
0000
0000
0000
,
1001
0000
1000
0001
,
0100
0000
0001
1000
,
0010
0000
1000
1000
,
1000
0100
0020
0032
,
1003
0000
0001
0000
0100
0000
0010
0100
,
0001
0000
1000
0000
0100
0000
0010
0001
,
1000
0000
0010
0000
0100
0000
0001
1000
,
0100
0000
0010
0000
0100
0000
1000
0001
,
2000
0000
0000
0000
,
0000
0000
0000
0000
,
0000
0000
0000
0000
,
3001
1000
0010
0100
,
0001
1000
0001
0000
0010
0000
0100
1000
,
0100
0000
0010
0001
0010
0000
0001
0000
,
1000
0010
1000
0000
0100
0000
0010
0100
,
0010
0000
0001
1000
0002
0000
4003
0000
,
3010
0100
0010
0000
1000
0000
0001
1000
,
0001
0000
1000
0100
1000
0000
0001
0000
,
1000
0010
1000
0000
0001
0000
0010
0100
,
0010
0000
0001
1000
0002
0000
4003
0000
,
3010
0100
0000
0000
0002
0000
0003
0000
,
1000
0100
0000
0000
0020
0000
0030
0000
,
0001
1000
0000
0000
0020
0000
0030
0000
,
1000
0001
0000
0000
0020
0000
0030
0000
,
0001
0100
0010
0000
1000
0001
0010
0000
,
0100
1000
0001
0000
0100
0010
1000
0000
,
0004
0000
0000
0000
,
1003
0000
0000
0000
0100
0000
0010
0001
,
2001
0000
0000
0000
3001
0100
0002
0000
,
1003
0000
0100
0000
0010
0000
0000
0000
0002
0000
0000
0000
2003
0000
0000
3000
,
1010
0000
2010
0000
3001
0010
0100
0000
,
1000
0000
0010
0000
1000
0000
0001
0000
1000
0000
0100
0000
2000
0000
0000
3000
,
1002
0000
0000
0000
1003
0010
1000
0000
,
0001
1000
0100
0000
0020
0000
0032
0000
,
1003
0010
0000
0100
0002
0000
1003
0000
,
0100
1000
0010
0100
0002
0000
0013
0000
,
0012
0000
0000
0000
1003
0010
0200
0000
,
0301
0000
1000
0000
0100
0000
0000
0000
2000
0000
0000
0000
3002
0000
0000
0003
,
0101
0000
0102
0000
1003
0100
1000
0000
,
0001
0000
0010
0000
0001
0000
1000
0000
0001
0000
0100
0000
0002
0000
0000
0003
,
2001
0000
0000
0000
3001
0010
0200
0000
,
1300
0001
1000
0000
2000
0000
3001
0100
,
0020
2030
3001
0010
,
0100
0010
0010
0000
0001
0000
1000
0000
,
1020
0000
0130
0002
,
0000
0000
0000
0000
1003
0000
0000
0000
0200
0000
0000
0000
0000
0000
0000
0300
,
0120
0000
0031
2000
,
0000
0000
0000
0000
3001
0000
0000
0000
0200
0000
0000
0000
0000
0000
0000
0300
,
2010
0000
3001
0020
,
0000
0000
0000
0000
0130
0000
0000
0000
2000
0000
0000
0000
0000
0000
0000
3000
,
2001
0000
0000
3001
0100
0000
0010
0000
,
1000
0001
0100
0001
2000
0000
3001
0000
,
0012
1003
0000
0100
,
0100
0000
1000
1000
,
0000
0001
0100
0010
,
1000
0001
0000
0000
0010
0000
0010
0000
,
0001
0000
0010
0000
0100
0000
1000
0001
,
0100
0000
0010
0000
1000
0000
0001
0010
,
0100
0000
0010
0000
0001
0000
1000
0010
,
0100
0000
0001
0000
1000
0000
0001
0010
,
0200
0000
0000
0000
,
0000
0000
0000
0000
,
0000
0000
0000
0000
,
1300
0001
0100
0010
,
0100
0001
0100
0000
0001
0000
1000
0100
,
1000
0000
0001
1000
0001
0000
0100
0000
,
0010
1000
0010
0000
0100
0000
0001
1000
,
0001
0000
1000
0100
2000
0000
3004
0000
,
1003
0010
1000
0000
0001
0000
0010
0100
,
0010
0000
0001
1000
0001
0000
0100
0000
,
0010
1000
0010
0000
1000
0000
0001
0010
,
0001
0000
1000
0100
2000
0000
3004
0000
,
0103
0010
0000
0000
2000
0000
3000
0000
,
0001
0010
0000
0000
0200
0000
0300
0000
,
1000
0001
0000
0000
0200
0000
0300
0000
,
0010
1000
0000
0000
0200
0000
0300
0000
,
0010
0100
1000
0000
0001
0100
0010
0000
,
1000
0001
0100
0000
0001
0010
0100
0000
,
4000
0000
0000
0000
,
3001
0000
0000
0000
0100
0000
0010
1000
,
1002
0000
0000
0000
1003
0100
1000
0000
,
0001
0000
0100
0000
0001
0000
0000
0000
0010
0000
0000
0000
0020
0000
0000
0030
,
0110
0000
0210
0000
0310
0001
2000
0000
,
3001
0100
0001
0000
1000
0100
0010
0000
,
0012
0000
0000
0000
1003
0010
0100
0000
,
0001
0000
1000
0000
0002
0000
0000
0003
0002
0000
0000
0003
2000
0000
0000
0000
,
3010
0200
0000
0000
0301
1000
0020
0030
,
0000
0000
0000
0000
,
2010
0000
0000
0000
3001
0010
0200
0000
,
1300
0000
0001
0000
0100
0000
0000
0000
0002
0000
0000
0000
2003
0000
0000
3000
,
1100
0000
2100
0000
3001
0100
0001
0000
,
1000
0000
0010
0000
1000
0000
0001
0000
1000
0000
0100
0000
2000
0000
0000
3000
,
1002
0000
0000
0000
1003
0010
0200
0000
,
0301
1000
0001
0000
0002
0000
1003
0100
,
0020
0032
1003
0010
,
0100
0010
0010
0000
1000
0000
0001
0000
,
2001
0000
0000
0000
,
0000
0000
0000
0000
,
0000
0000
0000
0000
,
0000
0000
0000
0000
,
3000
0000
0000
0000
;

//---------------dance-single - ----------------
#NOTEDATA:;
#CHARTNAME:;
#STEPSTYPE:dance-single;
#DESCRIPTION:;
#CHARTSTYLE:;
#DIFFICULTY:Medium;
#METER:5;
#RADARVALUES:0.266588,0.412992,0.076480,0.183552,0.000000,244.000000,234.000000,10.000000,24.000000,0.000000,0.000000,0.000000,0.000000,0.000000,0.266588,0.412992,0.076480,0.183552,0.000000,244.000000,234.000000,10.000000,24.000000,0.000000,0.000000,0.000000,0.000000,0.000000;
#CREDIT:CopperPuppy;
#NOTES:
0000
0000
0000
0000
,
0000
0000
0000
0000
,
0000
0000
0000
0000
,
0000
0000
0000
0000
,
0000
0000
0000
0000
,
0000
0000
0000
0000
,
0000
0000
0000
0000
,
0000
0000
0000
0000
,
0001
0000
0100
0010
,
1000
0000
0000
0001
,
0010
0000
0100
0000
,
1000
0000
0001
0100
,
0010
0000
0100
0001
,
1000
0000
0100
0010
,
0001
0000
1000
0010
,
0100
0000
0001
1000
,
0200
0000
0000
0000
,
0000
0000
0000
0000
,
0000
0000
0000
0000
,
0000
0000
0000
0000
,
1300
0001
0100
0000
,
0010
0000
1000
0000
,
0001
0010
0001
0000
,
1000
0000
0020
0000
,
0130
0001
1000
0000
,
0100
0000
0010
0000
,
0001
1000
0010
0000
,
0100
0000
0002
0000
,
1003
0000
0020
0030
,
0100
0000
0020
0030
,
1000
0000
0002
0003
,
0010
0000
0200
0300
,
1000
0001
0100
0010
,
1000
0001
0010
0100
,
2000
0000
0000
0000
,
3001
0000
1000
0000
,
1100
0000
1000
0001
,
0100
0010
1000
0001
,
0010
0010
0100
1000
,
0001
0100
0001
1000
,
1001
0000
0001
1000
,
0010
0100
0020
0000
,
1030
0000
0001
0000
,
0010
0100
1000
0001
,
0101
0000
0001
1000
,
0100
1000
0001
0100
,
0010
0010
1000
0001
,
0010
0100
1000
0001
,
1001
0000
1000
0000
,
0100
0000
0010
0000
,
0001
0000
1000
0000
,
0010
0100
0001
1000
,
1100
0000
0000
2000
,
0000
0000
3002
0003
,
0101
0000
0000
0002
,
0000
0000
0203
0300
,
0110
0000
0000
0020
,
0000
0000
2030
3000
,
0001
0000
0010
0000
,
0100
1000
0001
0000
,
0100
0000
0010
0000
,
0100
0000
0001
0000
,
1000
0000
0100
0000
,
0010
0000
0001
0000
,
1000
0000
0010
0100
,
0010
0000
1000
0001
,
0010
0000
0100
1000
,
0001
0000
0100
0010
,
2000
0000
0000
0000
,
0000
0000
0000
0000
,
0000
0000
0000
0000
,
0000
0000
0000
0000
,
3001
0010
0100
0000
,
1000
0000
0001
0000
,
0100
0010
1000
0000
,
0001
0000
0020
0000
,
0130
0010
0001
0000
,
1000
0000
0010
0000
,
0100
0001
1000
0000
,
0100
0000
0020
0000
,
0130
0000
2000
3000
,
0001
0000
0200
0300
,
0010
0000
2000
3000
,
0001
0000
0020
0030
,
0001
1000
0010
0100
,
0001
1000
0100
1000
,
0002
0000
0000
0000
,
1003
0000
0001
0000
,
0101
0000
0001
1000
,
0001
0010
0100
1000
,
0001
0001
0100
0010
,
1000
0100
1000
0001
,
1001
0000
1000
0000
,
0100
0000
0010
0000
,
0001
0000
1000
0010
,
0000
0000
0000
0000
,
0000
0000
1000
0000
,
0001
0010
0100
0010
,
0001
0001
1000
0010
,
0100
0001
1000
0100
,
1100
0000
1000
0000
,
0001
0000
0100
0000
,
0010
0000
1000
0000
,
0001
0010
0001
1000
,
0020
0000
0000
0000
,
0000
0000
0000
0000
,
0000
0000
0000
0000
,
0000
0000
0000
0000
,
0030
0000
0000
0000
;

//---------------dance-single - ----------------
#NOTEDATA:;
#CHARTNAME:;
#STEPSTYPE:dance-single;
#DESCRIPTION:;
#CHARTSTYLE:;
#DIFFICULTY:Easy;
#METER:3;
#RADARVALUES:0.163886,0.206496,0.000000,0.038240,0.000000,150.000000,150.000000,0.000000,5.000000,0.000000,0.000000,0.000000,0.000000,0.000000,0.163886,0.206496,0.000000,0.038240,0.000000,150.000000,150.000000,0.000000,5.000000,0.000000,0.000000,0.000000,0.000000,0.000000;
#CREDIT:CopperPuppy;
#NOTES:
0000
0000
0000
0000
,
0000
0000
0000
0000
,
0000
0000
0000
0000
,
0000
0000
0000
0000
,
0000
0000
0000
0000
,
0000
0000
0000
0000
,
0000
0000
0000
0000
,
0000
0000
0000
0000
,
0001
0000
0000
0000
,
1000
0000
0000
0000
,
0001
0000
0000
0000
,
0010
0000
0000
0000
,
0100
0000
1000
0000
,
0001
0000
0100
0000
,
0010
0000
0100
0000
,
0001
0000
1000
0000
,
0002
0000
0000
0000
,
0000
0000
0000
0000
,
0000
0000
0000
0000
,
0000
0000
0000
0000
,
1003
0000
0100
0000
,
0010
0000
0100
0000
,
1000
0000
0001
0000
,
0100
0000
0010
0000
,
1000
0000
0001
0000
,
0010
0000
0100
0000
,
0010
0000
0001
0000
,
1000
0000
0010
0000
,
0100
0000
0000
0000
,
0001
0000
0000
0000
,
1000
0000
0000
0000
,
0100
0000
0000
0000
,
0010
0000
0001
0000
,
1000
0000
0010
0000
,
2000
0000
0000
0000
,
3000
0000
0000
0000
,
0001
0000
0010
0000
,
0100
0000
1000
0000
,
0001
0000
0100
0000
,
0010
0000
0100
0000
,
0001
0000
1000
0000
,
0100
0000
1000
0000
,
0001
0000
0100
0000
,
0010
0000
1000
0000
,
0001
0000
0010
0000
,
0100
0000
1000
0000
,
0001
0000
0100
0000
,
0001
0000
1000
0000
,
0100
0000
0010
0000
,
0001
0000
1000
0000
,
0010
0000
0100
0000
,
0001
0000
1000
0000
,
0001
0000
0000
0100
,
0000
0000
0010
0000
,
1000
0000
0000
0001
,
0000
0000
0010
0000
,
0100
0000
0000
0010
,
0000
0000
0001
0000
,
1000
0000
0000
0000
,
0001
0000
0100
0000
,
0000
0000
0010
0000
,
0000
0000
1000
0000
,
0000
0000
0001
0000
,
0000
0000
0010
0000
,
0100
0000
1000
0000
,
0001
0000
0100
0000
,
0001
0000
1000
0000
,
0100
0000
0010
0000
,
0002
0000
0000
0000
,
0000
0000
0000
0000
,
0000
0000
0000
0000
,
0000
0000
0000
0000
,
1003
0000
0010
0000
,
0100
0000
0010
0000
,
1000
0000
0001
0000
,
0010
0000
0100
0000
,
1000
0000
0001
0000
,
0100
0000
0010
0000
,
1000
0000
0001
0000
,
0010
0000
0001
0000
,
1000
0000
0000
0000
,
0010
0000
0000
0000
,
0100
0000
0000
0000
,
0001
0000
0000
0000
,
1000
0000
0100
0000
,
0010
0000
0001
0000
,
2000
0000
0000
0000
,
3000
0000
0000
0000
,
0001
0000
0100
0000
,
0010
0000
0100
0000
,
0001
0000
1000
0000
,
0100
0000
0010
0000
,
0001
0000
1000
0000
,
0010
0000
0100
0000
,
0001
0000
1000
0000
,
0000
0000
0000
0000
,
0000
0000
0001
0000
,
0100
0000
0010
0000
,
1000
0000
0001
0000
,
0010
0000
0100
0000
,
0010
0000
0001
0000
,
1000
0000
0010
0000
,
0100
0000
0001
0000
,
1000
0000
0100
0000
,
0020
0000
0000
0000
,
0000
0000
0000
0000
,
0000
0000
0000
0000
,
0000
0000
0000
0000
,
0030
0000
0000
0000
;

//---------------dance-single - ----------------
#NOTEDATA:;
#CHARTNAME:;
#STEPSTYPE:dance-single;
#DESCRIPTION:;
#CHARTSTYLE:;
#DIFFICULTY:Beginner;
#METER:1;
#RADARVALUES:0.097239,0.123898,0.000000,0.007648,0.000000,89.000000,89.000000,0.000000,1.000000,0.000000,0.000000,0.000000,0.000000,0.000000,0.097239,0.123898,0.000000,0.007648,0.000000,89.000000,89.000000,0.000000,1.000000,0.000000,0.000000,0.000000,0.000000,0.000000;
#CREDIT:CopperPuppy;
#NOTES:
0000
0000
0000
0000
,
0000
0000
0000
0000
,
0000
0000
0000
0000
,
0000
0000
0000
0000
,
0000
0000
0000
0000
,
0000
0000
0000
0000
,
0000
0000
0000
0000
,
0000
0000
0000
0000
,
0001
0000
0000
0000
,
1000
0000
0000
0000
,
0001
0000
0000
0000
,
0010
0000
0000
0000
,
0100
0000
0000
0000
,
1000
0000
0000
0000
,
0001
0000
0000
0000
,
0100
0000
0000
0000
,
0010
0000
0000
0000
,
0000
0000
0000
0000
,
0000
0000
0000
0000
,
0000
0000
0000
0000
,
1000
0000
0000
0000
,
0001
0000
0000
0000
,
0010
0000
0000
0000
,
0100
0000
0000
0000
,
1000
0000
0000
0000
,
0001
0000
0000
0000
,
0100
0000
0000
0000
,
0010
0000
0000
0000
,
0100
0000
0000
0000
,
0001
0000
0000
0000
,
1000
0000
0000
0000
,
0100
0000
0000
0000
,
0010
0000
0000
0000
,
0001
0000
0000
0000
,
1000
0000
0000
0000
,
0010
0000
0000
0000
,
0100
0000
0000
0000
,
0010
0000
0000
0000
,
1000
0000
0000
0000
,
0001
0000
0000
0000
,
0010
0000
0000
0000
,
0100
0000
0000
0000
,
1000
0000
0000
0000
,
0001
0000
0000
0000
,
0100
0000
0000
0000
,
0010
0000
0000
0000
,
1000
0000
0000
0000
,
0001
0000
0000
0000
,
0010
0000
0000
0000
,
0001
0000
0000
0000
,
1000
0000
0000
0000
,
0010
0000
0000
0000
,
0100
0000
0000
0000
,
0001
0000
0000
0000
,
1000
0000
0000
0000
,
0100
0000
0000
0000
,
0010
0000
0000
0000
,
0100
0000
0000
0000
,
1000
0000
0000
0000
,
0001
0000
0000
0000
,
0100
0000
0000
0000
,
0010
0000
0000
0000
,
1000
0000
0000
0000
,
0001
0000
0000
0000
,
0010
0000
0000
0000
,
0001
0000
0000
0000
,
1000
0000
0000
0000
,
0010
0000
0000
0000
,
0100
0000
0000
0000
,
0000
0000
0000
0000
,
0000
0000
0000
0000
,
0000
0000
0000
0000
,
0001
0000
0000
0000
,
1000
0000
0000
0000
,
0100
0000
0000
0000
,
0010
0000
0000
0000
,
0001
0000
0000
0000
,
1000
0000
0000
0000
,
0010
0000
0000
0000
,
0100
0000
0000
0000
,
0010
0000
0000
0000
,
1000
0000
0000
0000
,
0001
0000
0000
0000
,
0010
0000
0000
0000
,
0100
0000
0000
0000
,
1000
0000
0000
0000
,
0001
0000
0000
0000
,
0100
0000
0000
0000
,
0001
0000
0000
0000
,
1000
0000
0000
0000
,
0100
0000
0000
0000
,
0010
0000
0000
0000
,
0001
0000
0000
0000
,
1000
0000
0000
0000
,
0010
0000
0000
0000
,
0000
0000
0000
0000
,
0000
0000
0000
0000
,
1000
0000
0000
0000
,
0001
0000
0000
0000
,
0010
0000
0000
0000
,
0100
0000
0000
0000
,
0010
0000
0000
0000
,
0001
0000
0000
0000
,
1000
0000
0000
0000
,
0020
0000
0000
0000
,
0000
0000
0000
0000
,
0000
0000
0000
0000
,
0000
0000
0000
0000
,
0030
0000
0000
0000
;
