#TITLE:ON FIRE;
#SUBTITLE:;
#ARTIST:JOYRYDE;
#TITLETRANSLIT:;
#SUBTITLETRANSLIT:;
#ARTISTTRANSLIT:;
#GENRE:;
#CREDIT:;
#BANNER:onfire-bn.png;
#BACKGROUND:onfire-bg.png;
#LYRICSPATH:;
#CDTITLE:;
#MUSIC:ON FIRE.ogg;
#OFFSET:0.013000;
#SAMPLESTART:38.422024;
#SAMPLELENGTH:17.000000;
#SELECTABLE:YES;
#BPMS:0.000000=124.999992
;
#STOPS:
;
#BGCHANGES:;
#KEYSOUNDS:;
#ATTACKS:;

//---------------dance-single - ----------------
#NOTES:
     dance-single:
     :
     Challenge:
     11:
     0.810236,0.838310,0.213689,0.356148,1.157480,637.000000,613.000000,24.000000,40.000000,49.000000,0.000000,0.810236,0.838310,0.213689,0.356148,1.157480,637.000000,613.000000,24.000000,40.000000,49.000000,0.000000:
// measure 0
0000
0000
0000
0000
,  // measure 1
0000
0000
0000
0000
,  // measure 2
0000
0000
0000
0000
,  // measure 3
0000
0001
1000
0010
0000
1000
0001
0000
0010
0100
0010
0001
1000
0010
0100
0000
,  // measure 4
0001
0000
0020
0000
0000
0000
0000
0000
0031
0000
1000
0000
0100
00M0
0100
0000
0004
0000
0000
0000
0000
0000
0000
0000
4003
0000
0000
0000
0000
0000
0000
0000
,  // measure 5
3010
0000
0200
0000
0000
0000
0000
0000
0301
0000
1000
0000
0010
0M00
0010
0000
0004
0000
0000
0000
0000
0000
0000
0000
1003
0000
0100
0000
0010
0000
0001
0000
,  // measure 6
1000
0000
0020
0000
0000
0000
0000
0000
1030
0000
0001
0000
0100
00M0
0100
0000
4000
0000
0000
0000
0000
0000
0000
0000
3004
0000
0000
0000
0000
0000
0000
0000
,  // measure 7
1003
0200
0000
0000
1300
0001
0100
0000
0100
0000
0010
0000
1010
0000
1000
0001
,  // measure 8
0010
0200
0000
0000
0310
0001
1000
0000
0010
0000
0100
0000
0001
1000
0010
0000
,  // measure 9
0100
0000
0002
0000
0000
0000
0000
0000
1003
0000
0010
0000
0100
0000
0000
0000
0001
0000
1000
0000
0100
0000
0000
0M00
0001
0000
1000
0000
0100
0000
0000
0000
,  // measure 10
2000
0001
3200
0010
2300
0001
3020
0100
,  // measure 11
1030
0000
0100
00M0
0100
0000
0001
0000
1000
0000
0010
0M00
0010
0000
0001
0000
1000
0000
0100
00M0
0100
0000
0001
0000
0100
0000
0010
0000
1000
0001
1000
0000
,  // measure 12
0010
0000
0100
0000
0001
0000
1000
0000
0100
00M0
0100
0000
0001
0000
0000
0000
0010
0000
0000
0000
0100
0000
0000
0000
1000
0000
0001
0000
0100
0000
0000
0M00
,  // measure 13
1000
0000
0001
0000
0100
0000
0001
0000
0010
0M00
0010
0000
1000
0000
0000
0000
0001
0000
1000
0000
0100
0000
0000
0M00
0001
0000
1000
0000
0100
0000
0010
0000
,  // measure 14
0001
0000
1000
0000
0001
0000
0100
0000
0010
0M00
0010
0000
0001
0000
0000
0000
1000
0000
0000
0000
0010
0000
0000
0000
0100
0000
0001
0000
1000
0000
0000
M000
,  // measure 15
0010
0200
0000
0000
0310
0001
1000
0010
0100
0000
0002
0000
0013
0001
0100
0000
,  // measure 16
0010
0000
1000
0000
0001
0000
1000
0000
0100
00M0
0100
0000
0001
0000
0000
0000
0100
0000
0000
0000
0010
0000
0000
0000
1000
0000
0001
0000
0010
0000
0000
00M0
,  // measure 17
1000
0000
0001
0000
0010
0000
0001
0000
0100
00M0
0100
0000
1000
0000
0000
0000
0001
0000
1000
0000
0010
0000
0000
00M0
0001
0000
1000
0000
0010
0000
0100
0000
,  // measure 18
0001
0000
1000
0001
0010
0001
1000
0010
0100
0001
1000
0100
1000
0001
0100
0010
,  // measure 19
1000
0000
0000
0001
0000
0000
1000
0000
0000
0100
0000
0000
0010
0000
0000
0100
0000
0000
1000
0000
0000
0001
0000
0000
0100
0000
0000
0010
0000
0000
1000
0000
0000
0100
0000
0000
0010
0000
0001
0000
1000
0000
0010
0000
0000
0000
0000
0000
,  // measure 20
0200
0000
0001
1000
0010
1000
0301
0000
0020
0000
0100
0000
0001
1000
0100
1000
,  // measure 21
0031
0000
1000
0000
0100
00M0
0100
0000
0001
0000
1000
0000
0010
0000
0000
0000
1000
0000
0001
0000
0100
0000
0000
0M00
1000
0000
0001
0000
0100
0000
0010
0000
,  // measure 22
2010
0000
0000
0000
3001
0000
1000
0000
0010
0M00
0010
0000
0001
0000
0000
0000
1000
0000
0000
0000
0200
0000
0000
0000
1300
0000
0010
0000
0100
0000
0001
0000
,  // measure 23
1000
0000
0000
0000
0100
00M0
0100
0000
0001
0000
1000
0000
0010
0M00
0010
0000
0101
0000
0000
0000
0010
0000
0000
0000
0001
0000
1000
0000
0010
0000
1000
0000
,  // measure 24
0200
0000
1000
0001
0010
0001
1300
0000
0020
0000
0100
0000
1000
0001
0100
0001
,  // measure 25
1030
0000
0001
0000
0100
00M0
0100
0000
1000
0000
0001
0000
0100
0000
0000
0000
0001
0000
1000
0000
0010
0000
0000
00M0
0001
0000
1000
0000
0100
0000
0010
0000
,  // measure 26
0001
0000
0000
0000
1000
0000
0001
0000
0010
0M00
0010
0000
1000
0000
0000
0000
0001
0000
0000
0000
0100
0000
0000
0000
0010
0000
1000
0000
0001
0000
0000
0000
,  // measure 27
0020
0000
0000
0000
0000
0000
0000
0000
0032
0000
0000
0000
0000
0000
0000
0000
1003
0000
0001
0000
1000
0000
0000
0000
0010
0000
0000
0000
0100
0000
0000
0M00
,  // measure 28
1000
0000
0002
0000
0000
0000
0003
0000
0100
0000
0010
0000
1000
0000
0000
0000
0004
0000
0000
0000
0000
0000
0000
0000
1003
0000
0000
0000
0100
0000
0000
0M00
,  // measure 29
0001
0200
0000
0300
0010
1000
0100
0000
0040
0000
0000
0000
0031
0000
1000
0001
,  // measure 30
0100
0020
0000
0000
1030
0001
0010
0000
0400
0000
0000
0000
1300
0000
0001
0000
,  // measure 31
0000
1000
0001
0100
0000
0001
1000
0000
0010
0100
0010
1000
0001
0010
0100
0000
,  // measure 32
1000
0000
0000
0000
0000
0000
0001
0000
0000
0100
0000
0000
0010
0000
0000
0000
0000
0000
1000
0000
0000
0001
0000
0000
1000
0000
0000
0100
0000
0000
0010
0000
0000
0000
0000
0000
0001
0000
1000
0000
0010
0000
0100
0000
0001
0000
1000
0000
,  // measure 33
0100
0000
0000
0000
0010
0000
0000
0000
0001
0000
0000
0000
1000
0000
0000
0000
0010
0M00
0010
0000
0001
0000
0000
0000
1000
0000
0000
0000
0020
0000
0030
0000
,  // measure 34
1100
0000
0001
0000
0010
0000
0101
0000
0101
0000
1000
0000
0001
0000
0200
0300
,  // measure 35
0011
0000
1000
0000
0001
0000
1010
0000
1010
0001
1000
0000
0010
1000
0002
0003
,  // measure 36
1000
0000
0000
0001
1000
0001
0010
0100
1000
0001
0100
0010
0100
0001
1000
0100
0010
0001
1000
0000
0000
0010
0000
0000
,  // measure 37
1100
0000
0001
0000
0010
0000
0101
0000
0101
0000
1000
0000
0010
0000
0200
0300
,  // measure 38
0011
0000
0000
0000
1000
0000
0001
0000
0100
00M0
0100
0000
1000
0000
0000
0000
0001
0000
1000
0000
0010
0000
0000
00M0
0001
0000
1000
0000
0200
0000
0300
0000
,  // measure 39
1010
0000
0000
0000
0001
0000
1000
0000
0100
00M0
0100
0000
0001
0000
1000
0000
0010
0000
0100
0000
0001
0000
0000
000M
0010
0000
1000
0000
0002
0000
0003
0000
,  // measure 40
2000
0000
0000
0000
0000
0000
3001
0000
0000
0100
0000
0000
0010
0000
0000
0000
0000
0000
1000
0000
0000
0001
0000
0000
0010
0000
0000
0000
0000
0000
0001
0000
1000
0000
0100
0000
0010
0000
0000
0000
0000
0000
0002
0000
0003
0000
0000
0000
,  // measure 41
1100
0000
0000
0000
0000
0000
0000
0000
0001
0000
0000
0000
1000
0000
0000
0000
0101
0000
1000
0000
0001
0000
0000
0000
0100
0000
0000
0M00
1000
0000
0010
0000
,  // measure 42
0100
0000
0000
0000
0001
0000
1000
0000
0100
00M0
0100
0000
0001
0000
0000
0000
0010
0000
0000
0000
0001
0000
1000
0000
0010
0M00
0010
0000
0100
0000
0000
0000
,  // measure 43
0110
0000
0100
0000
1000
0000
0001
0000
0101
0000
0100
0000
0010
0000
1000
0001
,  // measure 44
0020
0000
0000
0000
0031
0000
1000
0000
0100
00M0
0100
0000
0001
0000
0000
0000
0010
0000
0000
0000
0200
0000
0000
0000
0310
0000
0001
0000
0100
0000
0000
0000
,  // measure 45
0011
0000
0000
0000
1000
0000
0001
0000
1010
0001
0100
0000
0010
0000
1000
0001
,  // measure 46
0020
0000
0000
0000
0001
0000
1000
0000
0100
0000
1000
0000
0031
0000
0000
0000
1000
0000
0000
0000
0010
0000
0000
0000
0100
0000
0001
0000
0010
0M00
0010
0000
,  // measure 47
1000
0000
0000
0000
0001
0000
1000
0000
0100
00M0
0100
0000
0001
0000
0000
0000
1000
0000
0001
0000
0010
0000
0000
00M0
1000
0000
0001
0000
1000
0000
0010
0000
,  // measure 48
0200
0000
0000
0000
0302
0000
0000
0000
1003
0100
0010
0000
0001
0000
0100
0000
,  // measure 49
0201
0000
0001
1000
0010
1000
0301
0000
0001
0000
1000
0001
0010
0000
0200
0300
,  // measure 50
1100
0000
0000
0000
1000
0000
0001
0000
0010
0M00
0010
0000
1000
0000
0000
0000
0010
0000
0100
0000
0001
0000
0000
000M
0010
0000
0100
0000
0001
0000
1000
0000
,  // measure 51
0100
0000
0000
0000
1000
0000
0001
0000
0010
0M00
0010
0000
1000
0000
0000
0000
1000
0000
0000
0000
0001
0000
1000
0000
0100
0000
0000
0000
0020
0000
0030
0000
,  // measure 52
0001
0000
0000
0000
1000
0000
0001
0000
0100
00M0
0100
0000
1000
0000
0000
0000
0001
0000
1000
0000
0010
0000
0000
00M0
0001
0000
1000
0000
0000
0000
0000
0000
,  // measure 53
1020
0000
1000
0001
0100
0001
1030
0000
1000
0000
0001
1000
0100
0000
0010
0000
,  // measure 54
0011
0000
0000
0000
0001
0000
1000
0000
0100
00M0
0100
0000
0001
0000
0000
0000
0100
0000
0010
0000
1000
0000
0000
M000
0100
0000
0010
0000
1000
0000
0001
0000
,  // measure 55
0010
0000
0000
0000
0001
0000
1000
0000
0100
00M0
0100
0000
0001
0000
0000
0000
0001
0000
0000
0000
1000
0000
0001
0000
0100
0000
0000
0000
0000
0000
0000
0000
,  // measure 56
0010
0000
0000
0000
1000
0000
0001
0000
0100
00M0
0100
0000
1000
0000
0000
0000
0001
0000
1000
0000
0100
0000
0M00
0000
0001
0000
1000
0000
0000
0000
0000
0000
,  // measure 57
0001
1000
0000
0000
0000
0000
0000
0000
0000
0000
0000
0000
0000
0000
0000
0000
;

//---------------dance-single - ----------------
#NOTES:
     dance-single:
     :
     Beginner:
     1:
     0.128468,0.126878,0.000000,0.017807,0.000000,101.000000,101.000000,0.000000,2.000000,0.000000,0.000000,0.128468,0.126878,0.000000,0.017807,0.000000,101.000000,101.000000,0.000000,2.000000,0.000000,0.000000:
0000
0000
0000
0000
,
0000
0000
0000
0000
,
0000
0000
0000
0000
,
0000
0000
0000
0000
,
1000
0000
0001
0000
,
1000
0000
0010
0000
,
1000
0000
0001
0000
,
1000
0000
0100
0000
,
1000
0000
0001
0000
,
1000
0000
0010
0000
,
0100
0000
0001
0000
,
1000
0000
0100
0000
,
0010
0000
0001
0000
,
1000
0000
0010
0000
,
1000
0000
0001
0000
,
0010
0000
0100
0000
,
1000
0000
0010
0000
,
1000
0000
0001
0000
,
0010
0000
0001
0000
,
0100
0000
0010
0000
,
1000
0000
1000
0000
,
0001
0000
0001
0000
,
1000
0000
1000
0000
,
0001
0000
0001
0000
,
0010
0000
0010
0000
,
0100
0000
0100
0000
,
1000
0000
1000
0000
,
0002
0000
0000
0000
,
1003
0000
0000
0000
,
0010
0000
0000
0000
,
0100
0000
0000
0000
,
0001
0000
0000
0000
,
1000
0000
0001
0000
,
0010
0000
0010
0000
,
0001
0000
1000
0000
,
0010
0000
0010
0000
,
1000
0000
0001
0000
,
1000
0000
0100
0000
,
1000
0000
0001
0000
,
0100
0000
0010
0000
,
1000
0000
1000
0000
,
0001
0000
1000
0000
,
0100
0000
0010
0000
,
0001
0000
1000
0000
,
0010
0000
0100
0000
,
0001
0000
1000
0000
,
0100
0000
0010
0000
,
0100
0000
1000
0000
,
0002
0000
0000
0000
,
1003
0000
1000
0000
,
0001
0000
0001
0000
,
0100
0000
0100
0000
,
0010
0000
0010
0000
,
1000
0000
1000
0000
,
0001
0000
0001
0000
,
0010
0000
0010
0000
,
0100
0000
1000
0000
,
1000
0000
0000
0000
;

//---------------dance-single - ----------------
#NOTES:
     dance-single:
     :
     Easy:
     4:
     0.236584,0.279131,0.071230,0.080133,0.000000,186.000000,178.000000,8.000000,9.000000,0.000000,0.000000,0.236584,0.279131,0.071230,0.080133,0.000000,186.000000,178.000000,8.000000,9.000000,0.000000,0.000000:
0000
0000
0000
0000
,
0000
0000
0000
0000
,
0000
0000
0000
0000
,
0000
0000
0000
0000
,
1000
0001
0400
0000
,
0301
1000
0400
0000
,
1300
0001
0040
0000
,
0031
1000
0010
0110
,
1000
0001
0040
0000
,
0031
1000
0040
0000
,
0130
0001
1000
0100
,
0010
0001
1000
0010
,
0110
0100
0001
1000
,
0100
0010
0100
1000
,
1001
0001
0100
0010
,
1000
0001
0010
0100
,
1100
1000
0001
0100
,
0010
1000
0001
0010
,
0100
1000
0100
1000
,
0001
0100
0001
0100
,
0020
0000
1000
0000
,
0130
0001
0100
0001
,
2000
0000
0001
0000
,
3100
0010
0100
0010
,
0002
0000
1000
0000
,
0103
0010
0100
0010
,
1000
0001
0010
0100
,
2000
0000
0000
3000
,
1000
0001
0400
0000
,
0301
1000
0400
0000
,
1300
0001
0040
0000
,
0031
1000
0010
0100
,
0001
1000
0001
0010
,
0100
0000
1000
0000
,
1001
0000
0000
1000
0001
0000
0000
0000
,
0101
0000
0000
0001
0100
0000
0000
0000
,
0001
1000
0100
0010
,
0011
0000
0000
0001
0100
0000
0000
0000
,
1010
0000
0000
1000
0100
0000
0000
0000
,
1000
0001
1000
0010
,
0200
0000
0302
0000
,
1003
0100
0010
0100
,
1000
0010
0100
0001
,
1000
0001
0010
0100
,
1000
0001
0100
0010
,
1000
0001
1000
0100
,
0020
0000
0001
0000
,
0130
1000
0001
0100
,
0020
0000
1000
0000
,
0130
0001
0100
0001
,
1000
0100
1000
0100
,
0010
0001
0010
0001
,
1000
0010
1000
0010
,
0100
0001
0100
0001
,
1000
0100
1000
0100
,
0010
0000
0001
0000
,
2000
0000
0000
0000
,
3000
0000
0000
0000
;

//---------------dance-single - ----------------
#NOTES:
     dance-single:
     :
     Medium:
     7:
     0.344700,0.431384,0.071230,0.080133,0.000000,271.000000,263.000000,8.000000,9.000000,0.000000,0.000000,0.344700,0.431384,0.071230,0.080133,0.000000,271.000000,263.000000,8.000000,9.000000,0.000000,0.000000:
0000
0000
0000
0000
,
0000
0000
0000
0000
,
0000
0000
0000
0000
,
0000
0000
0000
0000
,
1000
0001
0400
0000
,
0301
1000
0400
0000
,
1300
0001
0040
0000
,
0031
1000
0010
0110
,
1000
0001
0040
0000
,
0031
1000
0040
0000
,
0130
0001
1000
0100
0010
0001
1000
0010
,
0100
0001
1000
0100
,
0110
0000
0100
0000
1000
0001
1000
0000
,
0010
0000
0100
0000
0001
1000
0001
0000
,
1001
0000
0001
0000
0010
0100
0010
0000
,
0001
0000
1000
0000
0010
0100
0001
0000
,
1001
0000
1000
0000
0001
0010
0001
0000
,
1000
0000
0010
0000
1000
0010
1000
0000
,
0001
1000
0100
0010
,
0001
1000
0010
0100
0001
1000
0100
0010
,
0002
1000
0100
1003
,
0100
0010
0001
1000
0010
0100
0001
0000
,
2000
0001
0010
0001
,
3100
0010
0001
1000
0001
0100
0010
0000
,
2000
0010
0001
0010
,
3100
0010
0001
1000
0010
0100
0010
1000
,
0001
0000
1000
0000
0100
0010
0001
0000
,
2000
0010
0001
3010
,
1000
0001
0400
0000
,
0301
1000
0400
0000
,
1300
0001
0040
0000
,
0031
1000
0010
0100
,
0001
1000
0001
1000
0100
0010
0100
0010
,
0001
0000
1000
0000
0010
0000
0100
0001
,
0101
0000
0001
1000
0100
0000
0010
0000
,
0011
0000
0001
1000
0010
0000
0100
0001
,
1000
0100
1000
0001
0100
0001
1000
0100
,
0110
0000
0001
1000
0010
0000
0100
0000
,
0101
0000
0001
1000
0100
0000
0010
0000
,
0001
1000
0010
0100
,
0002
1000
0203
0010
,
0301
0000
1000
0001
0010
0100
0010
0000
,
0001
0000
1000
0000
0010
0100
0001
0000
,
1000
0000
0100
0000
0010
0000
0001
1000
,
0010
0100
0010
1000
0001
0010
0100
0000
,
1000
0000
0001
1000
0010
0000
0100
0000
,
0002
1000
0010
1000
,
0103
0010
1000
0000
0001
0010
0100
0000
,
2000
0001
0010
0001
,
3100
0010
0001
1000
0010
0100
0010
1000
,
0001
0010
0100
1000
,
0001
0100
0010
1000
0001
0010
0100
0000
,
1000
0010
0100
0001
,
1000
0100
0010
0001
1000
0010
0100
0000
,
0001
1000
0100
0010
0001
1000
0010
0000
,
0100
0001
1000
0100
,
0020
0000
0000
0000
,
0030
0000
0000
0000
;

//---------------dance-single - ----------------
#NOTES:
     dance-single:
     :
     Hard:
     9:
     0.623258,0.584277,0.035615,0.338340,0.449636,490.000000,486.000000,4.000000,38.000000,0.000000,0.000000,0.623258,0.584277,0.035615,0.338340,0.449636,490.000000,486.000000,4.000000,38.000000,0.000000,0.000000:
0000
0000
0000
0000
,
0000
0000
0000
0000
,
0000
0000
0000
0000
,
0000
0000
0000
0000
,
0001
2000
0000
0000
3001
0100
0001
0100
0004
0000
0000
0000
4003
0000
0000
0000
,
3001
0020
0000
0000
0130
1000
0100
1000
0200
0000
0000
0000
0310
0001
1000
0000
,
0010
0200
0000
0000
0301
1000
0001
1000
0004
0000
0000
0000
4003
0000
0000
0000
,
3010
0200
0000
0000
0301
1000
0001
0000
0100
0000
0010
0000
1010
0000
1000
0001
,
0010
0200
0000
0000
0310
0001
1000
0000
0010
0000
0100
0000
0001
1000
0010
0000
,
0100
0002
0000
0000
1003
0010
0100
0000
0001
1000
0100
0000
1000
0001
0000
0000
,
2000
0001
3200
0010
2300
0001
3020
0100
,
1030
0001
0010
0100
1000
0010
0100
0001
,
1000
0000
0001
0010
0100
0000
1000
0000
0001
0000
0100
0000
0010
1000
0001
0000
,
1000
0000
0001
0010
0100
0000
1000
0000
0001
0000
0100
0000
0010
1000
0001
0000
,
0010
0000
0100
1000
0001
0000
0100
0000
0010
0000
1000
0000
0001
0010
0100
0000
,
1000
0002
0000
0000
1003
0010
1000
0010
0100
0000
0001
0000
1000
0001
1000
0000
,
0001
0000
1000
0100
0010
0000
0001
0000
1000
0000
0010
0000
0100
0001
1000
0000
,
0001
0000
0010
0001
1000
0000
0010
0000
0100
0001
1000
0000
0001
0010
0001
0010
,
0100
1000
0100
1000
0001
0100
0001
0100
,
0010
1000
0010
1000
0001
0010
0001
0010
,
0100
0000
1000
0001
1000
0000
0010
0000
0100
0000
0001
0000
1000
0100
0010
0000
,
0001
0000
1000
0001
1000
0000
0001
0000
0100
0010
1000
0000
0001
0000
1000
0000
,
0200
0000
0310
0001
1000
0000
0010
0000
0100
0000
0001
0000
1000
0100
0010
0000
,
0001
0000
1000
0010
0100
0000
0001
0000
2000
0000
0100
0000
3002
0000
0103
0010
,
1000
0000
0001
1000
0001
0000
0010
0000
0100
0000
1000
0000
0001
0100
0010
0000
,
1000
0000
0001
0010
0100
0000
1000
0000
0001
0100
0001
0000
1000
0100
1000
0100
,
0010
0000
0001
1000
0001
0000
1000
0000
0010
0000
0100
0000
0001
1000
0000
0000
,
0002
0000
0000
0000
2003
0000
0000
0000
3100
0010
0100
0000
1000
0000
0001
0000
,
0100
0020
0000
0000
1030
0001
1000
0000
0004
0000
0000
0000
1003
0000
0100
0000
,
0010
0002
0000
0000
1003
0010
0100
0000
0004
0000
0000
0000
1003
0000
0100
0010
,
0001
2000
0000
0000
3010
0100
0001
0000
4000
0000
0000
0000
3100
0000
0010
0000
,
0001
0000
0000
0000
,
1000
0000
0001
0100
0001
0000
1000
0100
1000
0100
0010
0000
0004
4000
0000
0003
,
3100
0000
0010
0000
0001
0000
1000
0000
0010
0100
0010
0000
1000
0000
0001
0000
,
0020
0031
1000
0020
0230
0301
1000
0200
,
0310
0000
0001
0000
1000
0000
0020
0000
0130
0001
1000
0000
0001
1000
0200
0000
,
0310
0001
0400
0000
0340
0000
1030
0001
,
0200
0310
1000
0200
0320
0031
1000
0020
,
0130
0000
0001
1000
0001
0000
0010
0000
0100
1000
0001
0000
1000
0001
0100
0000
,
0020
0000
1030
0000
0001
0000
1000
0000
0100
0000
0010
0000
0001
1000
0020
0000
,
0130
0000
0001
1000
0000
0000
0001
1000
0000
0000
0001
1000
0100
0000
0020
0000
,
0031
0000
0000
0000
1000
0000
0001
0000
1000
0010
0100
0000
0001
0000
1000
0100
,
0010
0000
0001
1000
0001
0000
1000
0000
0010
0000
0100
0000
0001
0000
1000
0000
,
1100
0000
0100
0000
0010
0000
0001
0000
1001
0000
1000
0000
0010
0000
0100
0001
,
2000
0000
3001
0100
0010
0000
1000
0000
0001
0000
0010
0000
0100
1000
0001
0000
,
0200
0000
0000
0000
0310
0000
1000
0000
0001
1000
0001
0000
0010
0000
0100
1000
,
0001
0000
0100
0010
1000
0000
0001
0000
0010
0000
0100
0000
1000
0001
1000
0000
,
0010
0100
0001
1000
0100
0010
0001
1000
,
0020
0000
0000
0000
0230
0000
0000
0000
0301
1000
0001
0000
1000
0000
0001
0000
,
0010
0000
0100
1000
0001
0000
0100
0000
0010
0000
1000
0001
0010
0000
0100
0000
,
1100
0000
1000
0001
0100
0000
0010
0000
1000
0000
0001
0000
0010
0000
0100
0000
,
1000
0000
0001
0100
0010
0000
1000
0000
0001
0000
1000
0100
0010
0000
0002
0000
,
1003
0000
0010
0100
0010
0000
1000
0000
0001
0000
0010
0000
0100
0000
1000
0000
,
0001
0000
0100
0010
1000
0000
0001
0000
1000
0000
0001
0010
0100
0000
1000
0000
,
0001
0000
0100
0010
1000
0000
0001
0000
0010
0001
1000
0000
0010
0000
0100
0000
,
0001
0000
1000
0001
0010
0000
0100
0000
1000
0000
0001
0100
0010
0000
0000
0000
,
1000
0000
0001
1000
0001
0000
1000
0000
0100
0010
0001
0000
1000
0001
0000
0000
,
1000
0001
0000
0000
0000
0000
0000
0000
0000
0000
0000
0000
0000
0000
0000
0000
;
