#VERSION:0.83;
#TITLE:Nonstop;
#SUBTITLE:;
#ARTIST:Full Mana;
#TITLETRANSLIT:;
#SUBTITLETRANSLIT:;
#ARTISTTRANSLIT:;
#GENRE:Complextro;
#ORIGIN:;
#CREDIT:loodee;
#BANNER:Nonstop-bn.png;
#BACKGROUND:Nonstop-bg.png;
#PREVIEWVID:;
#JACKET:Nonstop-jacket.png;
#CDIMAGE:;
#DISCIMAGE:;
#LYRICSPATH:;
#CDTITLE:loodeecdtitle.png;
#MUSIC:Nonstop.ogg;
#OFFSET:0.006000;
#SAMPLESTART:30.006001;
#SAMPLELENGTH:29.995001;
#SELECTABLE:YES;
#BPMS:0.000=128.000;
#STOPS:;
#DELAYS:;
#WARPS:;
#TIMESIGNATURES:0.000=4=4;
#TICKCOUNTS:0.000=4;
#COMBOS:0.000=1;
#SPEEDS:0.000=1.000=0.000=0;
#SCROLLS:0.000=1.000;
#FAKES:;
#LABELS:0.000=Song Start;
#BGCHANGES:;
#KEYSOUNDS:;
#ATTACKS:
;

//---------------dance-single - ----------------
#NOTEDATA:;
#CHARTNAME:;
#STEPSTYPE:dance-single;
#DESCRIPTION:;
#CHARTSTYLE:;
#DIFFICULTY:Challenge;
#METER:11;
#RADARVALUES:0.745284,1.001482,0.532493,0.712389,0.967842,725.000000,649.000000,74.000000,99.000000,26.000000,5.000000,8.000000,0.000000,0.000000,0.745284,1.001482,0.532493,0.712389,0.967842,725.000000,649.000000,74.000000,99.000000,26.000000,5.000000,8.000000,0.000000,0.000000;
#CREDIT:loodee;
#NOTES:
// measure 0
0000
0000
0000
0000
,  // measure 1
0000
0000
0000
0000
,  // measure 2
0000
0000
0000
0000
,  // measure 3
0000
0000
0000
0000
,  // measure 4
0002
0000
1003
0100
0000
0100
0020
0000
0031
0000
1000
0000
1001
0000
0001
0000
,  // measure 5
0100
0000
0010
1000
0000
1000
0001
0010
0200
0000
0310
0000
0012
0000
0000
0000
,  // measure 6
2003
0000
3010
0100
0000
0100
0001
0000
2000
0000
3100
0000
0120
0000
0000
0000
,  // measure 7
0230
0000
0300
0000
0000
0000
1000
0000
1000
0000
0010
0000
1000
0000
0001
0000
0020
0000
0000
0000
0000
0000
0130
1000
0002
0000
0000
0000
0000
0000
0003
0000
,  // measure 8
2020
0000
0000
0000
3030
0000
0000
0000
1000
0000
0100
0000
0002
0000
0000
0000
0000
0000
0000
0000
0000
0003
0000
0000
000M
0000
0000
0000
0000
0000
0000
0000
,  // measure 9
2000
0000
3000
0000
0010
0000
0000
0000
0100
0000
0000
0000
0004
0000
0000
0000
2000
0000
0000
0003
0000
0000
0000
0000
3200
0000
0000
0000
0301
0000
0100
0000
,  // measure 10
0010
0000
0001
0000
0001
0000
0001
0000
0001
0000
0000
0000
2000
0000
0000
0000
3100
0010
0400
0000
1300
0000
0000
0000
0000
0000
0000
0000
0000
0000
0000
0000
,  // measure 11
0004
0000
0103
0010
2000
0000
3000
0000
0100
0100
0100
0100
0010
0100
1000
0000
,  // measure 12
1002
0000
0103
0000
0010
1000
0010
1000
0001
0010
0001
0010
0200
0000
0300
2000
,  // measure 13
0001
0000
3010
0000
0100
0001
0100
0001
1000
0100
1000
0100
0020
0000
0030
0001
,  // measure 14
1000
0100
1000
0010
1000
0001
0010
0100
1000
0001
0100
0001
0010
0001
1000
0010
,  // measure 15
0100
0000
0000
0000
0000
0000
000M
0000
0000
0000
0000
0000
0100
0000
0000
0000
0000
0000
0000
0000
0000
0000
0000
0000
0100
0000
0000
0000
0000
0000
0000
0000
0000
0000
0000
0000
0100
0000
0000
0000
0000
0000
0000
0000
0000
0000
0000
0000
1000
0000
0000
0000
0000
0000
0000
0000
0001
0000
0000
0000
0000
0000
0000
0000
0100
0000
0000
0000
0000
0000
0000
0000
0010
0000
0000
0000
0000
0000
0000
0000
1000
0000
0000
0000
0000
0000
0000
0000
0100
0000
0000
0000
0000
0000
0000
0000
0010
0000
0000
0000
0000
0000
0000
0000
0000
0000
0000
0000
0000
0000
0000
0000
0000
0000
0000
0000
0000
0000
0000
0000
0000
0000
0000
0000
0000
0000
0000
0000
0000
0000
0000
0000
0000
0000
0000
0000
0000
0000
0000
0000
0000
0000
0000
0000
0100
0000
0000
0000
0000
0000
0000
0000
0000
0000
0000
0000
0000
0000
0000
0000
0000
0000
0000
0000
0000
0000
0000
0000
1100
0000
0000
0000
0000
0000
0000
0000
0000
0000
0000
0000
0000
0000
0000
0000
0000
0000
0000
0000
0000
0000
0000
0000
,  // measure 16
1002
0000
0000
0000
0103
0000
0000
0000
0110
0000
0000
0000
0002
0000
0000
0000
2003
0000
0000
0000
3100
00M0
0100
0000
0021
0000
0000
0000
4030
0000
0000
0000
,  // measure 17
3100
0000
0000
0000
0010
0000
0001
0000
0000
0000
010M
0000
2000
0000
0000
0000
0010
0000
0000
0000
3001
0000
0000
0000
1004
0000
0000
0000
0103
00M0
0100
0000
,  // measure 18
0020
0000
1030
0010
0001
0100
0100
0100
0020
0000
0031
0010
1000
0100
0100
0100
,  // measure 19
0010
0001
0010
0100
1000
0010
1000
0100
0000
0100
0100
0100
0010
0001
0010
0100
,  // measure 20
2000
0000
0000
0000
3010
0000
0000
0000
0101
0000
0000
0000
0002
0000
0000
0000
0023
0000
0000
0000
0130
M000
0100
0000
0012
0000
0000
0000
0103
M000
0100
0000
,  // measure 21
1000
0000
0000
0000
0001
0000
0100
0000
0000
0000
0M10
0000
0002
0000
0000
0000
1000
0000
0000
0000
0103
0000
0000
0000
4001
0000
0000
0000
3100
00M0
0100
0000
,  // measure 22
0020
0000
0031
0010
1000
0100
0100
0100
0020
0000
1030
0010
0001
0100
0100
0100
,  // measure 23
0010
1000
0001
0010
0100
0010
1000
0010
0001
1000
0010
0100
0001
1000
0100
0000
,  // measure 24
0022
0000
0000
0000
0033
0000
0000
0000
1001
0000
0000
0000
2000
0000
0000
0000
3020
0000
0000
0000
0031
0000
0000
0000
0020
0000
0000
0000
0130
000M
0100
0000
,  // measure 25
1000
0000
0001
0010
0000
10M0
0002
0000
0100
0000
1003
0000
1100
0100
0010
0100
,  // measure 26
0002
0000
0013
0000
0001
0100
1000
0010
0002
0000
0103
0000
0001
0010
1000
0100
,  // measure 27
0020
0000
0130
0000
0010
1000
0010
0001
0000
0001
0100
0010
0001
0010
1000
0001
,  // measure 28
2200
0000
0000
0000
3300
0000
0000
0000
1001
0000
0000
0000
0002
0000
0000
0000
0023
0000
0000
0000
1030
000M
1000
0000
0200
0000
0000
0000
0310
000M
0010
0000
,  // measure 29
2000
0000
3001
0100
0000
1M00
0001
0010
0200
0000
0310
0000
1001
0001
0100
0010
,  // measure 30
0002
0000
0103
0000
0001
0010
0400
0000
2300
0000
3010
0000
1000
0100
0040
0000
,  // measure 31
2030
0000
0000
0000
3000
0000
0000
0000
0000
0001
0000
0000
1010
0000
0000
0100
0000
0000
0010
0000
0000
0001
0000
0000
1200
0000
0000
0000
0300
0000
0002
0000
0000
0000
0003
0000
0020
0000
0000
0000
0030
0000
1000
0000
0000
0010
0000
0000
,  // measure 32
0101
0000
0000
0000
,  // measure 33
0000
0000
0000
0000
,  // measure 34
0000
0000
0000
0000
,  // measure 35
0000
0000
0000
0000
,  // measure 36
0000
0000
0000
0000
,  // measure 37
0000
0000
0000
0000
,  // measure 38
0000
0000
0000
0000
1000
0010
0020
0000
,  // measure 39
2030
0000
0000
3002
0010
0003
0002
0000
0003
0000
0000
0000
0000
0000
0000
0000
,  // measure 40
0101
0000
0000
0100
0011
1000
0100
0010
0000
0100
0001
M000
0101
0010
0000
0001
,  // measure 41
0001
0000
0000
0001
1100
0000
0010
0100
0000
0000
1000
0100
0001
0010
0100
1000
,  // measure 42
0010
0000
0000
0010
1100
0001
0020
0000
0000
0000
1030
0000
0110
0000
0100
0000
,  // measure 43
1000
0000
0000
0000
0000
0000
1000
0000
0101
0000
0000
0000
0010
0000
0000
0000
0010
0000
0001
0000
0100
0000
0000
0000
0100
0000
0000
0000
1000
000M
1000
0000
,  // measure 44
0010
0000
0000
0010
1100
0001
0010
0100
0000
0010
1000
000M
1010
0100
0000
1000
,  // measure 45
1000
0000
0000
1000
0101
0000
0010
0100
0001
0100
1000
0100
0010
0001
1000
0010
,  // measure 46
1000
0000
0000
1000
0011
0000
0200
0000
0000
0000
0301
0000
1001
0000
1000
0000
,  // measure 47
1100
0000
0000
0100
1010
0100
1000
0000
0001
0000
0001
0100
0020
0000
0230
0000
,  // measure 48
1311
0000
0000
0000
0000
1000
0100
1000
0000
1000
0100
1000
0002
0000
0203
0000
,  // measure 49
0320
0000
0030
0000
0000
0100
0001
0100
0000
0100
1000
0100
0010
0001
0010
1000
,  // measure 50
0002
0000
0000
0000
0000
0000
0003
0000
0000
0000
0000
0000
0000
0000
0000
0000
0000
0000
0000
0000
0000
0001
0000
0000
0000
0000
0000
0001
0000
0000
0001
0000
0000
0000
0000
0000
0002
0000
0000
0000
0003
0000
0002
0000
0000
0000
0003
0000
,  // measure 51
0010
0000
0000
0000
0000
0000
0000
0010
0000
0010
0100
0000
1000
0000
0010
0000
,  // measure 52
0101
0000
0000
0000
0100
0000
0010
0000
1000
0000
0000
0000
0001
0000
0000
0000
0010
0000
0100
0000
0000
0000
0000
0000
0110
0000
0000
0000
0010
0000
0001
1000
,  // measure 53
0001
0000
0100
0000
0000
0000
0100
0000
0010
0000
0100
0000
0010
0000
0000
0000
0010
0000
1000
0000
0000
0000
0000
0000
1001
0000
0000
0000
0001
0000
0010
0100
,  // measure 54
0010
0001
1000
0100
0010
0001
0100
0010
1000
0001
0010
0001
0100
0010
1000
0001
,  // measure 55
0010
0000
0000
0000
0000
0000
0000
0000
0100
0000
0000
0000
0000
0000
0000
0000
1000
0000
0000
0000
0000
0000
0000
0000
0010
0000
0000
0000
0000
0000
0000
0000
0100
0000
0000
0000
0000
0000
0000
0000
0010
0000
0000
0000
0000
0000
0000
0000
1000
0000
0000
0000
0000
0000
0000
0000
0001
0000
0000
0000
0000
0000
0000
0000
1000
0000
0000
0000
0000
0000
0000
0000
0100
0000
0000
0000
0000
0000
0000
0000
0010
0000
0000
0000
0000
0000
0000
0000
0001
0000
0000
0000
0000
0000
0000
0000
0100
0000
0000
0000
0000
0000
M000
0000
0000
0000
0000
0000
0100
0000
0000
0000
0000
0000
0000
0000
0000
0000
0000
0000
0100
0000
0000
0000
0000
0000
0000
0000
0000
0000
0000
0000
0100
0000
0000
0000
0000
0000
0000
0000
0000
0000
0000
0000
0010
0000
0000
0000
0000
0000
0000
0000
0000
0000
0000
0000
0001
0000
0000
0000
0000
0000
0000
0000
0000
0000
0000
0000
0100
0000
0000
0000
0000
0000
0000
0000
0000
0000
0000
0000
0000
0000
0000
0000
0000
0000
0000
0000
0000
0000
0000
0000
,  // measure 56
1120
0000
0130
0001
0000
0001
0010
0001
0000
0001
0010
0001
0200
0000
0320
0000
,  // measure 57
2030
0000
3001
0100
0000
0100
0010
0100
0000
0100
1000
0100
0011
1000
0100
0010
,  // measure 58
0201
0000
0000
0000
0310
0000
0000
0000
0001
0000
0100
00M0
0100
0000
1000
0000
0101
0000
1000
0000
1000
0000
0000
0000
1200
0000
0000
0000
0000
0000
0300
0000
,  // measure 59
0110
0000
0010
0001
1100
0000
1000
0001
0000
0001
0010
0100
1010
0001
0100
0010
,  // measure 60
1200
0000
0300
0000
1001
0001
0010
0100
M000
0100
0001
1000
0021
0000
2030
0000
,  // measure 61
3102
0000
0000
0000
0013
M000
0010
0000
0100
0000
0001
0000
0100
0000
0000
0000
1000
0000
0100
0000
0010
0000
1000
0000
0101
0000
0010
0000
0100
0000
0000
0000
,  // measure 62
2001
0000
3010
0000
0110
0000
1000
0001
0000
0001
0001
0000
1100
0000
0001
0000
,  // measure 63
0201
0000
0300
0000
2000
0000
3100
0010
0000
0010
1000
0001
0010
0001
0100
0010
,  // measure 64
2100
0000
0000
3000
1001
0001
0100
0010
M000
0010
0001
0100
00M0
0100
2000
0000
,  // measure 65
3021
0000
0000
0030
0110
0010
1000
0100
00M0
0100
0001
0100
1000
0100
0010
1000
,  // measure 66
0102
0000
0003
0000
1100
0000
1000
0001
0000
0100
0100
0000
1002
0000
0203
0000
,  // measure 67
0321
0000
0000
0030
1010
0000
0000
0100
0000
0100
0010
0000
1001
0000
0100
0000
,  // measure 68
2001
0000
3000
0000
0011
0001
1000
0010
0M00
0010
0001
0100
0000
1000
0100
0010
,  // measure 69
2100
0000
0000
0000
3010
000M
0010
0000
0001
0000
1000
0000
0001
0000
0000
0000
0011
0000
0010
0000
0100
0000
1000
0000
0000
0000
1000
0000
0100
0000
0001
0000
,  // measure 70
0200
0000
0000
0300
0110
0000
0000
0001
0000
1000
0001
0000
0110
0000
0001
1000
,  // measure 71
0020
0000
0000
0000
0030
0000
0100
0000
0002
0000
0000
0003
0001
0000
0001
0000
,  // measure 72
0220
0000
0000
0000
,  // measure 73
0000
0330
0000
0000
;

//---------------dance-single - ----------------
#NOTEDATA:;
#CHARTNAME:;
#STEPSTYPE:dance-single;
#DESCRIPTION:;
#CHARTSTYLE:;
#DIFFICULTY:Hard;
#METER:10;
#RADARVALUES:0.603423,0.790644,0.179896,0.582864,0.708791,587.000000,562.000000,25.000000,81.000000,2.000000,0.000000,5.000000,0.000000,0.000000,0.603423,0.790644,0.179896,0.582864,0.708791,587.000000,562.000000,25.000000,81.000000,2.000000,0.000000,5.000000,0.000000,0.000000;
#CREDIT:loodee;
#NOTES:
// measure 0
0000
0000
0000
0000
,  // measure 1
0000
0000
0000
0000
,  // measure 2
0000
0000
0000
0000
,  // measure 3
0000
0000
0000
0000
,  // measure 4
2000
0000
3001
0100
0000
0100
0010
0000
2000
0000
3100
0000
1100
0000
0000
0000
,  // measure 5
0200
0000
1300
0001
0000
0001
0100
0000
0020
0000
1030
0000
0002
0000
0003
0000
,  // measure 6
0020
0000
0130
1000
0000
1000
0001
0000
0200
0000
0310
0000
0110
0000
0000
0000
,  // measure 7
0002
0000
0003
1000
0100
1000
0001
1000
0020
0000
0000
0130
0002
0000
0000
0000
,  // measure 8
0020
0000
0033
0000
0001
0100
0020
0000
0000
0000
0030
0000
0000
0000
0000
0000
,  // measure 9
2000
0000
3000
0000
0200
0000
4300
0000
0000
0000
0000
0000
3002
0000
0103
0010
,  // measure 10
1000
0001
1000
0001
0000
0000
0000
0000
0000
0000
0000
0000
0000
0000
0000
0000
,  // measure 11
0040
0000
0000
0000
0430
0000
0000
0000
1300
0001
1000
0001
0100
0010
1000
0000
,  // measure 12
0001
0000
0000
0000
0010
0000
0001
0000
0100
0010
0100
0010
2000
0000
0000
0000
,  // measure 13
3001
0000
0100
0000
0010
0000
1000
0000
0001
0010
0100
0010
0200
0000
0000
0000
,  // measure 14
1300
0100
1000
0100
1000
0001
1000
0001
0100
0010
1000
0001
0100
0010
1000
0001
,  // measure 15
0010
0100
1000
0100
0010
0001
0100
0010
1000
0000
0000
0000
0000
0000
0001
0000
,  // measure 16
0021
0000
0000
0000
0130
0000
1000
0000
0002
0000
0103
0100
2000
0000
3010
0000
,  // measure 17
0200
0000
0000
0302
0000
0000
2003
0000
0100
0000
3000
0000
0002
0000
0013
0010
,  // measure 18
2000
0000
3100
0000
1000
0001
0010
0010
2000
0000
3100
0000
1000
0001
0010
0010
,  // measure 19
1000
0001
0100
0010
1000
0001
0010
0100
M000
0100
0001
1000
0010
1000
0001
0010
,  // measure 20
0200
0000
0000
0000
1300
0000
0010
0000
2000
0000
3100
0100
0002
0000
0103
0100
,  // measure 21
2000
0000
0000
3002
0000
0000
0023
0000
0230
0000
0300
0000
2000
0000
3010
0010
,  // measure 22
0002
0000
0103
0000
0001
1000
0010
0010
0002
0000
0103
0000
0001
1000
0010
0010
,  // measure 23
0001
1000
0001
0010
0100
1000
0010
1000
0100
0010
0001
1000
0020
0000
0130
0000
,  // measure 24
0102
0000
0000
0000
0013
0000
0200
0000
0320
0000
1030
0000
0020
0000
0031
1000
,  // measure 25
0020
0000
0000
0230
0000
0000
0302
0000
0000
0000
0013
0000
0210
0000
1300
0001
,  // measure 26
0200
0000
1300
0000
0100
0010
0100
0001
0200
0000
1300
0000
0100
0010
0100
0001
,  // measure 27
2000
0000
3100
0000
0010
0100
1000
0010
0M00
0010
0001
1000
0001
0010
0100
1000
,  // measure 28
0020
0000
0000
0000
0130
0000
0002
0000
0023
0000
1030
0000
0020
0000
0130
1000
,  // measure 29
0002
0000
1003
0000
0010
0000
0100
0002
0000
0000
0013
0000
2001
0000
3010
0100
,  // measure 30
0020
0031
2000
3100
0001
0010
2000
3001
,  // measure 31
0200
0000
0300
0010
0001
1000
0010
0100
0001
0000
1000
0000
0100
0000
0010
0100
,  // measure 32
2000
0000
0000
0000
,  // measure 33
0000
0000
0000
0000
,  // measure 34
3000
0000
0000
0000
,  // measure 35
0000
0000
0000
0000
,  // measure 36
0000
0000
0000
0000
,  // measure 37
0000
0000
0000
0000
,  // measure 38
0000
0000
0000
0000
0001
1000
2000
0000
,  // measure 39
3020
0000
0030
0100
0000
0000
0100
0000
0000
0000
0000
0000
0000
0000
0000
0000
,  // measure 40
0110
0000
0000
0001
1000
0001
0010
0100
0000
0010
0001
0000
0100
0010
0000
0010
,  // measure 41
1000
0000
0000
1000
0100
0000
0020
0000
0000
0000
1030
0010
0100
1000
0001
1000
,  // measure 42
0010
0000
0000
0100
0001
0000
0020
0000
0000
0000
0130
0000
0010
0000
0001
0000
,  // measure 43
1001
0000
0000
1000
0001
0000
1000
0000
1000
0010
0100
0000
0001
0000
1000
0000
,  // measure 44
1100
0000
0000
0010
0001
1000
0010
0100
0000
0001
0010
0000
0001
1000
0000
1000
,  // measure 45
0010
0000
0000
0100
0001
0000
0100
0000
1000
0100
0010
1000
0001
0000
0010
0000
,  // measure 46
0100
0000
0000
0100
1000
0000
0020
0000
0000
0000
0130
0000
0001
0000
1000
0000
,  // measure 47
1001
0000
0000
0001
0010
0000
0001
0000
1000
0000
0010
0100
0010
0000
1000
0000
,  // measure 48
1001
0000
0000
0000
0000
0001
0010
0001
0000
0001
0010
0001
0020
0000
0130
0000
,  // measure 49
1000
0000
0000
0000
0000
1000
0001
1000
0000
1000
0001
1000
0010
0100
0001
1000
,  // measure 50
0010
0000
0000
0000
0000
0000
0000
0010
0000
0100
0010
0000
0020
0000
0130
0000
,  // measure 51
0001
0000
0000
0000
0000
0000
0000
0001
0000
1000
0100
0000
0010
0000
0100
0000
,  // measure 52
1000
0000
0010
0000
0100
0000
0001
0000
1000
0001
0000
0000
0010
0000
0100
0000
,  // measure 53
1000
0100
0000
1000
0001
1000
0001
0000
0100
0010
0000
0000
0110
0000
0000
0000
,  // measure 54
0001
0010
0001
0010
0100
1000
0001
1000
0010
0100
0001
1000
0100
0010
0001
1000
,  // measure 55
0040
0000
0000
0000
0430
0000
0000
0000
0301
1000
0001
1000
0010
1000
0100
0000
,  // measure 56
0110
0000
0000
0000
0000
0010
0001
0010
0000
0010
0001
0010
0002
0000
2003
0000
,  // measure 57
3020
0000
0030
0000
0000
0100
0001
0100
0000
0100
0001
1000
0010
0100
0001
1000
,  // measure 58
0100
0000
0000
0000
0110
0000
0010
0001
0000
0010
0001
0000
1001
0000
0000
0000
,  // measure 59
1010
0000
0010
0100
0010
0000
0100
0001
0000
1000
0001
1000
0001
0010
0100
1000
,  // measure 60
0010
0000
0000
0000
0100
0001
0100
0001
0000
0001
1000
0001
0020
0000
0230
0000
,  // measure 61
1300
0000
0000
0000
1010
0000
0010
0000
0010
0100
0001
1000
0000
1000
0001
0000
,  // measure 62
0020
0000
0030
0000
0110
0000
0000
0100
0000
1000
0100
0000
0110
0000
0010
0000
,  // measure 63
0002
0000
0003
0000
1000
0000
0001
1000
0000
0010
0100
0001
1000
0100
0010
0001
,  // measure 64
1000
0000
0000
0000
0001
1000
0001
0100
0000
0100
0010
1000
0000
1000
0002
0000
,  // measure 65
0013
0000
0000
0000
0100
1000
0100
0010
0000
0010
0001
1000
0010
0100
0001
1000
,  // measure 66
0100
0000
0000
0000
0110
0000
0010
0001
0000
0010
0001
0000
2000
0000
3020
0000
,  // measure 67
0130
0000
0000
0000
0101
0000
0000
1000
0000
1000
0001
0000
0110
0000
0001
0000
,  // measure 68
1001
0000
0000
0000
1000
0100
1000
0001
0000
0001
0100
0010
0000
1000
0001
1000
,  // measure 69
0100
0000
0000
0000
0010
0000
0010
0000
0001
1000
0010
0100
0000
0100
0001
1000
,  // measure 70
0100
0000
0000
0000
0110
0000
0000
0010
0000
0100
0010
0000
0001
0000
1000
0000
,  // measure 71
0020
0030
0000
0100
0002
0000
1003
1000
,  // measure 72
2002
0000
0000
0000
,  // measure 73
0000
3003
0000
0000
;

//---------------dance-single - ----------------
#NOTEDATA:;
#CHARTNAME:;
#STEPSTYPE:dance-single;
#DESCRIPTION:;
#CHARTSTYLE:;
#DIFFICULTY:Medium;
#METER:8;
#RADARVALUES:0.441003,0.527096,0.208680,0.366988,0.244659,429.000000,400.000000,29.000000,51.000000,0.000000,0.000000,2.000000,0.000000,0.000000,0.441003,0.527096,0.208680,0.366988,0.244659,429.000000,400.000000,29.000000,51.000000,0.000000,0.000000,2.000000,0.000000,0.000000;
#CREDIT:loodee;
#NOTES:
0000
0000
0000
0000
,
0000
0000
0000
0000
,
0000
0000
0000
0000
,
0000
0000
0000
0000
,
2000
0000
0000
3001
0000
0000
0010
0000
0001
0000
1000
0000
1000
0000
0000
0000
,
0020
0000
0000
0130
0000
0000
0001
0000
1000
0000
0100
0000
0020
0000
0000
0000
,
0032
0000
0000
1003
0000
0000
0010
0000
0100
0000
0010
0000
0010
0000
0000
0000
,
1000
0000
0000
1000
0001
0000
1000
0000
0200
0000
0000
0000
0020
0000
0000
0330
,
0110
0000
0000
2000
0000
3000
0000
0000
,
0001
0000
0100
0001
0040
0030
0100
4000
,
0000
3000
0000
0000
,
0010
0000
0000
0000
0200
0000
0000
0300
0001
1000
0001
0000
0010
0000
0000
0000
,
0020
0030
0100
1000
0001
1000
0020
0000
,
0130
0001
1000
0100
1000
0100
0020
0000
,
0031
0001
1000
1000
0001
0001
0100
0100
,
0001
1000
0001
1000
0002
0000
0000
0000
0013
0000
0000
0000
0000
0000
0000
0000
,
0011
0000
0000
0000
0010
0000
0100
0000
1000
0000
0001
0100
0002
0000
0000
0000
,
0023
0000
0000
0230
0000
0000
2300
0000
0000
0000
3010
0000
0100
0000
0001
1000
,
0002
0013
1000
0010
0002
0013
1000
0010
,
0001
0000
0000
0000
0100
0000
0000
0010
0000
0010
0000
0000
1000
0000
0000
0000
,
1001
0000
0000
0000
0001
0000
0100
0000
0010
0000
1000
0001
1000
0000
0100
0000
,
0020
0000
0000
0230
0000
0000
2300
0000
0000
0000
3010
0000
0100
0000
0001
1000
,
0002
0103
1000
0100
0002
0103
1000
0100
,
0002
0000
0000
0000
1003
0000
0001
0000
0010
0100
0010
0000
0001
1000
0001
0000
,
0100
0000
0000
0000
0110
0000
0010
0000
1000
0000
0001
0000
0010
0000
0001
1000
,
0002
0000
0000
0203
0000
0000
0320
0000
0000
0000
0030
0000
0010
0000
1000
0001
,
1000
0100
0001
0100
1000
0100
0001
0100
,
1000
0000
0000
0000
1001
0000
0000
0001
0000
0001
0000
0100
0001
0000
1000
0000
,
0010
0000
0000
0000
0110
0000
0100
0000
0001
0000
1000
0001
1000
0000
0100
0000
,
0020
0000
0000
0032
0000
0000
0203
0000
0000
0000
0300
0000
0010
0000
1000
0000
,
0100
0010
2000
3010
0100
0010
2000
3010
,
0001
0000
0000
1000
0001
0000
1000
0000
0010
0000
0100
0000
0001
0000
0010
0000
,
2100
0000
0000
0000
,
0000
0000
0000
0000
,
3000
0000
0000
0000
,
0000
0000
0000
0000
,
0000
0000
0000
0000
,
0000
0000
0000
0000
,
0000
0000
0000
0000
0001
1000
2000
0000
,
3002
0000
0003
1000
0000
0000
1000
0000
0000
0000
0000
0000
0000
0000
0000
0000
,
1010
0000
0000
1000
0010
0000
2000
0000
0000
3000
0000
0000
1001
0000
0000
0001
,
0010
0000
0000
0001
0010
0000
0200
0000
0000
0000
0000
0000
1000
0000
0000
0000
,
1300
0000
0000
0001
1000
0000
0020
0000
0000
0030
0000
0000
0110
0000
0000
0000
,
0101
0000
0000
0001
0100
0000
0001
0000
0100
0000
0010
0000
1000
0000
0100
0000
,
0010
0000
0000
0001
0010
0000
0002
0000
0000
0003
0000
0000
1001
0000
0000
1000
,
0010
0000
0000
1000
0010
0000
0200
0000
0000
0000
0000
0000
0301
0000
1000
0000
,
1000
0000
0000
1100
0000
0000
2002
0000
0000
3003
0000
0000
0110
0000
0000
0000
,
1001
0000
0000
0001
1000
0000
0010
0000
0100
0000
0010
0000
0100
0000
0001
0000
,
1001
0000
1000
0000
1000
0000
1000
0100
,
0100
0000
0100
0000
0100
0010
0001
1000
,
0010
0010
0010
0010
,
0100
0000
0100
0000
0100
0000
0100
0001
,
0010
0000
0100
0000
1000
0000
0100
0000
1000
0100
0000
0000
1000
0000
0001
0000
,
1000
0000
0010
0000
0100
0000
0001
0000
0100
0001
0000
0000
0010
0000
0100
0000
,
0010
0010
0001
0001
1000
1000
0010
0010
,
0200
0000
0000
0000
0000
0000
0000
0000
0301
1000
0001
1000
0001
0000
0000
0000
,
0021
0130
1000
0000
0000
0000
2000
3020
,
0130
0001
0000
0110
,
1001
0000
0000
0000
0001
0000
1000
0100
0000
1000
0100
0000
0100
0000
0000
0000
,
0110
0000
0000
0000
0001
0000
0100
0001
0000
0100
0001
0000
1000
0000
0100
0000
,
1000
0000
0000
0000
1000
0001
1000
0000
0000
0010
0100
0010
0100
0000
0001
0000
,
1000
0000
0000
0000
1001
0000
0001
0000
0010
0100
0010
0000
0001
0000
1000
0000
,
0010
0000
0000
0000
0110
0000
0000
0100
0000
0010
0100
0000
0100
0000
0000
0000
,
1001
0000
0000
0000
0002
0000
1003
0100
0000
1000
0100
0000
1000
0000
0001
0000
,
0100
0000
0000
0000
0010
0100
0010
0000
0000
1000
0001
1000
0000
0000
0100
0000
,
0010
0000
0000
0000
0100
1000
0100
0000
0000
1000
0001
1000
0000
0000
0010
0000
,
0100
0000
0000
0000
0001
0000
1000
0001
0000
1000
0001
0000
0010
0000
0100
0000
,
0010
0000
0000
0000
0011
0000
0000
0001
0000
1000
0010
0000
1000
0000
0010
0000
,
0110
0000
0000
0000
0100
0001
0100
0000
0000
0001
1000
0001
0000
0000
0010
0000
,
0100
0000
1100
1000
0100
0010
0001
0100
,
0010
0000
0000
0000
1010
0000
0000
1000
0000
0001
1000
0000
0010
0000
0100
0000
,
0020
0000
0030
1000
0002
0003
0001
0001
,
2002
0000
0000
0000
,
0000
3003
0000
0000
;

//---------------dance-single - ----------------
#NOTEDATA:;
#CHARTNAME:;
#STEPSTYPE:dance-single;
#DESCRIPTION:;
#CHARTSTYLE:;
#DIFFICULTY:Easy;
#METER:4;
#RADARVALUES:0.202512,0.316258,0.215875,0.151113,0.000000,197.000000,167.000000,30.000000,21.000000,0.000000,0.000000,0.000000,0.000000,0.000000,0.202512,0.316258,0.215875,0.151113,0.000000,197.000000,167.000000,30.000000,21.000000,0.000000,0.000000,0.000000,0.000000,0.000000;
#CREDIT:loodee;
#NOTES:
0000
0000
0000
0000
,
0000
0000
0000
0000
,
0000
0000
0000
0000
,
0000
0000
0000
0000
,
1000
0001
0100
0100
,
0001
1000
0100
0100
,
1000
0001
0100
0100
,
0001
1000
2000
0000
,
3100
0000
0000
0020
0000
0030
0000
0000
,
0001
0000
0000
0000
,
0000
0000
0000
0020
0000
0030
0000
0000
,
0000
0000
0001
0001
,
1000
1000
0001
0001
,
1000
1000
0001
0001
,
0010
0100
0010
0100
,
1000
1000
2000
0000
3000
0000
0000
0000
,
1001
0000
1000
0010
,
0002
0000
0000
0003
,
1010
0000
0101
0000
,
0001
2000
0000
3010
,
0100
0000
0001
0010
,
2000
0000
0000
3000
,
0011
0000
1100
0000
,
1000
1000
0010
0100
,
0001
0000
0010
0100
,
0002
0000
0000
0003
,
0110
0000
1001
0000
,
1000
0010
0100
0100
,
0001
0000
0100
0010
,
0002
0000
0000
0003
,
1001
0000
0110
0000
,
1001
0110
1001
0000
,
0022
0000
0000
0000
,
0000
0000
0000
0000
,
0033
0000
0000
0000
,
0000
0000
0000
0000
,
0000
0000
0000
0000
,
0000
0000
0000
0000
,
0000
0000
0000
0000
,
0000
0000
0000
0000
,
1000
0000
0000
1000
0000
0000
0001
0000
,
0100
0000
0000
0200
0000
0000
0000
0000
,
0301
0000
0000
0001
0000
0000
1000
0000
,
0010
0001
0010
1000
,
0001
0000
0000
0001
0000
0000
1000
0000
,
0010
0000
0000
0020
0000
0000
0000
0000
,
1030
0000
0000
2000
0000
3000
0001
0000
,
0010
0000
0000
0100
0000
0000
0100
0000
,
1002
0000
0000
0000
,
0203
0000
0000
0000
,
0320
0000
0000
0000
,
0230
0000
0000
0000
,
0301
0001
0001
1000
,
0100
0100
0100
0010
,
0001
1000
0010
0100
,
0002
0000
1003
0100
,
1001
0000
0000
0000
,
0000
0000
0000
0110
,
1001
0001
0001
0001
,
0010
0010
0100
0100
,
1100
0000
1000
1000
,
1001
0000
0001
0001
,
0101
0000
1000
1000
,
1100
0000
0000
0000
,
1001
0001
0001
0001
,
1001
1000
1000
1000
,
0110
0010
0010
0010
,
1001
1000
0001
1000
,
1001
0001
0001
0001
,
1001
1000
1000
1000
,
0110
0100
0100
0100
,
1001
0000
0000
0000
,
0202
0000
0000
0000
,
0000
0303
0000
0000
;

//---------------dance-single - ----------------
#NOTEDATA:;
#CHARTNAME:;
#STEPSTYPE:dance-single;
#DESCRIPTION:;
#CHARTSTYLE:;
#DIFFICULTY:Beginner;
#METER:1;
#RADARVALUES:0.068875,0.131774,0.028783,0.071958,0.000000,67.000000,63.000000,4.000000,10.000000,0.000000,0.000000,0.000000,0.000000,0.000000,0.068875,0.131774,0.028783,0.071958,0.000000,67.000000,63.000000,4.000000,10.000000,0.000000,0.000000,0.000000,0.000000,0.000000;
#CREDIT:loodee;
#NOTES:
0000
0000
0000
0000
,
0000
0000
0000
0000
,
0000
0000
0000
0000
,
0000
0000
0000
0000
,
1000
0000
0000
0000
,
1000
0000
0000
0000
,
0001
0000
0000
0000
,
0001
0000
0000
0000
,
1001
0000
0000
0000
,
0000
0000
0000
0000
,
0000
0000
0000
0000
,
0000
0000
0000
0000
,
0100
0000
0000
0000
,
0010
0000
0000
0000
,
2000
0000
0000
0000
,
0002
0000
3003
0000
,
0001
0000
0000
0000
,
0001
0000
0000
0000
,
0100
0000
0100
0000
,
0100
0000
0000
0000
,
1000
0000
0000
0000
,
1000
0000
0000
0000
,
0100
0000
0100
0000
,
0100
0000
0000
0000
,
0001
0000
0000
0000
,
0001
0000
0000
0000
,
0100
0000
0100
0000
,
0100
0000
0000
0000
,
1000
0000
0000
0000
,
1000
0000
0000
0000
,
0100
0000
0100
0000
,
0100
0000
0000
0000
,
2002
0000
0000
0000
,
0000
0000
0000
0000
,
3003
0000
0000
0000
,
0000
0000
0000
0000
,
0000
0000
0000
0000
,
0000
0000
0000
0000
,
0000
0000
0000
0000
,
0000
0000
0000
0000
,
0001
0000
0000
0000
,
0001
0000
0000
0000
,
0010
0000
0000
0000
,
0001
0000
0000
0000
,
1000
0000
0000
0000
,
1000
0000
0000
0000
,
0010
0000
0000
0000
,
1000
0000
0000
0000
,
0220
0000
0000
0000
,
0330
0000
0000
0000
,
0000
0000
0000
0000
,
0000
0000
0000
0000
,
1000
0000
0000
0000
,
1000
0000
0000
0000
,
0002
0000
0000
0000
,
2000
0000
3003
0000
,
1000
0000
0000
0000
,
0000
0000
0000
0000
,
1000
0000
0000
0000
,
0010
0000
0000
0000
,
1000
0000
0000
0000
,
0001
0000
0000
0000
,
0010
0000
0000
0000
,
0001
0000
0000
0000
,
1000
0000
1000
0000
,
1000
0000
1000
0000
,
1000
0000
0000
0000
,
0010
0000
0000
0000
,
0001
0000
0001
0000
,
0001
0000
0001
0000
,
0001
0000
0000
0000
,
0100
0000
0000
0000
,
2002
0000
0000
0000
,
0000
3003
0000
0000
;
