#TITLE:Needed Me;
#SUBTITLE:;
#ARTIST:Rihanna;
#TITLETRANSLIT:;
#SUBTITLETRANSLIT:;
#ARTISTTRANSLIT:;
#GENRE:RnB;
#CREDIT:Feraligatr;
#BANNER:Needed Me-bn.png;
#BACKGROUND:Needed Me-bg-wide.png;
#LYRICSPATH:;
#CDTITLE:;
#MUSIC:Rihanna - Needed Me.ogg;
#OFFSET:0.110000;
#SAMPLESTART:42.187000;
#SAMPLELENGTH:17.297001;
#SELECTABLE:YES;
#DISPLAYBPM:111.000000;
#BPMS:0.000000=111.000000
;
#STOPS:
;
#BGCHANGES:;
#KEYSOUNDS:;
#ATTACKS:;

//---------------dance-single - Feraligatr----------------
#NOTES:
     dance-single:
     Feraligatr:
     Challenge:
     10:
     0.556088,0.616107,0.140940,0.946309,0.791946,580.000000,559.000000,21.000000,141.000000,0.000000,0.000000,0.556088,0.616107,0.140940,0.946309,0.791946,580.000000,559.000000,21.000000,141.000000,0.000000,0.000000:
// measure 0
0000
0000
0000
0000
,  // measure 1
0000
0000
0000
0000
,  // measure 2
0000
0000
0000
0000
,  // measure 3
0000
0000
0000
0000
0000
0000
0000
0000
0000
0000
0001
0100
,  // measure 4
1000
0100
0010
1000
0001
1000
0100
0100
0020
1000
0000
0000
,  // measure 5
2030
0000
0000
0000
3001
1000
0100
0100
0020
0000
1030
0100
,  // measure 6
0001
0100
0010
0001
1000
0001
0100
0100
0020
0001
0000
0000
,  // measure 7
0032
0000
0000
0003
1000
0001
0100
0100
0020
0000
0000
0030
,  // measure 8
0001
1000
0010
0001
0010
1000
0100
0100
0020
1000
0000
0000
,  // measure 9
2030
0000
0000
0000
3001
1000
0100
0100
0020
0000
1030
0100
,  // measure 10
0001
0100
0010
0001
1000
0010
0001
1000
0100
0001
1000
0100
,  // measure 11
0001
0000
0000
0000
0100
0000
0000
0000
0010
0000
0000
0000
0001
0000
0000
0000
1000
0000
0000
0000
0010
0000
0000
0000
0001
0000
0000
1000
0000
0000
0000
0000
0000
0100
0000
0000
0001
0000
0000
1000
0000
0000
0100
0000
0000
0000
0000
0000
,  // measure 12
0020
0000
0000
0000
0000
0000
0130
0000
0000
0100
0000
0000
0020
0000
0000
0000
0000
0000
0000
0000
0000
0000
0000
0000
0130
0000
0000
0000
0000
0000
0000
0000
0000
0000
0000
0000
0001
0000
0000
0000
0100
0000
0000
0000
0001
0000
0000
0000
,  // measure 13
0010
0000
0100
0000
0000
0000
0000
0000
1000
0000
0001
0100
0010
1000
0100
0100
,  // measure 14
0010
1000
0001
0010
2000
0000
3010
0000
0001
0000
1000
0100
0010
0001
0100
0100
,  // measure 15
0010
0000
0000
0001
0000
0000
1000
0000
0000
0010
0000
0000
0002
0000
0000
0000
0000
0000
0013
0000
0000
0000
0000
0000
0200
0000
0000
0000
0000
0000
0000
0000
0310
0000
0000
0000
0001
0000
0000
0000
0010
0000
0000
0000
1000
0000
0000
0000
,  // measure 16
0100
0000
0100
0000
0001
0000
0020
0000
0000
0000
0000
0130
0000
0000
0000
0000
0000
0000
0000
0010
0000
0001
0000
1000
,  // measure 17
0000
0000
0010
0000
0000
0000
0010
0000
0000
0000
0001
0000
0000
0000
0200
0000
0000
0000
0000
0000
0000
0000
0000
0000
0310
0000
0000
0000
0000
0000
0000
0000
0000
0000
0000
0000
0000
0000
0000
0000
0000
0000
0000
0000
0000
1000
0000
0000
,  // measure 18
0010
1000
0001
0100
0100
2000
0000
3001
0000
0000
0000
0000
0000
0000
0000
1000
,  // measure 19
0100
1000
0001
0100
0100
0020
0000
0031
0000
0200
0000
0310
0010
0200
0000
0000
,  // measure 20
0302
0000
1003
0010
0002
0000
1003
0010
0002
0000
1003
0100
0002
0000
0013
0100
,  // measure 21
0002
0000
0103
0010
0002
0000
0103
0000
0010
0000
0000
0000
0000
0000
1000
0000
,  // measure 22
1200
0000
0000
0300
1200
0000
0000
0000
0320
0000
0130
0100
0020
0000
0000
0030
,  // measure 23
2010
0000
0000
3000
2010
0000
0000
0000
3020
0000
0130
0100
0020
0000
0100
0000
,  // measure 24
2030
0000
3001
0100
2000
0000
3001
0100
2000
0000
3001
0010
2000
0000
3100
0010
,  // measure 25
2000
0000
3010
0100
2000
0000
3010
0000
0100
0000
0000
0000
0000
0000
0001
0000
,  // measure 26
0021
0000
0000
0030
0021
0000
0000
0000
0130
0000
0000
0000
2000
0000
0000
3000
,  // measure 27
1002
0000
0000
0003
1002
0000
0000
0000
0203
0000
0000
0000
0310
0010
0001
0000
,  // measure 28
0200
0000
0000
0000
0320
0000
0000
0000
1030
0000
0000
0000
0010
0010
0001
1000
,  // measure 29
0200
0000
0000
0000
0000
0000
0000
0000
0000
0310
0000
0000
0002
0000
0000
0000
0000
0000
0000
0000
0000
0000
0000
0000
1003
0000
0000
0000
0000
0000
0001
0000
1000
0000
0001
0000
0000
0000
0100
0000
0000
0000
0020
0000
0000
0000
0000
0000
,  // measure 30
1000
0000
0000
0000
0130
0001
0020
0000
0031
0000
1000
0000
0100
0000
1000
0000
,  // measure 31
0020
0000
0130
0100
0020
0000
0000
0000
0230
0000
0310
0010
0200
0000
0010
0000
,  // measure 32
2300
0000
3001
0010
2000
0000
3001
0010
2000
0000
3001
0100
2000
0000
3010
0100
,  // measure 33
2000
0000
3100
0010
2000
0000
3100
0000
0010
0000
0000
0000
0000
0000
0001
0000
,  // measure 34
0201
0000
0000
0300
0201
0000
0000
0000
0310
0000
0000
0000
2000
0000
0000
3000
,  // measure 35
1002
0000
0000
0000
0000
0000
0000
0000
0000
0003
0000
0000
1002
0000
0000
0000
0000
0000
0000
0000
0000
0000
0000
0000
0203
0000
0000
0000
0000
0000
0000
0000
0000
0000
0000
0000
0000
0000
0000
0000
0310
0000
0000
0000
1000
0000
0000
0000
,  // measure 36
0100
0010
0001
0100
0010
0010
0001
0100
0020
1000
0000
0000
,  // measure 37
2030
0000
0000
0000
3010
0010
0001
0100
0020
0000
1030
0001
,  // measure 38
0100
0010
1000
0100
0010
0010
1000
0100
0020
0001
0000
0000
,  // measure 39
0032
0000
0000
0000
0013
0010
1000
0100
0020
0000
0130
1000
,  // measure 40
0010
0100
0001
0010
0100
0100
0001
0010
0200
1000
0000
0000
,  // measure 41
2300
0000
0000
0000
3100
0100
0001
0010
0010
1000
0001
0100
,  // measure 42
1000
0100
0010
1000
0001
0010
1000
0001
0100
1000
0001
0100
,  // measure 43
1000
0000
0000
0000
0100
0000
0000
0000
0010
0000
0000
0000
1000
0000
0000
0000
0001
0000
0000
0000
0010
0000
0000
0000
1000
0000
0000
0000
0001
0000
0000
0000
0100
0000
0000
0000
1000
0000
0000
0001
0000
0000
0100
0000
0000
0000
0000
0000
,  // measure 44
0020
0000
0000
0000
0000
0000
0130
0000
0000
0100
0000
0000
0020
0000
0000
0000
0000
0000
0000
0000
0000
0000
0000
0000
0031
0000
0000
0000
0000
0000
0000
0000
0000
0000
0000
0000
1000
0000
0000
0000
0010
0000
0000
0000
1000
0000
0000
0000
,  // measure 45
0100
0000
0000
0000
0000
0000
0010
0000
0000
0000
0000
0000
0002
0000
0000
0000
0000
0000
0000
0000
0000
0000
0203
0000
0000
0000
0000
0000
0000
0000
0301
0000
0000
0010
0000
0000
0100
0000
0000
1000
0000
0000
0010
0000
0000
0010
0000
0000
,  // measure 46
0100
1000
0001
0100
2000
0000
3100
0000
0001
0000
1000
0010
0100
0001
0010
0010
,  // measure 47
0100
0000
0000
0001
0000
0000
1000
0000
0000
0100
0000
0000
0002
0000
0000
0000
0000
0000
0103
0000
0000
0000
0000
0000
0020
0000
0000
0000
0000
0000
0000
0000
0130
0000
0000
0000
0001
0000
0000
0000
0100
0000
0000
0000
1000
0000
0000
0000
,  // measure 48
0010
0000
0010
0000
0001
0000
0200
0000
0000
0000
0000
0310
0000
0000
0000
0000
0000
0000
0000
0100
0000
0001
0000
1000
,  // measure 49
0000
0000
0100
0000
0000
0000
0100
0000
0000
0000
0001
0000
0000
0000
0020
0000
0000
0000
0000
0000
0000
0000
0000
0000
0130
0000
0000
0000
0000
0000
0000
0000
0000
0000
0000
0000
0000
0000
0000
0000
0000
0000
0000
0000
0000
1000
0000
0000
,  // measure 50
0100
1000
0001
0010
0010
2000
0000
3001
0000
0000
0000
0000
0000
0000
0000
1000
,  // measure 51
0010
1000
0001
0010
0010
0200
0000
0301
0000
0020
0000
0130
0100
0020
0000
0000
,  // measure 52
0032
0000
1003
0100
0002
0000
1003
0100
0002
0000
1003
0010
0002
0000
0103
0010
,  // measure 53
0002
0000
0013
0100
0002
0000
0013
0000
0100
0000
0000
0000
0000
0000
1000
0000
,  // measure 54
1020
0000
0000
0030
1020
0000
0000
0000
0230
0000
0310
0010
0200
0000
0000
0300
,  // measure 55
2100
0000
0000
3000
2100
0000
0000
0000
3200
0000
0310
0010
0200
0000
0010
0000
,  // measure 56
2300
0000
3001
0010
2000
0000
3001
0010
2000
0000
3001
0100
2000
0000
3010
0100
,  // measure 57
2000
0000
3100
0010
2000
0000
3100
0000
0020
0000
0000
0000
0031
0000
0100
0000
,  // measure 58
0010
1000
0002
0000
0010
0000
1003
0100
0020
0000
0000
0000
0230
0000
1300
0100
,  // measure 59
0020
0000
0000
0000
0230
0000
2300
0000
3002
0000
0000
0000
0013
0010
1000
0000
,  // measure 60
0020
0000
0000
0000
0230
0000
0000
0000
0301
0000
0000
0000
0100
0100
1000
0001
,  // measure 61
0200
0000
0000
0000
0000
0000
0000
0000
0000
0310
0000
0000
2000
0000
0000
0000
0000
0000
0000
0000
0000
0000
0000
0000
3001
0000
0000
0000
0000
0000
1000
0000
0001
0000
1000
0000
0000
0000
0100
0000
0000
0000
0020
0000
0000
0000
0000
0000
,  // measure 62
0001
0000
0000
0000
0130
1000
0020
0000
1030
0000
0001
0000
0100
0000
0001
0000
,  // measure 63
0020
0000
0130
0100
0020
0000
0000
0000
0230
0000
0310
0010
0200
0000
0010
0000
,  // measure 64
0302
0000
1003
0010
0002
0000
1003
0010
0002
0000
1003
0100
0002
0000
0013
0100
,  // measure 65
0002
0000
0103
0010
0002
0000
0103
0000
0020
0000
0000
0000
2030
0000
3001
0000
,  // measure 66
0021
0000
0000
0030
0021
0000
0000
0000
0130
0000
0000
0000
2000
0000
0000
3000
,  // measure 67
1002
0000
0000
0003
1002
0000
0000
0000
0203
0000
0000
0000
0000
0000
0310
0000
,  // measure 68
1010
0000
0000
0000
;

//---------------dance-single - Feraligatr----------------
#NOTES:
     dance-single:
     Feraligatr SH:
     Hard:
     9:
     0.506232,0.616107,0.073826,0.516779,0.798658,528.000000,517.000000,11.000000,77.000000,30.000000,0.000000,0.506232,0.616107,0.073826,0.516779,0.798658,528.000000,517.000000,11.000000,77.000000,30.000000,0.000000:
0000
0000
0000
0000
,
0000
0000
0000
0000
,
0000
0000
0000
0000
,
0000
0000
0000
0000
0000
0000
0000
0000
0000
0000
1000
0010
,
0100
0001
1000
0100
1000
0001
0100
0001
0020
0100
0000
0000
,
0230
0000
0000
0000
1300
0001
0100
0001
0020
0000
0130
1000
,
0010
1000
0001
0100
0001
1000
0100
1000
0020
0100
0000
0000
,
0230
0000
0000
0000
0301
1000
0100
1000
0020
0000
0000
0030
,
0100
0001
1000
0100
1000
0001
0010
0001
0200
0010
0000
0000
,
0320
0000
0000
0000
1030
0010
0100
0001
0020
0000
0130
1000
,
0001
0100
0001
0010
0100
1000
0010
0100
0001
1000
0100
1000
,
0010
0000
0100
0000
0001
0000
1000
0000
0100
0000
1000
0000
0010
0000
0100
0000
0001
0000
1000
0000
0000
0001
0000
0000
,
0020
0000
0000
0230
0000
0000
1300
0000
0000
0001
1000
0100
,
0010
0000
0001
0000
0000
0000
0000
0000
1000
0000
0001
0100
0001
1000
0100
0010
,
0001
1000
0010
1000
0100
0000
0010
0000
0001
0000
1000
0010
1000
0001
0010
0100
,
1000
0000
0000
0001
0000
0000
0100
0000
0000
0001
0000
0000
0010
0000
0000
0000
0000
0000
0100
0000
0000
0000
0000
0000
2000
0000
0000
0000
0000
0000
0000
0000
0000
0000
0000
0000
3010
0000
0000
0000
0100
0000
0000
0000
0001
0000
0000
0000
,
1000
0000
0100
0000
0010
0000
0002
0000
0000
0000
0000
1003
0000
0000
0000
0000
0000
0000
0000
0001
0000
0100
0000
0010
,
0000
0000
1000
0000
0000
0000
0001
0000
0000
0000
1000
0000
0000
0000
0200
0000
0000
0000
0000
0000
0000
0000
0000
0000
0310
0000
0000
0000
0000
0000
0000
0000
0000
0000
0000
0000
0000
0000
0000
0000
0000
0000
0000
0000
0000
0001
0000
0000
,
1000
0001
0100
0010
0100
0001
0000
1000
0000
0000
0000
0000
0000
0000
0000
0001
,
0010
0100
1000
0001
1000
0010
0000
0100
0000
0002
0000
0000
0000
2003
0000
0000
,
3100
00M0
0100
0001
0010
0M00
0010
1000
0100
00M0
0100
0001
0010
0M00
0010
1000
,
0100
00M0
0100
0001
1000
0000
0100
0000
0010
0000
0000
0000
0000
0000
0001
0000
,
2001
0000
0000
0000
0001
0000
0000
0000
3020
0000
0000
0000
0230
0000
0000
0300
,
0102
0000
0100
0000
0023
0000
0130
1000
,
0010
0M00
0010
0001
0100
00M0
0100
1000
0010
0M00
0010
0001
0100
00M0
0100
1000
,
0010
0M00
0010
0001
1000
0000
0010
0000
0100
0000
0000
0000
0000
0000
0001
0000
,
2001
0000
0000
0000
0001
0000
0000
0000
3100
0000
0000
0000
2000
0000
0000
3000
,
1200
0000
0000
0000
1000
0000
0000
0000
0320
0000
0000
0000
0031
1000
0001
0000
,
0200
0000
0000
0000
0320
0000
0000
0000
1030
0000
0000
0000
0001
0100
0001
0000
,
2000
0000
3200
0000
0310
0001
1000
0020
,
0100
0000
2030
0000
3001
0010
0100
1000
,
0020
0000
0230
0300
0020
0000
0130
0001
,
0010
0M00
0010
1000
0100
00M0
0100
0001
0010
0M00
0010
1000
0100
00M0
0100
0001
,
0010
0M00
0010
1000
0001
0000
0100
0000
0010
0000
0000
0000
0000
0000
1000
0000
,
1002
0000
0000
0000
1000
0000
0000
0000
0013
0000
0000
0000
0200
0000
0000
0300
,
2100
0000
0000
0100
0000
0000
3002
0000
0000
0000
1003
0010
,
0100
0001
1000
0100
1000
0001
0100
0001
0020
0100
0000
0000
,
0230
0000
0000
0000
1300
0001
0100
0001
0020
0000
0031
1000
,
0100
0010
0001
1000
0010
0100
0010
1000
0200
0010
0000
0000
,
0320
0000
0000
0000
0130
1000
0010
0100
0002
0000
1003
0100
,
0010
0001
0010
0100
1000
0001
0100
0001
0020
0100
0000
0000
,
0230
0000
0000
0000
1300
0010
0100
0001
0010
0100
1000
0001
,
0100
0001
1000
0100
0010
0001
0100
0010
0100
0001
1000
0100
,
0010
0000
0100
0000
1000
0000
0001
0000
0100
0000
0001
0000
0010
0000
0100
0000
0010
0000
0001
0000
0000
1000
0000
0000
,
0020
0000
0000
0230
0000
0000
0301
0000
0000
1000
0001
0100
,
0010
0000
0000
0000
0000
0000
1000
0000
0000
0000
0000
0000
0200
0000
0000
0000
0000
0000
0000
0000
0000
0000
0320
0000
0000
0000
0000
0000
0000
0000
0031
0000
0000
0100
0000
0000
0001
0000
0000
1000
0000
0000
0100
0000
0000
0010
0000
0000
,
0001
1000
0010
1000
0100
0000
0010
0000
0001
0000
1000
0010
1000
0001
0010
0100
,
1000
0000
0000
0001
0000
0000
0100
0000
0000
0001
0000
0000
0010
0000
0000
0000
0000
0000
0100
0000
0000
0000
0000
0000
2000
0000
0000
0000
0000
0000
0000
0000
0000
0000
0000
0000
3010
0000
0000
0000
0100
0000
0000
0000
0001
0000
0000
0000
,
1000
0000
0100
0000
0010
0000
0002
0000
0000
0000
0000
1003
0000
0000
0000
0000
0000
0000
0000
0001
0000
0010
0000
0100
,
0000
0000
1000
0000
0000
0000
0001
0000
0000
0000
1000
0000
0000
0000
0020
0000
0000
0000
0000
0000
0000
0000
0000
0000
0130
0000
0000
0000
0000
0000
0000
0000
0000
0000
0000
0000
0000
0000
0000
0000
0000
0000
0000
0000
0000
0001
0000
0000
,
1000
0001
0010
0100
0010
0001
0000
1000
0000
0000
0000
0000
0000
0000
0000
0001
,
0100
0010
1000
0001
1000
0100
0000
0010
0000
0002
0000
0000
0000
2003
0000
0000
,
3010
0M00
0010
0001
0100
00M0
0100
1000
0010
0M00
0010
0001
0100
00M0
0100
1000
,
0010
0M00
0010
0001
1000
0000
0010
0000
0100
0000
0000
0000
0000
0000
0001
0000
,
2001
0000
0000
0000
0001
0000
0000
0000
3200
0000
0000
0000
0320
0000
0000
0030
,
0012
0000
0010
0000
0203
0000
0310
1000
,
0100
00M0
0100
0001
0010
0M00
0010
1000
0100
00M0
0100
0001
0010
0M00
0010
1000
,
0100
00M0
0100
0001
1000
0000
0100
0000
0020
0000
0000
0000
0031
0000
1000
0000
,
0010
1000
0002
0000
0000
0000
0013
0100
2000
0000
0000
0000
3100
0000
0010
0100
,
2000
0000
0000
0000
3100
0000
0010
0000
0002
0000
0000
0000
1003
0001
1000
0000
,
0020
0000
0000
0000
0230
0000
0000
0000
0301
0000
0000
0000
1000
0010
1000
0000
,
0002
0000
0013
0000
0100
1000
0001
0200
,
0010
0000
0302
0000
1003
0100
0010
0001
,
0200
0000
0320
0030
0200
0000
0310
1000
,
0100
00M0
0100
0001
0010
0M00
0010
1000
0100
00M0
0100
0001
0010
0M00
0010
1000
,
0100
00M0
0100
0001
1000
0000
0010
0000
0100
0000
0000
0000
0000
0000
0001
0000
,
2001
0000
0000
0000
0001
0000
0000
0000
3100
0000
0000
0000
0020
0000
0000
0030
,
0012
0000
0010
0000
2003
0000
0000
3010
,
0110
0000
0000
0000
;

//---------------dance-single - Feraligatr----------------
#NOTES:
     dance-single:
     Feraligatr SM:
     Medium:
     6:
     0.283797,0.387919,0.000000,0.268456,0.120805,296.000000,296.000000,0.000000,40.000000,0.000000,0.000000,0.283797,0.387919,0.000000,0.268456,0.120805,296.000000,296.000000,0.000000,40.000000,0.000000,0.000000:
0000
0000
0000
0000
,
0000
0000
0000
0000
,
0000
0000
0000
0000
,
0000
0000
0000
0000
,
1000
0000
0000
0010
0000
0000
0100
0001
1000
0100
0000
0000
,
0100
0000
0000
0000
0000
0000
0010
0001
0010
0000
0000
0000
,
0100
0000
0000
1000
0000
0000
0001
0100
0010
1000
0000
0000
,
1000
0000
0000
0000
0000
0000
0001
0010
0001
0000
0000
0000
,
1000
0000
0000
0010
0000
0000
0100
0001
1000
0100
0000
0000
,
0100
0000
0000
0000
0000
0000
0010
0001
0010
0000
0000
0000
,
0100
0000
0000
1000
0000
0000
0001
0100
0001
1000
0100
1000
,
0001
0000
0000
0100
0000
0000
0010
1000
0001
0010
0000
0000
,
0200
2300
3001
0100
,
0010
1000
0000
0000
0001
0010
0100
1000
,
0001
0100
1000
0100
0001
1000
0100
0010
,
0001
0100
1000
0100
0001
0000
0010
0000
,
0200
0000
1300
0001
,
0200
0000
0310
0000
,
1000
0100
1000
0100
0000
0000
0000
0000
,
0010
0001
0010
0001
0200
0000
0320
0000
,
4030
3400
0304
0403
,
0340
0034
0103
0000
,
0010
0010
2000
3002
,
0013
0010
0002
2003
,
3004
0403
4300
3400
,
0340
4030
3100
0000
,
0010
0010
0001
0000
,
1000
0000
1000
0000
0010
0000
0100
0001
,
2000
0000
3200
0000
0310
0000
0001
1000
,
0020
0000
0230
0000
0301
1000
0100
0010
,
0002
0000
2003
0000
3010
0100
0001
0100
,
0020
2030
3020
2030
,
3004
0043
4030
3040
,
0034
0403
0310
0000
,
1000
1000
0001
0000
,
0010
0010
0100
0000
,
1000
0000
0000
0001
0000
0000
0100
0001
0010
0100
0000
0000
,
0100
0000
0000
0000
0000
0000
1000
0100
0010
0000
0000
0000
,
0100
0000
0000
1000
0000
0000
0001
0100
0010
1000
0000
0000
,
1000
0000
0000
0000
0000
0000
0001
0010
0100
0000
0000
0000
,
1000
0000
0000
0001
0000
0000
0100
0010
1000
0001
0000
0000
,
0001
0000
0010
0100
,
1000
0000
0000
0001
0000
0000
0100
0010
1000
0001
0010
0100
,
1000
0000
0000
0001
0000
0000
0100
0010
1000
0001
0010
0100
,
0020
0032
1003
0010
,
0100
0001
0000
0000
1000
0100
0010
0001
,
1000
0010
0001
0010
1000
0001
0010
0100
,
1000
0010
0001
0010
1000
0000
0100
0000
,
0020
0000
0031
1000
,
0020
0000
0130
0000
,
0001
0010
0001
0010
0000
0000
0000
0000
,
0100
1000
0100
1000
0020
0000
0230
0000
,
0304
0043
4030
3040
,
0430
4300
3010
0000
,
0100
0100
0002
2003
,
3100
0100
2000
3002
,
4003
3040
0034
0043
,
0430
0304
0013
0000
,
0100
0100
1000
0000
,
0001
0000
0001
0000
0100
0000
0010
1000
,
0002
0000
0023
0000
0130
0000
1000
0001
,
0200
0000
0320
0000
1030
0001
0010
0100
,
2000
0000
3002
0000
0103
0010
1000
0010
,
0200
0302
0203
0302
,
4003
3400
0304
0403
,
4300
3040
0130
0000
,
0001
0001
1000
0000
,
0100
0100
0010
0000
,
0001
0000
0000
0000
;

//---------------dance-single - Feraligatr----------------
#NOTES:
     dance-single:
     Feraligatr SE:
     Easy:
     4:
     0.202301,0.205369,0.000000,0.496644,0.000000,211.000000,211.000000,0.000000,74.000000,0.000000,0.000000,0.202301,0.205369,0.000000,0.496644,0.000000,211.000000,211.000000,0.000000,74.000000,0.000000,0.000000:
0000
0000
0000
0000
,
0000
0000
0000
0000
,
0000
0000
0000
0000
,
0000
0000
0000
0000
,
1000
0010
0100
0001
,
0001
0000
1000
0000
,
0100
0010
0001
1000
,
1000
0000
0010
0000
,
0100
0001
1000
0100
,
0100
0000
0010
0000
,
0001
0100
1000
0100
,
0001
0010
1000
0010
,
0002
0203
0310
1000
,
1000
0000
0001
0000
,
0010
0100
1000
0001
,
0001
0100
0010
1000
,
0002
0000
0013
0000
,
0200
0000
1300
0000
,
0002
0000
0103
0000
,
0002
0000
2003
3200
,
2300
3020
0230
0302
,
0023
0230
1300
0001
,
0001
0100
0020
2030
,
3001
0001
0020
0032
,
2003
3020
0230
0302
,
0023
0230
1300
0000
,
0001
0001
0100
0000
,
0010
0010
1000
0001
,
0020
0130
1000
0000
,
0002
0103
0010
0000
,
2000
3100
0010
0000
,
0002
2003
3002
2003
,
3002
0203
0320
2030
,
3200
0320
0031
0000
,
1000
1000
0010
0000
,
0100
0100
0001
0000
,
1000
0100
0010
0001
,
0001
0000
1000
0000
,
0100
1000
0001
0100
,
0100
0000
0010
0000
,
1000
0001
0010
0100
,
0100
0000
1000
0000
,
0001
0100
1000
0100
,
0001
0010
1000
0010
,
0002
0023
0130
1000
,
1000
0000
0001
0000
,
0100
0010
1000
0001
,
0001
0010
0100
1000
,
0002
0000
0103
0000
,
0020
0000
1030
0000
,
0002
0000
0013
0000
,
0002
0000
2003
3020
,
2030
3200
0320
0032
,
0203
0320
1030
0001
,
0001
0010
0200
2300
,
3001
0001
0200
0302
,
2003
3200
0320
0032
,
0203
0320
1030
0000
,
0001
0001
0010
0000
,
0100
0100
1000
0001
,
0200
0310
1000
0000
,
0002
0013
0100
0000
,
2000
3010
0100
0000
,
0002
2003
3002
2003
,
3002
0023
0230
2300
,
3020
0230
0301
0000
,
1000
1000
0100
0000
,
0010
0010
0001
0000
,
1000
0000
0000
0000
;

//---------------dance-single - Feraligatr----------------
#NOTES:
     dance-single:
     Feraligatr SN:
     Beginner:
     2:
     0.148610,0.205369,0.000000,0.201342,0.000000,155.000000,155.000000,0.000000,30.000000,0.000000,0.000000,0.148610,0.205369,0.000000,0.201342,0.000000,155.000000,155.000000,0.000000,30.000000,0.000000,0.000000:
0000
0000
0000
0000
,
0000
0000
0000
0000
,
0000
0000
0000
0000
,
0000
0000
0000
0000
,
1000
0000
0000
0001
,
0001
0000
0010
0000
,
0100
0000
0000
1000
,
1000
0000
0001
0000
,
0100
0000
0000
0010
,
0010
0000
1000
0000
,
0001
0000
0010
0000
,
0001
0000
0010
0000
,
0100
0000
1000
0001
,
0001
0000
0100
0000
,
0010
0000
1000
0001
,
0001
0000
0010
0000
,
0200
0000
0300
0000
,
2000
0000
3000
0000
,
0002
0000
0003
0000
,
0200
0000
0300
0000
,
0001
0001
1000
1000
,
0001
0001
1000
0000
,
0000
0000
0200
0320
,
0030
0000
0200
0320
,
0031
0001
1000
1000
,
0001
0001
0100
0000
,
0010
0010
1000
0000
,
0001
0001
0010
0000
,
0200
1300
0000
0000
,
0002
0103
0000
0000
,
0020
1030
0000
0000
,
0002
0023
0032
0023
,
0130
0100
1000
1000
,
0001
0001
0100
0000
,
0010
0010
1000
0000
,
0001
0001
0010
0000
,
0100
0000
0000
1000
,
1000
0000
0001
0000
,
0100
0000
0000
0010
,
0010
0000
1000
0000
,
0001
0000
0000
0010
,
0010
0000
0100
0000
,
1000
0000
0001
0000
,
1000
0000
0001
0000
,
0010
0000
0001
1000
,
1000
0000
0010
0000
,
0100
0000
0001
1000
,
1000
0000
0100
0000
,
0020
0000
0030
0000
,
0002
0000
0003
0000
,
2000
0000
3000
0000
,
0020
0000
0030
0000
,
1000
1000
0001
0001
,
1000
1000
0001
0000
,
0000
0000
0020
0230
,
0300
0000
0020
0230
,
1300
1000
0001
0001
,
1000
1000
0010
0000
,
0100
0100
0001
0000
,
1000
1000
0100
0000
,
0020
0031
0000
0000
,
2000
3010
0000
0000
,
0200
0301
0000
0000
,
2000
3200
2300
3200
,
0310
0010
0001
0001
,
1000
1000
0010
0000
,
0100
0100
0001
0000
,
1000
1000
0100
0000
,
0001
0000
0000
0000
;
