#TITLE:Mother Ship;
#SUBTITLE:(Camellia's "KABOOOOOOOM!!" Remix);
#ARTIST:かめりあ;
#TITLETRANSLIT:;
#SUBTITLETRANSLIT:;
#ARTISTTRANSLIT:Camellia;
#GENRE:OWNS;
#CREDIT:loodee & Maxx;
#BANNER:mothership-bn.png;
#BACKGROUND:mothership-bg-wide.png;
#LYRICSPATH:;
#CDTITLE:;
#MUSIC:Mother Ship (Camellia's KABOOOOOOOM!! Remix).ogg;
#OFFSET:-0.093123;
#SAMPLESTART:58.843876;
#SAMPLELENGTH:26.118999;
#SELECTABLE:YES;
#BPMS:0.000000=147.000000
;
#STOPS:
;
#BGCHANGES:;
#KEYSOUNDS:;
#ATTACKS:;

//---------------dance-single - ----------------
#NOTES:
     dance-single:
     loodee & Maxx:
     Challenge:
     13:
     1.009957,1.200753,0.391463,0.449890,1.551244,1210.000000,1135.000000,67.000000,77.000000,28.000000,12.000000,1.009957,1.200753,0.391463,0.449890,1.551244,1210.000000,1135.000000,67.000000,77.000000,28.000000,12.000000:
// measure 0
0000
0000
0000
0000
,  // measure 1
0000
0000
0000
0000
,  // measure 2
0000
0000
0000
0000
,  // measure 3
0000
0000
0000
0000
0000
0000
0000
0000
0000
0000
0000
1100
0000
0022
0000
0033
,  // measure 4
2002
3003
0000
0000
,  // measure 5
0000
0000
0000
0000
,  // measure 6
2002
0000
0000
0000
3003
0101
0000
1010
0000
0000
2200
0000
3300
0000
0220
0000
,  // measure 7
0330
0000
0000
0000
0000
0000
0022
0000
0000
0000
0000
0000
0033
0000
0000
0000
0000
0000
2001
0000
0000
0000
0000
0000
3100
0000
0000
0000
0000
0000
0010
0000
0000
0100
0000
0000
2000
0000
0000
0000
0000
0000
3001
0000
0100
0000
0001
0000
,  // measure 8
0100
0010
1000
0100
0010
0001
1000
0010
0100
0010
1000
0001
0010
0100
1000
0001
,  // measure 9
0100
0010
0100
0001
1000
0100
0010
0001
1000
0010
0100
0001
0000
1000
0001
1000
,  // measure 10
0100
0010
0001
1000
0010
0100
0010
1000
0001
0010
0100
1000
0001
0000
0001
1000
,  // measure 11
0100
0000
0000
0010
0000
0000
0001
0000
1000
0000
0010
0000
0100
0000
0000
0010
0000
0000
1000
0000
0001
0000
1000
0000
0100
0000
0000
0010
0000
0000
0100
0000
1000
0000
0001
0000
0100
0000
0000
0000
0000
0000
0100
0000
0000
0010
0000
0000
,  // measure 12
1000
0100
0010
0001
1000
0001
0100
0010
1000
0001
0010
0100
1000
0001
0100
0010
,  // measure 13
1000
0001
1000
0100
0010
0001
1000
0010
0100
0001
1000
0001
0010
0100
1000
0001
0100
0010
1000
0100
0010
0001
1000
0010
,  // measure 14
0400
0304
0043
0430
,  // measure 15
4300
3004
0403
0340
,  // measure 16
2032
0000
0000
0000
,  // measure 17
0000
0000
0000
3003
1100
0000
0000
0000
,  // measure 18
0101
0000
0001
0000
,  // measure 19
1000
0001
1000
0100
0010
0001
1000
0010
0100
0000
0001
0000
1001
1000
0001
0010
,  // measure 20
0202
0000
0000
0303
0110
0000
1000
0000
0001
0100
00M0
0100
1000
0100
0100
0010
,  // measure 21
2000
0000
0000
3100
0010
0001
1000
0010
0100
0100
1000
0001
0010
0010
1000
0000
,  // measure 22
0202
0000
0000
0303
0110
0000
1000
0000
0001
0010
0M00
0010
1000
0010
0010
0100
,  // measure 23
2000
0000
0000
3010
0100
0001
1000
0100
0010
0010
1000
0001
0100
0100
1000
0000
,  // measure 24
0022
0000
0000
0033
0110
0000
1000
0000
0001
0100
00M0
0100
1000
0010
0010
0001
,  // measure 25
2000
0000
0000
3010
0100
0010
1000
0001
0010
0010
1000
0001
0100
0100
0010
0000
,  // measure 26
0101
0000
0020
0000
1031
0000
2000
0000
3010
0100
0000
0010
1100
0011
0000
2000
,  // measure 27
0000
0000
3002
0000
0000
0013
0000
0000
0220
0000
0330
0220
0000
0330
1001
0000
,  // measure 28
0101
0100
0000
0010
1000
0001
1000
0100
0010
0010
0100
0001
1000
0001
0010
0100
,  // measure 29
2000
0000
0000
3001
0100
0001
1000
0100
0010
0010
1000
0001
0100
0000
0010
0000
,  // measure 30
0102
0000
0000
1003
0001
0000
0010
0000
0100
0010
0001
1000
0010
0000
1000
0100
,  // measure 31
0020
0000
0100
0000
0031
0000
1000
0001
0010
0100
1000
0010
0100
0000
0001
0000
,  // measure 32
2002
0000
0000
3003
1000
0001
0100
0000
0001
1000
0100
0100
0001
0000
1000
0001
,  // measure 33
0200
0000
0000
0000
0301
1000
0001
0010
0100
1000
0001
0100
0010
0000
0100
0000
,  // measure 34
0011
0000
0000
0000
0000
0000
0011
0000
0000
0000
0000
0000
1100
0000
0000
0000
0000
0000
1100
0000
0000
0000
0000
0000
0001
0000
0000
0000
0000
0000
1000
0000
0001
0000
1000
0000
0100
0000
0000
0010
0000
0000
0001
0000
0000
1000
0000
0000
,  // measure 35
0002
0000
0000
0000
1003
0001
1000
0000
0100
0000
0010
0100
1000
0000
1000
0000
,  // measure 36
0001
0100
0010
1000
0100
0010
0001
1000
0010
0100
0001
0010
0M00
0010
1000
0010
,  // measure 37
0M00
0010
0001
1000
0100
0001
0100
0010
0M00
0010
1000
0001
1000
0100
0010
0100
,  // measure 38
M000
0100
0001
1000
0001
0100
0010
0100
000M
0100
1000
0001
1000
0100
0010
0100
,  // measure 39
M000
0100
0001
1000
0100
0010
0100
1000
0010
0001
0010
0100
0001
1000
0100
0010
,  // measure 40
0001
0100
0001
1000
0100
1000
0001
0010
0100
0100
0001
1000
0010
0010
0001
1000
,  // measure 41
0100
0010
0100
0010
0001
0010
0100
1000
0010
0010
0001
1000
0100
0100
0001
1000
,  // measure 42
0010
0100
0010
1000
0001
0010
0100
1000
0001
0100
0001
1000
0100
0010
0001
1000
,  // measure 43
0010
1000
0001
0010
0100
1000
0001
0100
0100
1000
0010
0010
0001
0100
0100
1000
,  // measure 44
0101
0010
0001
0010
0101
1000
0010
0100
0001
1000
0001
0010
0M00
0010
1000
0100
,  // measure 45
00M0
0100
0001
0010
0100
1000
0100
0010
000M
0010
1000
0100
1000
0001
0010
0100
,  // measure 46
M000
0100
0001
1000
0010
0100
0001
0010
0M00
0010
1000
0001
0010
0100
1000
0100
,  // measure 47
00M0
0100
0001
0010
0001
0100
0010
1000
0001
0010
0400
0000
0000
0000
0000
0000
,  // measure 48
1310
0000
1010
0000
1000
0010
0010
0001
1000
0100
0100
0010
2200
0000
3300
0000
,  // measure 49
0011
0000
0011
0000
1000
0100
0100
0001
1000
0010
0010
0100
2000
0000
3002
0000
,  // measure 50
1003
0001
1000
0010
0100
0010
1000
0001
0010
0100
1000
0001
1100
0000
0010
0000
,  // measure 51
0101
0000
0002
0000
0000
0000
1003
0000
0001
1000
0100
0010
0001
1000
0010
0100
,  // measure 52
0022
0033
1000
0000
0100
0000
0010
0000
,  // measure 53
0001
1000
0010
0100
,  // measure 54
0001
0010
0100
1000
,  // measure 55
0001
0000
0100
0000
0010
0000
1000
0001
,  // measure 56
1000
0100
0010
0001
1000
0010
0100
0001
1000
0100
1000
0001
0100
0010
1000
0001
,  // measure 57
0010
0001
1000
0001
0100
0010
1000
0001
0010
0100
1000
0010
0100
0010
1000
0001
,  // measure 58
1000
0100
0010
0001
1000
0010
1000
0001
0010
0100
1000
0010
0100
0001
1000
0100
,  // measure 59
0010
0000
0000
0010
0000
0000
0001
1000
0001
1000
0000
0000
2000
0000
0000
3000
0000
0000
0001
0000
0000
0000
0000
0000
,  // measure 60
1000
0001
0010
0100
1000
0001
0100
0100
1000
0010
0100
0001
1000
0100
0010
0010
,  // measure 61
4000
0100
0000
0001
0000
3010
0100
0001
1000
0100
1000
0010
1000
0001
0010
0100
,  // measure 62
1000
0001
1000
0010
0010
0001
0100
0100
1000
0001
1000
0010
0100
0100
1000
0001
,  // measure 63
0040
0100
0000
0001
0000
0130
1000
0001
0100
0010
0100
0001
0100
0010
1000
0001
,  // measure 64
0010
0100
1000
0001
0100
0001
0010
0010
1000
0100
0010
0001
1000
0010
0100
0100
,  // measure 65
4000
0010
0000
0001
0000
3100
0010
0001
1000
0010
1000
0100
1000
0001
0100
0010
,  // measure 66
1000
0001
1000
0100
0100
0001
0010
0010
1000
0001
1000
0100
0010
0010
1000
0001
,  // measure 67
0400
0010
0000
0001
0000
0310
1000
0001
0010
0100
0010
0100
1000
0001
0010
0100
,  // measure 68
1000
0010
0100
0001
0000
0010
0010
2000
0000
3000
0010
1000
0000
1000
0100
00M0
,  // measure 69
0100
0000
0001
0100
0000
0010
0010
0001
0000
0001
2000
0000
3100
0100
0002
0000
,  // measure 70
0013
0100
1000
0010
0000
0100
0100
2000
0000
3000
0100
1000
0000
1000
0010
0M00
,  // measure 71
0010
0000
0001
0010
0000
0100
0100
0001
0000
0001
2000
0000
3010
0010
0002
0000
,  // measure 72
0103
0010
0100
1000
000M
1000
0010
0200
0000
0300
0010
0100
0000
0100
1000
000M
,  // measure 73
2000
0000
3010
0100
0000
0100
1000
0100
0000
0100
0020
0000
1030
0100
0020
0000
,  // measure 74
0031
0000
0000
0010
0000
0000
0100
0000
0000
0001
0000
0000
M000
0000
0000
0001
0000
0000
0010
0000
0000
0100
0000
0000
1000
0000
0000
0001
0000
0000
1000
0000
0000
0001
0000
0000
1000
0000
0000
0001
0000
0000
1000
0000
0100
0000
0010
0000
,  // measure 75
0001
0000
0001
0010
0001
1000
0010
0100
0001
1000
0010
0100
0001
0010
0100
1000
,  // measure 76
0202
1303
0001
1000
0010
0100
0010
1000
0001
0010
0001
1000
0001
0100
0010
1000
,  // measure 77
0100
0010
0100
1000
0001
0100
0010
1000
0100
0010
0001
1000
0001
0100
0010
1000
,  // measure 78
0001
0010
0001
1000
0010
0100
0001
1000
0100
0010
0100
1000
0001
0100
0010
1000
,  // measure 79
0001
0010
0100
1000
0001
0010
0100
1000
0001
1000
0010
1000
0100
1000
0001
0100
,  // measure 80
0010
1000
0100
0010
0001
0010
0100
1000
0010
0100
0010
1000
0100
0010
0100
1000
,  // measure 81
0001
0100
0010
1000
0100
0010
0001
1000
0001
0100
0010
1000
0001
0010
0100
1000
,  // measure 82
0001
0100
0001
1000
0001
0010
0100
1000
0010
0100
0010
1000
0100
0010
0001
1000
,  // measure 83
0011
0000
0000
0000
1100
0000
0000
0000
0011
0000
1100
0000
0000
0000
1001
0000
0000
0000
0000
0000
1100
0000
0000
0000
0000
0000
0100
0010
0100
0000
1000
0000
,  // measure 84
0001
0000
1000
0000
0001
0000
1000
0000
0001
0000
1000
0000
0100
0000
0000
0010
0000
0000
0001
0000
0000
0100
0000
0000
0000
0000
0000
0000
0000
0000
0001
0000
0000
0100
0000
0000
0000
0000
0000
0100
0000
0000
0010
0000
0000
0000
0000
0000
,  // measure 85
0100
0000
0010
0002
0000
0013
0100
0001
0100
0100
2000
0000
3100
0100
0020
0000
,  // measure 86
0031
0001
0100
0010
0000
0010
0100
0010
0000
0100
0010
0000
1000
0100
1000
0000
,  // measure 87
0010
1000
0100
0100
0001
0010
0001
1000
0010
0010
0002
0000
0013
0010
2000
0000
,  // measure 88
3001
0010
0100
1000
0000
1000
0100
2000
0000
3000
2000
0000
3001
0000
0000
0000
,  // measure 89
0011
0000
0010
0001
0000
0001
0010
0100
0000
0100
2000
0000
3010
0000
0000
0000
,  // measure 90
1010
1000
0100
0010
0001
0100
0010
1000
0100
1000
0010
0100
0001
0000
0000
0000
,  // measure 91
1001
0000
0000
0000
0000
0000
0001
0000
0000
0010
0000
0000
0000
0000
0000
0001
0000
0000
0010
0000
0000
0010
0000
0000
1000
0000
0000
0000
0000
0000
0001
0000
0000
0010
0000
0000
0100
0000
0000
0000
0000
0000
0100
0000
1000
0000
0001
0000
,  // measure 92
0200
0000
0000
0300
1101
0000
1000
0000
0001
0100
00M0
0100
1010
0000
0001
0100
,  // measure 93
0020
0000
0000
0030
1011
1000
0010
0100
1000
000M
1000
0010
1100
0001
0010
0000
,  // measure 94
0200
0000
0000
0300
1110
0000
1000
0000
0001
0010
0M00
0010
1100
0000
0001
0010
,  // measure 95
0200
0000
0000
0300
1101
1000
0100
0010
1000
000M
1000
0100
0010
0001
0100
0000
,  // measure 96
0020
0000
0000
0030
1101
0000
0001
0000
1000
0010
0M00
0010
0101
0000
1000
0010
,  // measure 97
0200
0000
0000
0300
1011
0010
0100
0010
0001
M000
0001
0100
0010
1000
0001
0000
,  // measure 98
0020
0000
0000
0030
1110
0000
0100
0000
1000
0100
00M0
0100
0011
0000
1000
0100
,  // measure 99
0020
0000
0000
0030
1011
0010
0100
0010
1000
000M
1000
0100
0010
0001
0100
0000
,  // measure 100
0020
0030
0000
0000
;

//---------------dance-single - ----------------
#NOTES:
     dance-single:
     :
     Beginner:
     2:
     0.131044,0.175282,0.029214,0.017528,0.000000,157.000000,152.000000,5.000000,3.000000,0.000000,0.000000,0.131044,0.175282,0.029214,0.017528,0.000000,157.000000,152.000000,5.000000,3.000000,0.000000,0.000000:
0000
0000
0000
0000
,
0000
0000
0000
0000
,
0000
0000
0000
0000
,
0000
0000
0000
0000
,
1001
0000
0000
0000
,
0000
0000
0000
0000
,
0110
0000
0000
0000
,
0000
0000
0000
0000
,
1000
0000
1000
0000
,
0001
0000
0001
0000
,
1000
0000
1000
0000
,
0001
0000
0001
0000
,
0010
0000
0000
0000
,
0100
0000
0000
0000
,
0010
0000
0000
0000
,
0100
0000
0000
0000
,
2002
0000
0000
0000
,
3003
0000
0000
0000
,
1000
0000
0000
0000
,
0001
0000
0000
0000
,
1000
0000
1000
0000
,
0001
0000
0001
0000
,
1000
0000
1000
0000
,
0001
0000
0001
0000
,
0100
0000
0100
0000
,
0010
0000
0010
0000
,
0100
0000
0100
0000
,
0010
0000
0010
0000
,
1000
0000
1000
0000
,
0001
0000
0001
0000
,
1000
0000
1000
0000
,
0100
0000
0010
0000
,
0100
0000
0000
0000
,
0100
0000
0000
0000
,
0010
0000
0000
0000
,
0010
0000
0000
0000
,
0001
0000
0001
0000
,
1000
0000
1000
0000
,
0010
0000
0010
0000
,
0100
0000
0100
0000
,
0001
0000
0000
0000
,
1000
0000
0000
0000
,
0100
0000
0000
0000
,
0010
0000
0000
0000
,
0001
0000
0000
0000
,
1000
0000
0000
0000
,
0010
0000
0000
0000
,
0100
0000
0000
0000
,
0001
0000
0000
0000
,
1000
0000
0000
0000
,
0100
0000
0000
0000
,
0010
0000
0000
0000
,
1001
0000
0000
0000
,
1000
0000
0000
0000
,
0001
0000
0000
0000
,
1000
0000
0000
0000
,
0010
0000
0000
0000
,
0100
0000
0000
0000
,
0001
0000
0000
0000
,
1000
0000
0000
0000
,
0001
0000
0001
0000
,
1000
0000
1000
0000
,
0001
0000
0001
0000
,
1000
0000
1000
0000
,
0100
0000
0100
0000
,
0010
0000
0010
0000
,
0100
0000
0100
0000
,
0010
0000
0010
0000
,
0001
0000
0001
0000
,
1000
0000
1000
0000
,
0001
0000
0001
0000
,
1000
0000
1000
0000
,
0010
0000
0010
0000
,
0100
0000
0100
0000
,
0010
0000
0010
0000
,
1000
0000
0000
0000
,
1001
0000
0001
0000
,
1000
0000
1000
0000
,
0100
0000
0100
0000
,
0010
0000
0010
0000
,
0001
0000
0001
0000
,
1000
0000
1000
0000
,
0100
0000
0100
0000
,
0010
0000
0010
0000
,
0001
0000
0001
0000
,
1000
0000
1000
0000
,
0001
0000
0001
0000
,
0010
0000
0010
0000
,
0001
0000
0001
0000
,
1000
0000
1000
0000
,
0010
0000
0010
0000
,
0200
0000
0000
0000
,
0301
0000
0001
0000
,
1000
0000
1000
0000
,
0001
0000
0001
0000
,
1000
0000
1000
0000
,
0100
0000
0100
0000
,
0010
0000
0010
0000
,
0100
0000
0100
0000
,
0010
0000
0010
0000
,
0001
0000
0000
0000
;

//---------------dance-single - ----------------
#NOTES:
     dance-single:
     :
     Easy:
     4:
     0.244560,0.292136,0.029214,0.029214,0.000000,293.000000,288.000000,5.000000,5.000000,0.000000,0.000000,0.244560,0.292136,0.029214,0.029214,0.000000,293.000000,288.000000,5.000000,5.000000,0.000000,0.000000:
0000
0000
0000
0000
,
0000
0000
0000
0000
,
0000
0000
0000
0000
,
0000
0000
0000
0000
,
1001
0000
0000
0000
,
0000
0000
0000
0000
,
0110
0000
1000
0000
,
0001
0000
0010
0000
,
0100
1000
0100
1000
,
0001
0100
0001
0100
,
0010
1000
0010
1000
,
0001
0010
0001
0010
,
0100
0000
1000
0000
,
0001
0000
0100
0000
,
0010
1000
0010
1000
,
0001
0010
0001
1000
,
2002
0000
0000
0000
,
0000
3003
1000
0000
,
0001
0000
0010
0000
,
0100
0000
1000
0001
,
0100
0010
1000
0001
,
0010
0100
1000
0001
,
0100
0010
1000
0001
,
0010
0100
0010
0001
,
1000
0010
0100
0001
,
1000
0100
1000
0010
,
0100
0001
1000
0100
,
0010
0000
0001
0000
,
1000
0010
0100
0001
,
1000
0100
0010
0001
,
1000
0001
0100
0010
,
2000
0000
3002
0000
,
0103
0010
1000
0001
,
0010
0100
1000
0001
,
0100
0010
1000
0001
,
0010
0000
0100
0000
,
1000
0010
1000
0010
,
0100
0001
0100
0001
,
1000
0100
1000
0100
,
0010
0001
0010
0001
,
1000
0000
0001
0000
,
0100
0000
0010
0000
,
1000
0000
0001
0000
,
0010
0000
0100
0000
,
1000
0001
0100
0001
,
1000
0100
1000
0001
,
0100
0010
0100
0001
,
0010
0100
0010
0001
,
1000
0000
0010
0000
,
0100
0000
0001
0000
,
1000
0000
0100
0000
,
0010
0000
0001
0000
,
1001
0000
1000
0000
,
0001
0000
1000
0000
,
0001
0000
0100
0000
,
0010
0000
0100
0000
,
0010
0000
1000
0000
,
0001
0000
1000
0000
,
0001
0000
0010
0000
,
0100
0000
0010
0000
,
0001
0100
0001
0100
,
0010
1000
0010
1000
,
0001
0010
0001
0010
,
0100
1000
0100
1000
,
0001
0100
0001
0100
,
0010
1000
0010
1000
,
0001
0010
0001
0010
,
0100
1000
0100
1000
,
0001
0000
0001
0000
,
1000
0000
1000
0000
,
0001
0000
0001
0000
,
1000
0000
1000
0000
,
0010
0000
0010
0000
,
0100
0000
0100
0000
,
0010
0000
0010
0000
,
1000
0000
0001
0000
,
1001
0001
1000
0001
,
0010
0100
0010
0100
,
1000
0001
1000
0001
,
0100
0010
0100
0010
,
1000
0001
1000
0001
,
0010
0100
0010
0100
,
1000
0001
1000
0001
,
0100
0010
0100
0010
,
1000
0100
1000
0100
,
0010
0001
0010
0001
,
1000
0010
1000
0010
,
0100
0001
0100
0001
,
1000
0100
1000
0100
,
0010
0001
0010
0001
,
1000
0010
0100
0001
,
2000
0000
0000
0000
,
3001
0000
0001
0000
,
1000
0000
1000
0000
,
0001
0000
0001
0000
,
1000
0000
1000
0000
,
0100
0000
0100
0000
,
0010
0000
0010
0000
,
0100
0000
0100
0000
,
0010
0000
0010
0000
,
0001
0000
0000
0000
;

//---------------dance-single - ----------------
#NOTES:
     dance-single:
     :
     Medium:
     8:
     0.505813,0.511531,0.023371,0.245394,0.002921,606.000000,602.000000,4.000000,42.000000,0.000000,0.000000,0.505813,0.511531,0.023371,0.245394,0.002921,606.000000,602.000000,4.000000,42.000000,0.000000,0.000000:
0000
0000
0000
0000
,
0000
0000
0000
0000
,
0000
0000
0000
0000
,
0000
0000
0000
0000
,
2002
3003
0000
0000
,
0000
0000
0000
0000
,
0220
0330
0001
0000
,
0100
0000
0010
0000
,
1000
0001
0010
0100
1000
0001
0100
0010
,
0100
0001
1000
0100
0010
0001
1000
0000
,
0001
0100
0010
1000
0001
0010
0100
1000
,
0001
0100
0001
1000
0100
0010
0001
0000
,
1000
0010
1000
0010
0100
0001
0100
0001
,
1000
0100
1000
0100
0010
0001
0010
0001
,
1000
0010
0100
0001
1000
0100
0010
0001
,
1000
0010
0100
0010
1000
0001
0010
0100
,
2000
0000
0000
0000
,
0000
0000
3001
0000
,
0100
0000
0010
0000
,
1000
0000
0000
0000
0001
1000
0001
0010
,
0200
0000
1300
0010
0100
0001
1000
0100
,
0020
0000
0031
1000
0001
0100
0010
1000
,
0002
0000
0013
0100
0010
0001
1000
0010
,
0200
0000
0301
1000
0100
1000
0001
0100
,
0020
0000
1030
0001
1000
0100
0010
0001
,
2000
0000
3010
0100
0010
1000
0001
0010
,
0100
1000
0100
1000
0001
0000
0100
0000
,
0020
0000
0000
0000
0000
0000
0000
0000
1030
0000
0000
1000
0000
0000
1000
0000
,
1002
0000
1003
0001
0100
0001
1000
0100
,
0020
0000
0031
1000
0010
1000
0001
0010
,
0200
0000
1300
0010
1000
0001
0100
0001
,
1000
0100
0010
0001
0010
0100
1000
0001
,
0200
0000
0310
0100
0010
1000
0001
0010
,
0200
0000
1300
0001
1000
0010
0100
0001
,
1000
1000
0001
0001
0010
0100
1000
0001
,
0100
0010
1000
0001
,
1000
0100
0010
0001
1000
0010
0100
0001
,
1000
0100
1000
0001
0100
0010
1000
0001
,
0010
0100
0010
0001
1000
0010
0100
0001
,
1000
0100
1000
0001
0100
0010
1000
0001
,
0020
0100
0032
1000
,
0203
0010
0302
1000
,
0023
0100
0032
1000
,
0203
0010
0302
1000
,
0013
0100
0010
0001
1000
0001
0100
0010
,
1000
0100
1000
0001
0100
0010
1000
0001
,
0010
0100
0010
0001
1000
0010
0100
0001
,
1000
0100
1000
0001
0100
0010
1000
0001
,
0010
0010
0100
1000
0100
1000
0002
0000
,
0103
0100
0010
1000
0010
1000
0002
0000
,
1003
0001
1000
0001
0010
0100
0020
0000
,
0031
2000
0000
3010
0100
0001
1000
0100
,
0010
0001
1000
0001
,
0100
0010
0100
0010
,
1000
0001
1000
0001
,
0010
0100
0010
0100
,
2000
0000
3002
0000
,
0203
0000
0320
0000
,
2030
0000
3002
0000
,
0013
0100
1000
0001
0100
0000
0010
0000
,
1000
0100
0010
0001
1000
0010
0100
0010
,
1000
0001
0010
0100
1000
0001
0100
0001
,
1000
0100
0010
0001
1000
0010
0100
0010
,
1000
0001
0010
0100
1000
0001
0100
0001
,
1000
0100
0010
0001
1000
0001
0100
0010
,
1000
0100
0010
0001
1000
0010
0100
0010
,
1000
0001
0010
0100
1000
0001
0100
0001
,
1000
0100
0010
0001
1000
0010
0100
0001
,
1000
0100
1000
0100
,
0010
0000
0001
0000
0010
0001
1000
0001
,
0010
0100
0010
0100
,
1000
0000
0001
0000
1000
0001
1000
0010
,
0100
0001
0100
0001
,
1000
0000
0010
0000
1000
0010
0100
0001
,
1000
0001
1000
0001
,
1001
0000
0000
0000
,
1000
0100
0010
0001
1000
0010
0100
0001
,
1000
0100
1000
0001
0100
0010
1000
0001
,
0010
0100
0010
0001
1000
0010
0100
0001
,
1000
0100
0010
0001
1000
0010
0100
0010
,
1000
0001
0010
0100
1000
0001
0100
0001
,
1000
0100
0010
0001
1000
0010
0100
0010
,
1000
0001
0010
0001
1000
0010
0100
0001
,
1000
0100
0010
0001
1000
0000
0010
0000
,
0200
0000
0301
1000
0100
0010
0001
1000
,
0010
0100
0010
1000
0001
0010
0100
1000
,
0001
0100
0001
1000
0100
0010
0001
1000
,
0010
0100
0010
1000
0001
0010
0100
1000
,
0001
0100
0010
0100
0001
1000
0100
0010
,
0001
1000
0010
0100
0010
1000
0001
0010
,
0001
1000
0010
0100
0001
1000
0100
0010
,
0001
1000
0010
0100
,
0001
0000
1000
0001
1000
0100
0010
0001
,
1000
0000
0010
0100
0010
1000
0001
0010
,
0100
0000
1000
0010
1000
0001
0010
0001
,
0100
0000
0001
1000
0100
0010
0001
1000
,
0010
0000
0100
0010
0100
0001
1000
0001
,
0010
0000
0001
1000
0100
1000
0001
0100
,
0010
0000
1000
0001
1000
0100
0010
0001
,
1000
0000
0010
0100
0010
1000
0100
0010
,
0002
0000
2003
0000
,
3020
0000
0230
0000
,
0302
0000
2003
0000
,
3100
0000
0000
0000
;

//---------------dance-single - sangyule----------------
#NOTES:
     dance-single:
     :
     Hard:
     11:
     0.767901,0.849313,0.146068,0.192810,1.016634,920.000000,895.000000,25.000000,33.000000,55.000000,0.000000,0.767901,0.849313,0.146068,0.192810,1.016634,920.000000,895.000000,25.000000,33.000000,55.000000,0.000000:
// measure 0
0000
0000
0000
0000
,  // measure 1
0000
0000
0000
0000
,  // measure 2
0000
0000
0000
0000
,  // measure 3
0000
0000
0000
0000
0000
0000
0000
0000
0000
0000
0000
0110
0000
1001
0000
0000
,  // measure 4
0202
0303
0000
0000
,  // measure 5
0000
0000
0000
0000
,  // measure 6
2002
0000
3003
0000
0000
0011
0000
0011
0000
0000
1001
0000
0000
0000
1010
0000
,  // measure 7
0000
0101
0000
0110
0000
1002
0000
0000
,  // measure 8
0013
0000
0010
0000
0100
0000
0100
0000
1000
0000
0001
0100
0000
0010
0100
0000
,  // measure 9
0001
0000
0001
0000
1000
0000
1000
0000
0100
0000
0010
0001
0000
1000
0001
0000
,  // measure 10
0100
0000
0100
0000
0010
0000
0010
0000
1000
0000
0100
0010
0000
0001
0010
0000
,  // measure 11
0100
0000
0100
0000
1000
0000
1000
0000
0001
0000
0100
0010
0000
1000
0010
0000
,  // measure 12
0100
0000
0001
0010
0M00
0010
1000
0000
0001
0000
1000
0100
00M0
0100
0001
0000
,  // measure 13
0010
0000
0100
0010
000M
0010
1000
0000
0100
0000
0010
0100
M000
0100
0001
0000
,  // measure 14
0010
M000
0010
1000
0100
00M0
0100
0001
0010
M000
0010
1000
0100
00M0
0100
0001
,  // measure 15
0100
0100
1000
0010
0010
0001
0100
0001
0010
0010
1000
0100
0100
0010
0100
0001
,  // measure 16
0020
0000
0000
0000
,  // measure 17
0000
0000
0130
0000
,  // measure 18
1100
0000
0001
0000
,  // measure 19
0100
0000
0010
1000
0010
1000
0010
0100
0001
0000
1000
0000
0100
0010
0001
1000
,  // measure 20
0020
0000
0000
0000
0130
0000
0001
0000
1000
0100
00M0
0100
0001
1000
0001
0000
,  // measure 21
0020
0000
0000
0130
1000
0001
1000
0000
0010
0100
0001
1000
0001
0000
1000
0000
,  // measure 22
0200
0000
0000
0000
0310
0000
0001
0000
1000
0010
0M00
0010
0001
1000
0001
0000
,  // measure 23
0200
0000
0000
0310
1000
0001
1000
0000
0100
0000
0010
0100
0010
0000
0001
0000
,  // measure 24
2001
0000
0000
0000
3100
0000
1000
0000
0001
0100
00M0
0100
1000
0001
1000
0000
,  // measure 25
0020
0000
0000
0130
0001
1000
0001
0000
0010
0100
1000
0001
1000
0000
0001
0000
,  // measure 26
0200
0000
1000
0000
0310
0000
1000
0000
0001
0010
0M00
0010
1000
0001
0000
0021
,  // measure 27
0000
0000
0100
0000
0000
0130
0000
0000
0110
0000
0000
1100
0000
0000
0101
0000
,  // measure 28
2001
0000
0000
0000
3010
0000
0010
0000
1000
0100
00M0
0100
0001
0010
0000
0001
,  // measure 29
2000
0000
0000
3001
0100
0000
0010
0000
1000
0000
0100
0010
0001
0000
1000
0000
,  // measure 30
0020
0000
0000
0130
0001
0000
1000
0000
0100
0010
0001
0100
0010
0000
1000
0000
,  // measure 31
0001
0000
0010
0100
1000
0000
0010
0000
1000
0000
0001
0010
0M00
0010
1000
0000
,  // measure 32
0200
0000
0000
0000
1300
0000
1000
0000
0001
0010
0M00
0010
1000
0000
0100
0000
,  // measure 33
1000
0000
0000
M010
0001
0000
0100
0000
0001
0000
0000
001M
1000
0000
0100
0000
,  // measure 34
0010
0000
0000
0000
0000
0000
0010
0000
0000
0000
0000
0000
0011
0000
0000
0000
0000
0000
0001
0000
0000
0000
0000
0000
1000
0000
0000
0000
0000
0000
0001
0000
1000
0000
0001
0000
1000
0000
0000
0100
0000
0000
0010
0000
0000
0001
0000
0000
,  // measure 35
0100
0000
0000
0000
000M
000M
000M
0000
M000
0000
0M00
00M0
000M
0000
M000
0000
,  // measure 36
0001
0010
0000
0001
0000
0100
0010
0000
1000
0001
0000
0010
0000
0100
1000
0000
,  // measure 37
0001
0100
0000
0010
0000
1000
0001
0000
0010
1000
0000
0010
0000
0100
1000
0001
,  // measure 38
0100
0010
0000
1000
0000
0001
1000
0000
0100
0010
0000
0001
0000
1000
0001
0000
,  // measure 39
0100
0010
0000
0100
0010
0000
1000
0001
1000
0010
1000
0001
0000
0010
0100
0000
,  // measure 40
1000
0010
0000
0100
0000
0001
1000
0000
0001
1000
0100
0100
0100
1000
0001
0000
,  // measure 41
0010
0000
0100
0000
1000
0010
0000
0100
0010
0001
0010
1000
0001
0010
0100
0001
,  // measure 42
0100
1000
0000
0001
0000
0100
0010
0000
1000
0000
0001
0000
0010
0001
0100
0001
,  // measure 43
1000
0100
1000
0000
0001
0000
0100
0000
0001
1000
0100
1000
0001
0100
0010
1000
,  // measure 44
0100
0000
0000
0000
0011
0000
0001
0000
1000
0010
0000
0100
0000
0001
0010
0000
,  // measure 45
0001
1000
0000
0100
0000
1000
0001
0000
0100
1000
0000
0100
0000
0010
1000
0001
,  // measure 46
1000
0100
0000
0010
0000
0001
0100
0000
0010
1000
0000
0001
0000
0010
0001
1000
,  // measure 47
0100
1000
0000
0010
1000
0000
0010
0100
0001
0000
0002
0000
0000
0000
0000
0000
,  // measure 48
1003
1000
0001
0001
0100
0100
0020
0000
,  // measure 49
1030
1000
0001
0001
0010
0010
0200
0000
,  // measure 50
1300
0001
0010
0100
1000
0010
0100
0001
1000
0100
0010
0001
0010
0000
0001
0000
,  // measure 51
0100
0010
1000
0000
0001
0000
0010
0000
0110
0000
0100
1000
0001
2000
0000
0000
,  // measure 52
3010
0010
0100
0100
,  // measure 53
0001
0001
1000
1000
,  // measure 54
0100
0100
0010
0010
,  // measure 55
0001
0000
0001
0000
1000
0000
1000
1000
,  // measure 56
0010
0100
0010
0100
0001
1000
0001
1000
,  // measure 57
0100
0010
0100
0010
0001
1000
0001
1000
,  // measure 58
0010
0100
0001
1000
0001
0010
0100
1000
0001
1000
0100
0010
0001
0100
0010
1000
,  // measure 59
0100
0000
000M
0000
00M0
00M0
000M
0000
000M
0000
0000
0000
1000
0000
0000
0000
,  // measure 60
0001
0010
0M00
0010
1000
0001
0000
1000
0001
0010
0M00
0010
1000
0100
0000
0010
,  // measure 61
0001
1000
0001
0100
0010
0000
1000
0000
0001
0100
00M0
0100
1000
0000
0001
0000
,  // measure 62
1000
0100
00M0
0100
0001
1000
0000
0001
1000
0100
00M0
0100
0001
0010
0000
0100
,  // measure 63
1000
0001
1000
0010
0100
0000
0001
0000
0010
0000
0010
0000
0100
1000
0001
0000
,  // measure 64
1000
0010
0M00
0010
0001
1000
0000
0001
1000
0010
0M00
0010
0001
0100
0000
0010
,  // measure 65
1000
0001
1000
0100
0010
0000
0001
0000
0100
0010
0000
1000
0001
0000
0010
0000
,  // measure 66
0001
0100
00M0
0100
1000
0001
0000
1000
0001
0100
00M0
0100
1000
0010
0000
0100
,  // measure 67
0001
1000
0001
0010
0100
0000
0100
0000
1000
0000
0001
0000
0100
0000
0100
0000
,  // measure 68
0010
1000
0001
0100
00M0
0100
1000
0001
4000
0000
3001
0040
0000
0031
4000
0000
,  // measure 69
3010
0000
0100
0001
0000
1000
0001
0100
0010
1000
0001
0000
1000
0100
0001
0000
,  // measure 70
0100
1000
0001
0100
00M0
0100
1000
0001
4000
0000
3100
0010
0000
0001
1000
0000
,  // measure 71
0010
0000
0100
0001
0000
1000
0100
0010
0100
1000
0001
0000
1000
0010
0001
0M00
,  // measure 72
0001
0100
0100
1000
0000
0100
0010
0001
0100
0000
1M00
0001
0000
0010
0001
0000
,  // measure 73
010M
0000
1000
0001
0000
1000
0010
0000
00M1
0100
0001
1000
0100
0010
1000
0M00
,  // measure 74
1000
0100
0100
0001
0000
1000
0001
0000
0100
0010
0100
0010
0100
0010
1000
0000
,  // measure 75
0001
0000
1000
0001
1000
0001
1000
0001
0100
0010
1000
0001
0010
0000
0000
0000
,  // measure 76
0110
0000
0000
0100
1000
0000
0001
0000
0100
0001
1000
0100
0010
0001
0010
0000
,  // measure 77
0001
0000
0000
1000
0010
0000
0100
0000
0001
1000
0001
1000
0000
0100
0010
0000
,  // measure 78
0001
0000
0000
1000
0010
0000
1000
0000
0010
0100
0001
0000
0010
0100
1000
0000
,  // measure 79
0001
0100
0001
1000
0100
1000
0010
0100
0001
1000
0100
0010
0001
1000
0001
0100
,  // measure 80
0010
0000
1000
0000
0001
0000
0010
0000
0100
1000
0001
1000
0000
0001
0100
0000
,  // measure 81
0010
0000
1000
0000
0001
0010
0001
0000
0010
0100
0000
1000
0000
0000
0001
0000
,  // measure 82
0100
0000
0010
0100
0000
0001
1000
0000
0001
0010
0000
0001
1000
0000
0010
0000
,  // measure 83
0100
0000
0100
0000
0001
1000
0000
1001
0000
0000
1010
0000
0000
0004
0000
0000
,  // measure 84
0043
0000
0000
0000
0130
0000
1000
0000
0010
0M00
0010
0001
1000
0000
0010
0000
,  // measure 85
0100
000M
0100
1000
0000
0001
1000
0000
0100
0100
0001
0000
0100
0100
1000
0000
,  // measure 86
0001
0100
0001
1000
0000
0001
0010
0000
0100
M000
0100
0001
0000
1000
0000
0000
,  // measure 87
0001
0010
0001
0100
0010
1000
0100
0010
0001
0100
0010
1000
0100
1000
0001
0100
,  // measure 88
0010
0010
1000
1000
0001
0001
0010
0000
,  // measure 89
0001
0001
1000
1000
0010
0010
0100
0000
,  // measure 90
0001
0010
0100
1000
0010
0100
0001
1000
0100
0010
0100
1000
0010
0000
0000
0000
,  // measure 91
0100
000M
0100
1000
0000
0001
0010
0001
2000
0000
0000
0000
3002
0000
0000
0000
,  // measure 92
0203
0000
0000
0000
0310
0000
1000
0000
0001
0100
00M0
0100
1000
0000
0001
0000
,  // measure 93
2000
0000
0000
3100
0010
0000
0001
0000
1000
0001
1000
0010
0100
0000
0001
0000
,  // measure 94
0200
0000
0000
0000
0301
0000
1000
0000
0001
0010
0M00
0010
1000
0000
0100
0000
,  // measure 95
2000
0000
0000
3001
0100
0000
0010
0000
1000
0100
00M0
0100
0001
0000
0010
0000
,  // measure 96
0210
0000
0000
0000
1300
0000
0001
0000
1000
0010
0M00
0010
0001
0000
1000
0000
,  // measure 97
0020
0000
0000
0130
0001
0000
1000
0000
0001
1000
0001
0010
0100
0000
1000
0000
,  // measure 98
0020
0000
0000
0000
0130
0000
0001
0000
1000
0100
00M0
0100
0001
0000
0010
0000
,  // measure 99
0200
0000
0000
1300
0001
0000
0100
0000
0010
1000
0010
0100
0001
0000
0010
0000
,  // measure 100
0200
0300
0000
0000
;
