#VERSION:0.83;
#TITLE:Midnight Hour;
#SUBTITLE:;
#ARTIST:Skrillex, Boys Noize, Ty Dolla $ign;
#TITLETRANSLIT:;
#SUBTITLETRANSLIT:;
#ARTISTTRANSLIT:;
#GENRE:Bass House;
#ORIGIN:;
#CREDIT:;
#BANNER:mh-bn.png;
#BACKGROUND:MH-bg-wide.png;
#PREVIEWVID:;
#JACKET:mh-jacket.png;
#CDIMAGE:FeraligatrV5-cd.png;
#DISCIMAGE:mh-bg.png;
#LYRICSPATH:;
#CDTITLE:;
#MUSIC:Skrillex, Boys Noize, Ty Dolla $ign - Midnight Hour.ogg;
#OFFSET:0.009000;
#SAMPLESTART:45.705002;
#SAMPLELENGTH:15.238000;
#SELECTABLE:YES;
#DISPLAYBPM:126.000000;
#BPMS:0.000=126.000;
#STOPS:;
#DELAYS:;
#WARPS:;
#TIMESIGNATURES:0.000=4=4;
#TICKCOUNTS:0.000=4;
#COMBOS:0.000=1;
#SPEEDS:0.000=1.000=0.000=0;
#SCROLLS:0.000=1.000;
#FAKES:;
#LABELS:0.000=Song Start;
#BGCHANGES:;
#KEYSOUNDS:;
#ATTACKS:
;

//---------------dance-single - XO+, FS, DT, BU-----------------
#NOTEDATA:;
#CHARTNAME:;
#STEPSTYPE:dance-single;
#DESCRIPTION:XO+, FS, DT, BU-;
#CHARTSTYLE:speed=3,stamina=8,tech=7,movement=9,timing=5,gimmick=none;
#DIFFICULTY:Challenge;
#METER:10;
#RADARVALUES:0.719462,0.857880,0.057971,0.362319,0.945652,695.000000,687.000000,8.000000,50.000000,8.000000,0.000000,0.000000,0.000000,0.000000,0.719462,0.857880,0.057971,0.362319,0.945652,695.000000,687.000000,8.000000,50.000000,8.000000,0.000000,0.000000,0.000000,0.000000;
#CREDIT:Feraligatr;
#DISPLAYBPM:126.000000;
#NOTES:
0000
0000
0000
0000
,
0000
0000
0000
0000
,
0000
0000
0000
0000
,
0000
0000
0000
0000
0000
0000
0000
0000
0000
0000
0000
0000
0001
0100
0001
0100
,
0010
1000
0000
1000
0001
0000
0010
0000
0100
1000
0000
1000
0001
0000
0000
0000
,
0100
0010
0000
0010
1000
0000
0001
0000
0010
0100
0000
0100
1000
0000
0010
0000
,
0100
0001
0000
0001
1000
0000
0100
0000
0010
0100
0000
0100
1000
0000
0010
0000
,
1000
0001
0100
0001
0010
0100
1000
0100
0010
0001
1000
0010
0100
0001
0100
0001
,
1000
0100
0000
0100
0010
0000
0001
0000
1000
0010
0000
0010
0100
0000
0001
0000
,
1000
0000
0100
0000
0010
0000
0001
0000
1000
0000
0001
0000
0100
0000
0000
0020
,
0000
2030
0000
0000
0001
0000
3010
0000
1000
0001
0000
0001
0010
0000
0100
0000
,
1000
0001
1000
0010
0100
0001
1000
0200
,
0000
0320
0000
0000
0001
0000
0130
0000
0010
0001
0000
0001
1000
0000
0010
0000
,
0100
0001
0010
0100
1000
0001
0100
0020
,
0000
2030
0000
0000
0001
0000
3010
0000
1000
0001
0000
0001
0010
0000
0100
0000
,
1000
0000
0001
0000
0100
0000
0001
0000
1000
0000
0100
0000
0010
0000
0000
0002
,
1000
0000
0203
0000
0010
0000
0301
0000
1000
0100
0000
0100
0010
0000
0001
0000
,
1000
0010
0001
2000
0000
3200
0000
0302
,
0023
0000
0000
0030
0020
0030
0020
0030
0020
0030
0200
0300
1000
0000
0000
0000
,
0001
0000
0000
0100
0000
0000
0010
0000
0000
2000
0000
0000
0000
0000
0000
3200
0000
0000
0000
0000
0000
0301
0100
0010
,
0002
0000
0000
0000
0000
0000
1003
0000
0010
0000
0100
0000
0002
0000
0000
0000
0000
0000
0000
0000
0000
0000
0000
0000
1003
0000
0000
0100
0000
0000
0000
0000
0000
0100
0000
0000
0010
0000
0000
0000
0000
0000
0000
0000
0000
0000
0000
0000
,
0001
0100
0010
1000
0002
0000
0013
0200
,
0000
2300
0000
0000
0000
0000
0000
3000
0000
0000
0000
0000
0002
0000
0000
0203
,
0000
0000
0320
0000
0000
0000
0030
0000
0000
0000
0000
0000
1000
0100
0010
0000
,
0011
0000
0000
0000
0000
0000
0000
0000
0000
0001
0000
0000
0100
0000
0000
0000
0000
0000
0010
0000
0000
0000
0000
0000
1000
0000
0000
0000
0100
0000
0000
0000
0100
0000
0000
0000
0010
0000
0000
0000
0000
0000
0000
0000
0000
0000
0000
0000
,
0100
0000
1000
0000
0000
0000
1000
0000
0010
0000
0100
0000
0001
0000
0000
0000
1000
0000
0100
00M0
0100
0000
0010
0000
0001
0000
0000
0000
0010
0000
0000
0000
,
1000
0001
0000
0001
0010
0100
1000
0000
0010
0100
0001
1000
0001
1000
0100
0000
,
0010
0000
0001
0000
0001
0000
1000
0000
0010
0100
0001
0000
0010
0000
0000
0000
,
0110
0000
0000
0100
1000
0000
0001
0000
0100
0010
0001
0010
1000
0000
0000
0000
,
0001
0000
1000
0000
0000
0000
1000
0000
0100
0000
0010
0000
0001
0000
0000
0000
1000
0000
0100
00M0
0100
0000
0010
0000
0001
0000
0000
0000
0010
0000
0000
0000
,
1000
0001
0000
0001
0010
0100
1000
0000
0010
0100
0001
1000
0001
1000
0100
0000
,
1000
0000
0010
0M00
0010
0000
0100
0000
0001
0000
0100
0000
1000
0000
0000
0000
0010
0000
0100
0000
0001
0000
0000
0000
0010
0000
0000
0000
0000
0000
0000
0000
,
1100
0000
0000
0000
0000
0000
0000
0000
0000
1000
0000
0000
0010
0000
0000
0000
0000
0000
0100
0000
0000
0000
0000
0000
0001
0000
0000
0000
0010
0000
0000
0000
0010
0000
0000
0000
0100
0000
0000
0000
0000
0000
1000
0000
0000
0000
0000
0000
,
0010
1000
0000
1000
0100
0010
0001
0001
0100
0000
0001
0010
1000
0000
0010
0000
,
0001
1000
0000
1000
0010
0100
0001
0001
0010
0000
0100
1000
0100
1000
0001
0000
,
0100
0000
0010
0000
0010
0000
1000
1000
0100
0010
0001
0000
0100
0000
0010
0000
,
0110
0000
0000
0100
0001
0000
1000
0000
0100
0010
1000
0010
0001
0000
1000
0000
,
0100
1000
0000
1000
0010
0100
0001
0001
0010
0000
0001
0100
1000
0000
0100
0000
,
0001
1000
0000
1000
0100
0010
0001
0001
0100
0000
0010
1000
0010
1000
0001
0000
,
1000
0000
0010
0M00
0010
0000
0100
0000
0001
0000
0100
0000
1000
0000
0001
0000
0100
0000
0010
0000
0000
0000
0010
0000
1000
0000
0000
0000
0001
0000
0000
0000
,
1000
0000
0000
0100
0000
0000
0000
0000
0000
0100
0000
0000
0010
0000
0000
0000
0001
0000
0000
0000
1000
0000
0000
0000
0010
0000
0000
0000
1000
0000
0000
0000
0100
0000
0000
0000
0001
0000
0000
0000
0100
0000
0000
0000
1000
0000
0000
0000
,
0010
0000
0000
0100
0000
0000
0000
0000
0000
0100
0000
0000
0001
0000
0000
0000
1000
0000
0000
0000
0100
0000
0000
0000
0010
0000
0000
0000
0001
0000
0000
0000
0100
0000
0000
0000
1000
0000
0000
0000
0100
0000
0000
0000
0001
0000
0000
0000
,
0010
0000
0000
0100
0000
0000
0000
0000
0000
0100
0000
0000
1000
0000
0000
0000
0001
0000
0000
0000
0100
0000
0000
0000
0010
0000
0000
0000
1000
0000
0000
0000
0100
0000
0000
0000
0001
0000
0000
0000
0100
0000
0000
0000
1000
0000
0000
0000
,
0010
0000
0000
0100
0000
0000
0000
0000
0000
0100
0000
0000
0001
0000
0000
0000
0010
0000
0000
0000
0001
0000
0000
0000
0100
0000
0000
0000
0010
0000
0000
0000
1000
0000
0000
0000
0100
0000
0000
0000
0100
0000
0000
0000
0010
0000
0000
0000
,
0001
0100
0000
0100
1000
0100
0010
1000
0200
0000
0310
0100
0002
0000
0203
0000
,
1300
0010
0000
0010
0001
0020
0000
0230
0000
0301
0010
0100
0002
0000
0203
0000
,
0310
0001
0000
0001
1000
0000
0020
0000
0130
1000
0100
0001
0020
0000
0000
0000
,
0100
0000
0032
0000
1003
0000
0010
0000
0100
0000
0100
0001
0020
0000
0000
0000
,
0130
0000
0000
1000
0001
0000
0100
0000
0010
1000
0000
1000
0001
0000
0010
0000
,
0001
0100
1000
0002
0000
0023
0000
2030
,
3200
0000
0000
0300
0200
0300
0200
0300
0200
0300
0020
0030
0001
0000
0000
0000
,
1000
0001
0100
0020
0000
2030
0000
3100
,
0020
0000
0000
0030
0000
0000
0000
0000
,
0100
1000
0010
0100
0002
0000
1003
0200
,
0310
0001
1000
0010
0100
0001
1000
0100
1000
0001
0100
0010
0100
0001
1000
0100
,
1000
0001
0100
0001
1000
0100
0010
0100
1000
0001
0100
0010
1000
0100
0010
0000
,
0011
0000
0000
0001
0100
0000
0010
0000
1000
0100
0100
0100
1000
0100
0100
0100
,
1000
0000
0100
0000
0001
0000
0100
0000
0010
0000
0001
0000
1000
0000
0000
0000
0001
0000
0100
00M0
0100
0000
0010
0000
1000
0000
0000
0000
0010
0000
0000
0000
,
0001
1000
0000
1000
0010
0100
0001
0000
0010
0100
1000
0001
1000
0001
0100
0000
,
0010
0000
1000
0000
1000
0000
0001
0000
0010
0100
1000
0000
0010
0000
0100
0000
,
0110
0000
0000
0010
1000
0000
0001
0000
0010
0100
0001
0100
1000
0000
0001
0000
,
0100
0000
0001
0000
0000
0000
0001
0000
0010
0000
0100
0000
1000
0000
0000
0000
0001
0000
0100
00M0
0100
0000
0010
0000
1000
0000
0000
0000
0010
0000
0000
0000
,
0001
1000
0000
1000
0010
0100
0001
0000
0010
0100
1000
0001
1000
0001
0100
0000
,
0001
0000
0010
0M00
0010
0000
0100
0000
1000
0000
0100
0000
0001
0000
0000
0000
0010
0000
0100
0000
1000
0000
0000
0000
0010
0000
0000
0000
0100
0000
0000
0000
,
1010
0000
0000
1000
0100
0000
0010
0000
0001
0100
0100
0100
0001
0100
0100
0100
,
0001
0100
1000
0100
0010
1000
0001
0001
0010
0000
0001
0100
1000
0000
0100
0000
,
0010
1000
0000
1000
0100
0010
0001
0001
0100
0000
0010
1000
0010
1000
0001
0000
,
0010
0000
0100
0000
0100
0000
1000
1000
0010
0000
1000
0000
0100
0000
0010
0000
,
0110
0000
0000
0100
1000
0000
0001
0000
0100
0010
0001
0010
1000
0000
0001
0000
,
0100
0001
0000
0001
0010
0100
1000
1000
0010
0000
1000
0100
0001
0000
0100
0000
,
1000
0001
0000
0001
0100
0010
1000
1000
0100
0000
0010
0001
0010
0001
1000
0000
,
0001
0000
0010
0M00
0010
0000
0100
0000
1000
0000
0100
0000
0001
0000
0000
0000
0010
0000
0100
0000
1000
0000
0000
0000
0010
0000
0000
0000
0000
0000
0000
0000
;

//---------------dance-single - sangyule----------------
#NOTEDATA:;
#CHARTNAME:;
#STEPSTYPE:dance-single;
#DESCRIPTION:sangyule;
#CHARTSTYLE:;
#DIFFICULTY:Beginner;
#METER:1;
#RADARVALUES:0.080745,0.128623,0.014493,0.000000,0.000000,78.000000,76.000000,2.000000,0.000000,0.000000,0.000000,0.000000,0.000000,0.000000,0.080745,0.128623,0.014493,0.000000,0.000000,78.000000,76.000000,2.000000,0.000000,0.000000,0.000000,0.000000,0.000000,0.000000;
#CREDIT:sangyule;
#DISPLAYBPM:126.000000;
#NOTES:
0000
0000
0000
0000
,
0000
0000
0000
0000
,
0000
0000
0000
0000
,
0000
0000
0000
0000
,
0000
0000
0000
0000
,
0000
0000
0000
0000
,
0000
0000
0000
0000
,
0000
0000
0000
0000
,
1000
0000
0000
0000
,
0010
0000
0000
0000
,
0100
0000
0000
0000
,
0001
0000
0000
0000
,
1000
0000
0000
0000
,
0100
0000
0000
0000
,
0010
0000
0000
0000
,
0001
0000
0001
0000
,
0100
0000
0000
0000
,
0010
0000
0000
0000
,
1000
0000
0000
0000
,
0001
0000
0000
0000
,
1000
0000
0000
0000
,
0100
0000
0000
0000
,
0010
0000
0000
0000
,
0000
0000
0000
0000
,
1001
0000
1000
0000
,
0100
0000
0000
0000
,
0010
0000
0000
0000
,
0001
0000
0000
0000
,
0100
0000
0100
0000
,
0010
0000
0000
0000
,
1000
0000
0000
0000
,
0001
0000
0000
0000
,
1000
0000
1000
0000
,
0001
0000
0000
0000
,
0010
0000
0010
0000
,
0100
0000
0000
0000
,
1000
0000
1000
0000
,
0001
0000
0000
0000
,
0100
0000
0100
0000
,
0010
0000
0010
0000
,
1000
0000
0000
0000
,
0001
0000
0000
0000
,
0010
0000
0000
0000
,
0100
0000
0000
0000
,
1000
0000
0000
0000
,
0001
0000
0000
0000
,
0100
0000
0000
0000
,
0010
0000
0000
0000
,
0010
0000
0000
0000
,
0100
0000
0000
0000
,
0001
0000
0000
0000
,
1000
0000
0000
0000
,
0100
0000
0000
0000
,
0010
0000
0000
0000
,
0001
0000
0000
0000
,
0000
0000
0000
0000
,
1001
0000
1000
0000
,
0010
0000
0000
0000
,
0100
0000
0000
0000
,
0001
0000
0000
0000
,
1000
0000
1000
0000
,
0001
0000
0000
0000
,
0010
0000
0000
0000
,
0100
0000
0000
0000
,
1000
0000
1000
0000
,
0001
0000
0000
0000
,
0100
0000
0100
0000
,
0010
0000
0000
0000
,
1000
0000
1000
0000
,
0001
0000
0000
0000
,
0010
0000
0010
0000
,
0100
0000
0000
0000
;

//---------------dance-single - sangyule----------------
#NOTEDATA:;
#CHARTNAME:;
#STEPSTYPE:dance-single;
#DESCRIPTION:sangyule;
#CHARTSTYLE:;
#DIFFICULTY:Easy;
#METER:3;
#RADARVALUES:0.173913,0.233967,0.014493,0.181159,0.000000,168.000000,166.000000,2.000000,25.000000,0.000000,0.000000,0.000000,0.000000,0.000000,0.173913,0.233967,0.014493,0.181159,0.000000,168.000000,166.000000,2.000000,25.000000,0.000000,0.000000,0.000000,0.000000,0.000000;
#CREDIT:sangyule;
#DISPLAYBPM:126.000000;
#NOTES:
// measure 0
0000
0000
0000
0000
,  // measure 1
0000
0000
0000
0000
,  // measure 2
0000
0000
0000
0000
,  // measure 3
0000
0000
0000
0000
,  // measure 4
0000
0000
0000
0000
,  // measure 5
0000
0000
0000
0000
,  // measure 6
0000
0000
0000
0000
,  // measure 7
0000
0000
0000
0000
,  // measure 8
2000
0000
0000
3000
,  // measure 9
0001
0100
0010
0000
,  // measure 10
2000
0000
0000
3000
,  // measure 11
0001
0010
0100
0000
,  // measure 12
2000
0000
0000
3000
,  // measure 13
0001
0010
0001
0000
,  // measure 14
0200
0000
0000
0300
,  // measure 15
0010
1000
0001
0000
,  // measure 16
0020
0000
0000
0030
,  // measure 17
0100
1000
0001
1000
,  // measure 18
0020
0000
0230
0000
,  // measure 19
0301
1000
0100
0010
,  // measure 20
0200
0000
0000
0300
,  // measure 21
2000
0000
3002
0000
,  // measure 22
0203
0000
0000
0000
,  // measure 23
0020
0000
0000
0330
,  // measure 24
1001
0001
0010
0000
,  // measure 25
0100
0000
1000
0001
,  // measure 26
1000
0000
0010
0000
,  // measure 27
0100
0100
0001
0001
,  // measure 28
1000
0100
0010
0000
,  // measure 29
0001
0000
1000
0001
,  // measure 30
1000
0000
0010
0000
,  // measure 31
0100
0100
0001
0001
,  // measure 32
1000
0001
0010
0010
,  // measure 33
0100
0000
1000
0001
,  // measure 34
0100
0000
0010
1000
,  // measure 35
0001
0001
0010
0010
,  // measure 36
0100
1000
0001
0000
,  // measure 37
0100
0000
0001
0010
,  // measure 38
0100
0000
1000
0001
,  // measure 39
1000
1000
0010
0010
,  // measure 40
0200
0000
0000
0301
,  // measure 41
2000
0000
0000
3100
,  // measure 42
0020
0000
0000
0031
,  // measure 43
2000
0000
0000
3001
,  // measure 44
0200
0000
0000
0310
,  // measure 45
2000
0000
0000
3001
,  // measure 46
0020
0000
0000
0031
,  // measure 47
2000
0000
3000
0000
,  // measure 48
0002
0000
0000
0003
,  // measure 49
0100
0010
1000
0001
,  // measure 50
2000
0000
0000
3000
,  // measure 51
0100
0010
0100
1000
,  // measure 52
0002
0000
0000
0003
,  // measure 53
0200
0000
0000
0300
,  // measure 54
0002
0000
0000
0000
,  // measure 55
0000
0000
0000
0003
,  // measure 56
1001
1000
0100
0100
,  // measure 57
0010
0010
0001
0000
,  // measure 58
1000
0000
0001
0100
,  // measure 59
0001
0001
0100
0100
,  // measure 60
0010
1000
0001
0000
,  // measure 61
1000
0000
0100
0010
,  // measure 62
0100
0000
1000
0000
,  // measure 63
0001
0001
0100
0100
,  // measure 64
0010
1000
0001
0001
,  // measure 65
1000
1000
0100
0010
,  // measure 66
0001
0000
1000
0001
,  // measure 67
0100
0100
0010
0010
,  // measure 68
1000
0001
1000
1000
,  // measure 69
0100
0000
0010
0001
,  // measure 70
1000
0000
0001
0100
,  // measure 71
0010
0010
1000
1000
;

//---------------dance-single - sangyule----------------
#NOTEDATA:;
#CHARTNAME:;
#STEPSTYPE:dance-single;
#DESCRIPTION:sangyule;
#CHARTSTYLE:;
#DIFFICULTY:Medium;
#METER:6;
#RADARVALUES:0.354037,0.415942,0.072464,0.260870,0.050725,342.000000,332.000000,10.000000,36.000000,0.000000,0.000000,1.000000,0.000000,0.000000,0.354037,0.415942,0.072464,0.260870,0.050725,342.000000,332.000000,10.000000,36.000000,0.000000,0.000000,1.000000,0.000000,0.000000;
#CREDIT:sangyule;
#DISPLAYBPM:126.000000;
#NOTES:
// measure 0
0000
0000
0000
0000
,  // measure 1
0000
0000
0000
0000
,  // measure 2
0000
0000
0000
0000
,  // measure 3
0000
0000
0000
0000
,  // measure 4
0001
1000
0100
0100
,  // measure 5
1000
0000
0001
0000
0100
0000
0100
0010
,  // measure 6
1000
0000
0001
0000
0010
0000
0010
0100
,  // measure 7
1000
1000
0001
0001
,  // measure 8
0200
0010
0000
0310
,  // measure 9
1000
0001
1000
0100
0010
0001
0000
1000
,  // measure 10
0000
2000
0000
0000
0000
0000
0000
0000
0000
0000
0000
0000
3000
0000
0000
0000
,  // measure 11
0001
0100
0001
0100
0010
1000
0000
0001
,  // measure 12
0000
0002
0000
0000
0000
0000
0000
0000
0000
0000
0000
0000
0003
0000
0000
0000
,  // measure 13
0010
0100
1000
0001
1000
0001
0000
0100
,  // measure 14
0000
0200
0000
0000
0000
0000
0000
0000
0000
0000
0000
0000
0300
0000
0000
0000
,  // measure 15
0001
1000
0001
0010
0100
1000
0000
0001
,  // measure 16
2000
0010
0000
3001
,  // measure 17
1000
0001
0010
2000
0000
3020
0000
0031
,  // measure 18
2000
0000
0100
0100
3100
0000
1000
0000
,  // measure 19
0001
0100
0010
0200
0000
0302
0000
0023
,  // measure 20
0000
0230
0000
0000
0000
0000
0300
0000
,  // measure 21
1000
0001
1000
0010
0100
0000
0001
1000
,  // measure 22
0000
2000
0000
0000
0000
0000
0000
0000
3000
0000
0000
0000
0010
0000
0000
0100
,  // measure 23
0000
0200
0000
0300
0000
0000
0010
0000
,  // measure 24
1001
0000
0000
1000
0000
0000
0100
0000
0000
0000
0010
0000
0011
0000
0000
0000
,  // measure 25
0001
0000
0100
0010
1000
0000
0001
1000
,  // measure 26
0001
0000
0010
0100
1000
0000
0001
0100
,  // measure 27
0010
1000
1000
0001
0020
0000
0130
0000
,  // measure 28
1000
0000
0000
0001
0000
0000
1000
0000
0000
0000
0010
0000
0110
0000
0000
0000
,  // measure 29
0100
0000
0001
1000
0100
0000
0010
0001
,  // measure 30
0010
0000
0001
1000
0010
0000
0100
0001
,  // measure 31
0100
0010
0100
0010
2000
0000
3001
0000
,  // measure 32
1001
0000
0000
1000
0000
0000
0100
0000
0010
0000
0001
0000
1001
0000
0000
0000
,  // measure 33
1000
0000
0010
0100
0001
0000
1000
0100
,  // measure 34
1000
0000
0100
0010
0001
0000
1000
0001
,  // measure 35
0100
0010
0010
1000
0002
0000
0013
0000
,  // measure 36
0100
0000
0000
1000
0000
0000
0001
0000
0100
0000
0010
0000
1010
0000
0000
0000
,  // measure 37
1000
0000
0100
0010
0001
0000
1000
0001
,  // measure 38
1000
0000
0010
0100
0001
0000
1000
0100
,  // measure 39
0010
0001
0010
0001
1000
0001
1000
0000
,  // measure 40
0020
0100
0000
1030
,  // measure 41
0002
0010
0000
1003
,  // measure 42
0200
0010
0000
1300
,  // measure 43
0002
1000
0000
0103
,  // measure 44
0020
1000
0000
0130
,  // measure 45
0002
0010
0000
1003
,  // measure 46
0200
0010
0000
1300
,  // measure 47
0002
0000
0003
0000
,  // measure 48
2000
0100
0000
3001
,  // measure 49
1000
0001
0100
2000
0000
3200
0000
0301
,  // measure 50
2000
0000
0010
0010
3010
0000
1000
0000
,  // measure 51
0001
0010
0100
0020
0000
0032
0000
0103
,  // measure 52
0020
0000
0000
0030
,  // measure 53
1000
0001
1000
0100
0010
0000
0001
1000
,  // measure 54
0000
4000
0000
0000
0000
0000
0000
0000
0000
0000
0000
0000
0000
0000
0000
0000
,  // measure 55
0000
0000
0000
0000
0000
3000
0001
0000
,  // measure 56
1001
0000
0000
0001
0000
0000
1000
0000
0001
0000
1000
0000
0100
0000
1000
0000
,  // measure 57
0001
0100
0010
1000
0010
0000
0100
0001
,  // measure 58
1000
0000
0100
0010
0100
0000
1000
0001
,  // measure 59
0100
0010
0010
1000
0002
0000
0013
0000
,  // measure 60
0100
0000
0000
1000
0000
0000
0001
0000
0100
0000
0001
0000
0101
0000
0000
0000
,  // measure 61
0100
0000
0010
1000
0001
0000
1000
0001
,  // measure 62
1000
0000
0100
0010
0001
0000
1000
0010
,  // measure 63
0100
0001
0100
0001
2000
0000
3010
0000
,  // measure 64
0110
0000
0000
0100
0000
0000
0001
0000
1000
0000
0001
0000
0010
0000
0001
0000
,  // measure 65
1000
0010
0100
0001
1000
0000
0100
0010
,  // measure 66
0100
0000
1000
0001
0100
0000
0010
1000
,  // measure 67
0001
1000
1000
0100
0020
0000
0031
0000
,  // measure 68
1000
0000
0000
0001
0000
0000
0100
0000
0010
0000
1000
0000
1001
0000
0000
0000
,  // measure 69
0001
0000
0010
0001
1000
0000
0001
0100
,  // measure 70
0001
0000
0100
0010
1000
0000
0100
0010
,  // measure 71
0001
1000
0001
1000
0020
0000
0130
0000
;

//---------------dance-single - sangyule----------------
#NOTEDATA:;
#CHARTNAME:;
#STEPSTYPE:dance-single;
#DESCRIPTION:sangyule;
#CHARTSTYLE:;
#DIFFICULTY:Hard;
#METER:9;
#RADARVALUES:0.547619,0.701902,0.050725,0.246377,0.626812,529.000000,522.000000,7.000000,34.000000,14.000000,0.000000,2.000000,0.000000,0.000000,0.547619,0.701902,0.050725,0.246377,0.626812,529.000000,522.000000,7.000000,34.000000,14.000000,0.000000,2.000000,0.000000,0.000000;
#CREDIT:sangyule;
#DISPLAYBPM:126.000000;
#NOTES:
// measure 0
0000
0000
0000
0000
,  // measure 1
0000
0000
0000
0000
,  // measure 2
0000
0000
0000
0000
,  // measure 3
0000
0000
0000
0000
,  // measure 4
1000
0010
0000
0010
0100
0000
0001
0000
1000
0001
0000
0001
0010
0000
0000
0000
,  // measure 5
0100
1000
0000
1000
0001
0000
0100
0000
0010
1000
0000
1000
0001
0000
0020
0000
,  // measure 6
0031
0100
0000
0100
0010
0000
1000
0000
0001
0010
0000
0010
0100
0000
2000
0000
,  // measure 7
3010
0000
0010
0000
0100
0000
0100
0000
0001
1000
0000
1000
0100
0010
0100
0010
,  // measure 8
0002
0100
0000
1003
,  // measure 9
0100
0010
0100
1000
0001
0100
0000
0010
,  // measure 10
0000
2000
0000
0000
0000
0000
0000
0000
0000
0000
0000
0000
3001
0000
0000
0000
,  // measure 11
0010
0001
2000
0000
3100
1000
0000
0010
,  // measure 12
0000
0200
0000
0000
0000
0000
0000
0000
0000
0000
0000
0000
0301
0000
0000
0000
,  // measure 13
0010
0001
0100
0010
1000
0001
0000
0010
,  // measure 14
0000
0200
0000
0000
0000
0000
0000
0000
0000
0000
0000
0000
1300
0000
0000
0000
,  // measure 15
0010
0100
0010
1000
0001
0010
0000
0100
,  // measure 16
1000
0001
0000
0001
0100
0000
0010
0000
1000
0100
0000
0100
0010
0000
0000
0000
,  // measure 17
0001
0100
1000
0002
0000
0013
0000
1000
,  // measure 18
0002
0000
0010
0010
0023
0000
0130
0000
,  // measure 19
1000
0001
0100
0020
0000
2030
0000
3200
,  // measure 20
0000
0320
0000
0000
0000
0000
0030
0000
,  // measure 21
0001
1000
0001
0100
0010
0000
1000
0001
,  // measure 22
0000
0020
0000
0000
0000
0000
0000
0000
0030
0000
0000
0000
0100
0000
0000
1000
,  // measure 23
0000
0000
0002
0000
0000
0000
0003
0000
0000
0000
0000
0000
0100
0010
1000
0000
,  // measure 24
1100
0000
0000
0000
0000
0000
0000
0000
0000
0100
0000
0000
0000
0000
0000
0000
0000
0000
0010
0000
0000
0000
0000
0000
0001
0000
0000
0000
0100
0000
00M0
0000
0100
0000
0000
0000
1000
0000
0000
0000
0000
0000
0001
0000
0000
0000
0000
0000
,  // measure 25
0100
0000
0000
0010
1000
0001
1000
0000
0001
0010
0100
1000
0100
00M0
0100
0000
,  // measure 26
0001
0000
0000
1000
0001
0100
0001
0000
1000
0100
0010
0001
1000
0001
1000
0000
,  // measure 27
0001
0000
0010
0M00
0010
0000
2000
0000
0000
3001
0010
0000
0001
0000
0000
0000
,  // measure 28
0101
0000
0000
0100
0000
0000
0010
0000
1000
0000
0100
1000
0001
0000
0000
0000
,  // measure 29
0100
0000
0000
0010
1000
0010
1000
0000
0001
0010
0100
1000
0100
00M0
0100
0000
,  // measure 30
0001
0000
0000
1000
0001
1000
0010
0000
0100
0001
0100
0001
1000
0100
0010
0000
,  // measure 31
0001
0000
0100
0000
0010
0000
2000
0000
0000
3100
0010
0000
0001
0000
0000
0000
,  // measure 32
1001
0000
0000
0000
0000
0000
0000
0000
0000
1000
0000
0000
0000
0000
0000
0000
0000
0000
0010
0000
0000
0000
0000
0000
1000
0000
0000
0000
0100
0000
00M0
0000
0100
0000
0000
0000
0001
0000
0000
0000
0000
0000
0010
0000
0000
0000
0000
0000
,  // measure 33
0100
0000
0000
1000
0001
1000
0010
0000
0100
0000
0001
1000
0100
00M0
0100
0000
,  // measure 34
0001
0000
0000
0010
0100
0010
0001
0000
0100
0000
0001
1000
0001
0010
0100
0000
,  // measure 35
1000
0000
0010
0M00
0010
0000
0001
1000
0001
1000
0010
0000
0100
0000
0000
0000
,  // measure 36
0101
0000
0000
0001
0000
0000
0010
0000
0100
0000
1000
0001
0100
0000
0000
0000
,  // measure 37
0010
0000
0000
1000
0001
1000
0100
0000
0010
0000
0001
1000
0100
00M0
0100
0000
,  // measure 38
0001
0000
0000
1000
0001
0100
0001
0000
0100
0000
0010
1000
0010
0100
0001
0000
,  // measure 39
0010
0001
0100
0010
4000
0000
3001
0000
,  // measure 40
2000
0000
0000
3001
1000
0010
1000
0001
0010
0001
0010
0100
,  // measure 41
0000
0000
0000
1000
0100
1000
0001
0100
0001
0100
0010
1000
,  // measure 42
0000
0000
0000
0002
0000
0013
0001
0100
0010
1000
0100
0010
,  // measure 43
0000
0000
0000
0001
1000
0001
0010
0100
1000
0020
0000
0130
,  // measure 44
0000
0000
0000
0000
0001
1000
0001
1000
0010
0000
0100
0001
1000
0000
0100
0000
,  // measure 45
0000
0000
0000
0010
0001
1000
0000
0001
0000
0100
0010
0100
0001
0000
1000
0000
,  // measure 46
0000
0000
0000
0000
0100
0000
0001
0000
0100
1000
0001
0200
0000
0000
0000
0000
,  // measure 47
0000
0000
0310
0000
0000
0000
1000
0000
0100
0000
0010
0001
0020
0000
0000
0000
,  // measure 48
0031
1000
0000
1000
0100
0000
0010
0000
0001
0100
0000
0100
0010
0000
0000
0000
,  // measure 49
1000
0100
0001
2000
0000
3010
0000
0001
,  // measure 50
2000
0000
0010
0010
3020
0000
0130
0000
,  // measure 51
0001
1000
0100
0020
0000
0032
0000
0103
,  // measure 52
0002
0000
0000
0003
,  // measure 53
1000
0100
0010
0001
0200
0000
0310
1000
,  // measure 54
0000
0004
0000
0000
0000
0000
0000
0000
0000
0000
0000
0000
0000
0000
0000
0000
,  // measure 55
0000
0000
0000
1003
,  // measure 56
1001
0000
0000
0001
0000
0000
0100
0000
0001
0100
0010
0100
0001
0100
0010
0100
,  // measure 57
0001
1000
0001
1000
0100
0010
0001
0000
1000
0001
1000
0001
0100
00M0
0100
0000
,  // measure 58
1000
0000
0000
0001
1000
0001
0010
0000
0100
1000
0100
1000
0001
0100
0010
0000
,  // measure 59
1000
0000
0010
0M00
0010
0000
0002
0000
0000
1003
0010
0000
0100
0000
0000
0000
,  // measure 60
0101
0000
0000
0001
0000
0000
1000
0000
0100
0000
0010
0001
0200
0000
0000
0000
,  // measure 61
0301
0000
0000
1000
0010
1000
0001
0000
0010
0100
1000
0001
0100
00M0
0100
0000
,  // measure 62
1000
0000
0000
0001
1000
0001
0100
0000
0001
1000
0001
0010
0100
1000
0001
0000
,  // measure 63
0100
0000
0010
0000
1000
0000
0200
0000
0000
0310
0001
0000
1000
0000
0000
0000
,  // measure 64
1001
0000
0000
0001
0000
0000
1000
0000
0010
0100
0010
1000
0010
0100
0010
1000
,  // measure 65
0001
1000
0001
0010
0100
1000
0001
0000
0100
0000
0001
1000
0100
00M0
0100
0000
,  // measure 66
0001
0000
0000
1000
0010
1000
0001
0000
0100
0000
0010
1000
0010
0100
0001
0000
,  // measure 67
1000
0000
0010
0M00
0010
0000
0001
0000
0100
0000
0010
0000
2000
0000
0000
0000
,  // measure 68
3001
0000
0000
0010
0000
0000
0100
0000
1000
0000
0010
0100
0001
0000
0000
0000
,  // measure 69
1000
0000
0000
0001
1000
0100
0010
0000
0001
0000
1000
0001
0100
00M0
0100
0000
,  // measure 70
1000
0000
0000
0001
0010
0001
1000
0000
0100
0000
1000
0010
0100
0001
0100
0000
,  // measure 71
0010
0000
1000
0000
0100
0000
0010
0000
0001
1000
0001
0000
0100
0000
0000
0000
;
