#TITLE:Melody Driven;
#SUBTITLE:;
#ARTIST:Mameyudoufu;
#TITLETRANSLIT:;
#SUBTITLETRANSLIT:;
#ARTISTTRANSLIT:;
#GENRE:;
#CREDIT:;
#BANNER:melody driven-bn.png;
#BACKGROUND:melody driven-bg.png;
#LYRICSPATH:;
#CDTITLE:;
#MUSIC:Melody Driven.ogg;
#OFFSET:-0.015000;
#SAMPLESTART:85.994003;
#SAMPLELENGTH:17.000000;
#SELECTABLE:YES;
#BPMS:0.000000=134.000000
;
#STOPS:
;
#BGCHANGES:;
#KEYSOUNDS:;
#ATTACKS:;

//---------------dance-single - ----------------
#NOTES:
     dance-single:
     :
     Challenge:
     11:
     0.821025,0.834729,0.252438,0.311340,1.333715,683.000000,653.000000,30.000000,37.000000,18.000000,8.000000,0.821025,0.834729,0.252438,0.311340,1.333715,683.000000,653.000000,30.000000,37.000000,18.000000,8.000000:
0000
0000
0000
0000
,
0000
0000
0000
0000
,
0000
0000
0000
0000
,
0000
0000
1000
0010
0010
0010
0100
0001
,
1000
0000
0000
0100
0000
0000
1000
0000
0001
0000
0000
0010
0000
0000
0001
0000
,
1000
0000
0000
0010
0000
0000
0200
0000
0000
0310
1000
0001
0010
0100
1000
0001
,
0100
0000
0000
0010
0000
0000
1000
0000
0001
0000
0000
0010
0000
0000
0100
0000
,
1000
0000
0000
0010
0000
1000
0100
0000
0000
0010
0001
1000
0010
0100
0001
1000
,
0101
0000
0010
0000
0001
0000
1000
0000
0000
0000
0010
0M00
0010
0000
0001
0000
1100
0000
0010
0000
1000
0000
0001
0000
0000
0000
0100
00M0
0100
0000
1000
0000
,
0011
0000
0000
1100
0000
0000
0011
0000
0000
1000
0001
0010
0100
1000
0001
0100
,
0011
0000
1000
0000
0001
0000
0010
0000
0000
0000
0100
00M0
0100
0000
0001
0000
1010
0000
0001
0000
1000
0000
0100
0000
0000
0000
0010
0M00
0010
0000
1000
0000
,
0101
0000
0000
1010
0000
0000
0102
0000
0000
0000
0000
0000
0000
0000
0000
0000
,
1003
0000
0001
0100
0001
0000
1000
0000
0010
0000
0100
0001
1000
0000
0001
0010
,
0100
0000
0000
0000
0010
0000
0001
0000
1000
0000
0000
0000
0010
0000
0000
0000
0100
0000
0000
0000
0001
0000
1000
0000
0100
0000
1000
0001
1000
0000
0010
0000
,
0100
0000
0001
1000
0100
0000
0010
0000
0001
0000
1000
0010
0100
0000
0001
0010
,
0100
0000
0010
0001
0000
0100
0010
0000
1000
0001
0010
0100
1000
0001
0100
0010
,
1100
0000
0001
0010
0001
0000
1000
0001
0100
0000
0010
1000
0001
0000
0010
0100
,
1000
0000
0001
0100
0010
0000
1000
0001
1000
0100
0010
0001
1000
0010
0100
0001
,
1000
0100
1000
0001
0010
0000
0001
0000
1000
0000
0010
0000
0120
0000
0000
0000
,
0130
0000
0000
0000
0000
0000
0000
0000
0001
0000
1000
0100
1000
0000
0001
0000
0100
0000
0010
0000
1000
0000
0001
0000
0400
0000
0000
0000
0000
0000
0000
0000
,
1300
0000
0000
0000
0100
0000
0001
0000
1000
0000
0100
0000
0002
0000
0000
0000
0103
0000
0000
0000
1000
0000
0010
0000
1000
0000
0001
0000
0010
0M00
0010
0000
,
1000
0000
0001
0010
0100
1000
0020
0000
0130
0001
1000
0010
1000
0001
0010
0100
,
0001
0000
0100
0000
1000
0000
0001
0000
0000
0000
0010
000M
0010
0000
0100
0000
1000
0000
0100
0000
0001
0000
1000
0000
0000
0000
0100
00M0
0100
0000
0001
0000
,
1000
0100
0000
0010
0000
0001
0200
0000
0301
1000
0010
1000
0001
0010
0001
0100
,
1000
0000
0100
0001
0010
0100
1000
0001
0010
0000
0001
0100
1000
0001
0010
1000
,
0001
0000
1000
0001
0010
0000
0002
0000
1003
0010
1000
0001
0010
0001
1000
0100
,
0001
0000
0100
0000
1000
0000
0001
0000
0000
0000
0010
000M
0010
0000
0100
0000
1000
0000
0100
0000
0001
0000
1000
0000
0000
0000
0100
00M0
0100
0000
0001
0000
,
1010
0000
0000
0101
0000
0000
2010
0000
0000
0000
3002
0000
0203
0000
0000
0000
,
0310
0000
0000
1000
0000
0000
0001
0010
,
0100
0000
0000
0010
0000
0000
0001
0000
0000
0000
0000
0000
1000
0000
0010
0000
,
0100
0000
0000
0001
0000
0000
1000
0000
0000
0100
0000
0000
0010
0000
0100
0000
,
1000
0000
0000
0000
0000
0000
0010
0000
0000
0000
0000
0000
0100
0000
0000
0000
0000
0000
0000
0000
0001
1000
0001
1000
0001
0000
0000
0000
0010
0000
0000
0000
,
0100
0000
1000
0001
0100
0010
0000
0100
0000
0001
0000
0000
1000
0000
0001
0000
,
0010
0000
0100
0010
0001
1000
0000
0010
0000
0100
0000
0000
0010
1000
0100
0010
,
0001
0100
0000
0010
1000
0001
0000
0010
0000
0100
0000
1000
0010
0100
0010
1000
,
0001
0010
0000
0001
1000
0001
0010
0100
0000
0002
0000
0103
1000
0001
0200
0000
,
0300
0000
0001
1000
0010
0100
0000
0001
0000
1000
0000
0000
0100
0000
0010
0000
,
0001
0000
1000
0010
0100
0010
0000
1000
0000
0001
0000
0000
0010
0001
0100
0010
,
1000
0100
0000
1000
0001
0010
0000
0001
0000
1000
0000
0100
0010
0001
1000
0010
,
0100
1000
0000
0100
0000
0001
0000
2000
0000
0000
0000
0000
0100
0000
0000
0000
,
3001
0000
0010
0100
0000
1000
0001
0100
0001
1000
0000
0010
0100
0000
0001
1000
,
0100
0000
0000
0000
0010
0000
0100
0000
1000
0000
0001
0000
0100
0000
0001
0000
1000
0000
0200
0000
0000
0000
0310
0000
0001
0000
1000
0010
1000
0000
0001
0000
,
0100
0000
0010
1000
0000
0001
0010
0001
1000
0100
0000
1000
0001
0000
0100
0010
,
1000
0000
0000
0000
0001
0000
0010
0000
0001
0000
0100
0000
0010
0000
1000
0000
0001
0000
0010
0000
0000
0000
0100
0000
1000
0000
0001
0010
0001
0000
1000
0000
,
0100
0000
1000
0001
0000
0100
0010
1000
0001
0010
0000
0100
1000
0000
0010
0100
,
0001
0000
1000
0100
1000
0001
0100
0010
0000
1000
0400
0000
0000
0000
0000
0000
,
0000
0000
0000
0000
0310
0001
1001
0000
,
0001
0000
0000
0000
0000
0000
0000
0000
1000
0000
0001
0100
0001
0000
1000
0000
0100
0000
0010
0000
0001
0000
1000
0000
0040
0000
0000
0000
0000
0000
0000
0000
,
2230
0000
3301
0010
0000
0001
0000
0100
0010
1000
0001
0000
0100
00M0
0100
0000
,
2020
0000
3031
0100
0010
0100
0000
0001
1000
0200
0000
0301
1000
0010
0001
1000
,
0022
0000
0133
0001
0000
1000
0000
0100
0010
0001
1000
0000
0010
0M00
0010
0000
,
0202
0000
1303
0010
0100
0001
0000
0010
0100
1000
0000
0001
1000
0010
0100
0001
,
2020
0000
3031
0100
0000
0010
0000
0100
0001
1000
0100
0000
0010
0M00
0010
0000
,
2200
0000
3301
0010
0100
0010
0000
0001
1000
0020
0000
0031
1000
0100
0001
1000
,
0202
0000
0313
0001
0000
1000
0000
0010
1000
0001
0010
0000
0100
00M0
0100
0000
,
0011
0000
0000
1100
0000
0000
0101
0000
0000
1010
0000
0000
0400
0000
0000
0000
,
0301
0000
0000
0000
0100
0000
1000
0000
0001
0000
0100
0000
2000
0000
0000
0000
3100
0000
0000
0000
0001
0000
0010
0000
0001
0000
1000
0000
0010
0M00
0010
0000
,
0001
0000
1000
0010
0100
0001
0020
0000
0130
1000
0001
0010
0001
1000
0010
0100
,
1000
0000
0100
0000
0001
0000
1000
0000
0000
0000
0010
000M
0010
0000
0100
0000
0001
0000
0100
0000
1000
0000
0001
0000
0000
0000
0100
00M0
0100
0000
1000
0000
,
0001
0100
0000
0010
0000
1000
0200
0000
1300
0001
0010
0001
1000
0010
1000
0100
,
0001
0000
0100
1000
0010
0100
0001
1000
0010
0000
1000
0100
0001
1000
0010
0001
,
1000
0000
0001
1000
0010
0000
2000
0000
3001
0010
0001
1000
0010
1000
0001
0100
,
1000
0000
0100
0000
0001
0000
1000
0000
0000
0000
0010
000M
0010
0000
0100
0000
0001
0000
0100
0000
1000
0000
0001
0000
0000
0000
0100
00M0
0100
0000
1000
0000
,
0011
0000
0000
1100
0000
0000
0012
0000
0000
0000
2003
0000
3200
0000
0000
0000
,
0310
0000
0000
0000
;

//---------------dance-single - ----------------
#NOTES:
     dance-single:
     :
     Hard:
     9:
     0.599841,0.619315,0.210365,0.336584,0.778351,499.000000,474.000000,25.000000,40.000000,4.000000,0.000000,0.599841,0.619315,0.210365,0.336584,0.778351,499.000000,474.000000,25.000000,40.000000,4.000000,0.000000:
0000
0000
0000
0000
,
0000
0000
0000
0000
,
0000
0000
0000
0000
,
0000
0000
0000
0000
,
1000
0000
0000
0100
0000
0000
1000
0000
0001
0000
0000
0010
0000
0000
0001
0000
,
1000
0000
0000
0010
0000
0000
0200
0000
0000
0310
1000
0000
0001
0000
0010
0000
,
0100
0000
0000
0010
0000
0000
0001
0000
1000
0000
0000
0010
0000
0000
0100
0000
,
0001
0000
0000
0010
0000
0001
1000
0000
0000
0100
0010
0000
0001
0000
0100
0000
,
0120
0000
0000
1030
0000
0000
0001
0000
1002
0000
0000
0013
0000
0000
0100
0000
,
1100
0000
0000
1001
0000
0000
0101
0000
0000
0001
0010
0000
0001
0000
0100
0000
,
2010
0000
0000
3100
0000
0000
0010
0000
0012
0000
0000
0103
0000
0000
0010
0000
,
1010
0000
0000
1001
0000
0000
2100
0000
0000
0000
0000
0000
0000
0000
0000
0000
,
3001
0000
0000
0100
0000
0000
0010
0000
0100
0000
0000
0001
0000
0000
1000
0100
,
0010
0000
0000
0001
0000
0000
1000
0000
0010
0000
0100
0000
0001
0000
1000
0000
,
0100
0000
0000
0010
0000
0000
0001
0000
1000
0000
0000
0010
0000
0000
0100
0010
,
1000
0000
0000
0001
0000
0010
0100
0000
1000
0000
0010
0000
0100
0000
0001
0000
,
1001
0000
0000
1000
0000
0000
0100
0000
0010
0000
0000
0100
0000
0000
1000
0001
,
0100
0000
0000
0010
0000
0000
2000
0000
0000
3001
0010
0000
0001
0000
0100
0000
,
0010
1000
0010
1000
0001
1000
1002
0000
,
1003
0000
0000
0000
0100
0010
0100
0000
1000
0000
0001
0000
0400
0000
0000
0000
,
1300
0000
0100
0001
0010
0000
1000
0000
0010
0000
0001
0000
1000
0100
1000
0001
,
0100
0000
0010
1000
0000
0000
0002
0000
0000
0103
0010
0000
1000
0000
0100
0000
,
0001
0000
0000
0000
0100
0000
1000
0000
0000
0000
0001
0000
0100
0000
0000
0000
1000
0000
0000
0000
0100
0000
0001
0000
0000
0000
0010
0M00
0010
0000
1000
0000
,
0002
0000
0003
0010
0000
0001
0200
0000
0000
0301
1000
0000
0010
0000
0100
0000
,
1000
0000
0100
0001
0000
1000
0100
0010
0001
0000
1000
0010
1000
0000
0001
0000
,
0010
0000
0000
0001
0100
0000
0020
0000
0000
1030
0001
0000
0010
0000
0100
0000
,
0001
0000
0000
0000
0100
0000
1000
0000
0000
0000
0001
0000
0100
0000
0000
0000
1000
0000
0000
0000
0100
0000
0001
0000
0000
0000
0010
0M00
0010
0000
1000
0000
,
0002
0000
0000
2003
0000
0000
3200
0000
0000
0000
0320
0000
0032
0000
0000
0000
,
1003
0000
0000
0010
0000
0000
0100
0001
,
1000
0000
0000
0001
0000
0000
0010
0000
0000
0000
0000
0000
0001
0000
0100
0000
,
0010
0000
0000
1000
0000
0000
0001
0000
0000
0010
0000
0000
0001
0000
0100
0000
,
0010
0000
0000
1000
0000
0000
0001
0000
0000
0000
0000
0010
0100
0000
1000
0000
,
0001
0000
1000
0100
0000
1000
0000
0001
0000
0100
0000
0000
0010
0000
1000
0000
,
0001
0000
0000
1000
0100
1000
0000
0001
0000
0100
0000
0000
0001
0010
0100
0000
,
1000
0001
0000
0100
0010
1000
0000
0001
0000
0010
0000
0001
1000
0000
0100
0000
,
0010
0001
0000
1000
0010
0100
0001
1000
0000
0100
0000
0000
0010
0000
0100
0000
,
1000
0000
0001
0100
0000
0010
0000
1000
0000
0001
0000
0000
0010
0000
0001
0000
,
1000
0000
0000
0010
0100
0010
0000
1000
0000
0001
0000
0000
0010
0001
1000
0000
,
0100
0010
0000
0001
1000
0010
0000
0100
0000
0001
0000
1000
0100
0000
1000
0000
,
0010
0001
0000
0010
0000
1000
0000
0002
0000
0000
0000
0000
0100
0000
0000
0000
,
1003
0000
0001
1000
0000
0100
0000
0010
0000
0200
0000
0300
1000
0000
0001
0000
,
0100
0000
0010
0000
1000
0001
0000
0010
0000
0200
0000
0000
1300
0000
0001
0000
,
0100
0000
0010
1000
0000
0001
0000
0010
0000
0001
0000
1000
0100
0000
1000
0000
,
0001
0000
0100
0010
1000
0001
0000
0100
0000
0020
0000
0000
1030
0000
0001
0000
,
0011
0000
0001
1000
0000
0010
0000
0100
0000
0001
0000
1000
0001
0000
0100
0000
,
0010
0000
1000
0001
0010
0100
0000
1000
0000
0001
4000
0000
0000
0000
0000
0000
,
0000
0000
0000
0000
3010
0100
0101
0000
,
0001
0000
0000
0000
1000
0100
1000
0000
0001
0000
0010
0000
0400
0000
0000
0300
,
2100
0000
3001
0100
0000
0010
0000
1000
0001
1000
0010
0000
0100
0000
0001
0000
,
0102
0000
0003
0000
0001
1000
0000
0100
0000
0020
0000
0031
1000
0000
0010
0000
,
0120
0000
0130
0001
0000
1000
0000
0001
0010
0001
1000
0000
0010
0000
1000
0000
,
2010
0000
3000
0000
1000
0001
0000
0010
0000
0100
0000
1000
0001
0000
0100
0000
,
0102
0000
1003
0100
0000
1000
0000
0001
0100
0010
0100
0000
0001
0000
1000
0000
,
2100
0000
3000
0000
1000
0010
0000
0100
0000
0002
0000
0003
1000
0100
1000
0000
,
1002
0000
1003
0010
0000
0100
0000
0010
1000
0001
0010
0000
0100
0000
1000
0000
,
1100
0000
0000
1001
0000
0000
0101
0000
0000
2010
0000
0000
3400
0000
0000
0000
,
0301
0000
0100
1000
0010
0000
0001
0000
0010
0000
1000
0000
0001
0100
0001
1000
,
0100
0000
0010
0001
0000
0000
2000
0000
0000
3010
0100
0000
0001
0000
0010
0000
,
1000
0000
0000
0000
0010
0000
0001
0000
0000
0000
1000
0000
0010
0000
0000
0000
0001
0000
0000
0000
0010
0000
1000
0000
0000
0000
0100
00M0
0100
0000
0001
0000
,
2000
0000
3000
0010
0000
1000
0200
0000
0000
1300
0001
0000
0010
0000
0100
0000
,
0001
0000
0100
1000
0000
0001
0100
0010
1000
0000
0001
0010
0001
0000
1000
0000
,
0010
0000
0000
1000
0001
0000
0020
0000
0000
0031
1000
0000
0100
0000
0010
0000
,
1000
0000
0000
0000
0010
0000
0001
0000
0000
0000
1000
0000
0010
0000
0000
0000
0001
0000
0000
0000
0010
0000
1000
0000
0000
0000
0100
00M0
0100
0000
0001
0000
,
2000
0000
0000
3002
0000
0000
0203
0000
0000
0000
0320
0000
2030
0000
0000
0000
,
3001
0000
0000
0000
;

//---------------dance-single - ----------------
#NOTES:
     dance-single:
     :
     Medium:
     7:
     0.450782,0.511608,0.210365,0.319755,0.454389,375.000000,350.000000,25.000000,38.000000,0.000000,0.000000,0.450782,0.511608,0.210365,0.319755,0.454389,375.000000,350.000000,25.000000,38.000000,0.000000,0.000000:
0000
0000
0000
0000
,
0000
0000
0000
0000
,
0000
0000
0000
0000
,
0000
0000
0000
0000
,
1000
0000
0000
0100
0000
0000
1000
0000
0001
0000
0000
0010
0000
0000
0001
0000
,
1000
0000
0000
0010
0000
0000
0200
0000
0000
0000
0310
0000
1000
0000
0001
0000
,
0010
0000
0000
0001
0000
0000
1000
0000
0010
0000
0000
0100
0000
0000
0010
0000
,
1000
0000
0000
0002
0000
0000
2003
0000
0000
0000
3100
0000
0010
0000
0001
0000
,
0012
0000
0000
0103
0000
0000
0010
0000
2010
0000
0000
3100
0000
0000
0010
0000
,
0011
0000
0000
1001
0000
0000
1100
0000
0000
0000
1000
0000
0001
0000
0100
0000
,
2010
0000
0000
3100
0000
0000
0010
0000
0012
0000
0000
0103
0000
0000
0010
0000
,
1010
0000
0000
1001
0000
0000
0102
0000
0000
0000
0000
0000
0000
0000
0000
0000
,
1003
0000
0000
0100
0000
0000
0010
0000
0100
0000
0000
1000
0000
0000
0001
0000
,
1000
0000
0000
0010
0000
0000
0100
0000
0001
0000
0000
1000
0000
0000
0100
0000
,
0010
0000
0000
0001
0000
0000
1000
0000
0010
0000
0000
0100
0000
0000
0010
0000
,
1000
0000
0000
0001
0000
0000
1000
0000
0100
0000
0000
1000
0000
0000
0001
0000
,
1001
0000
0000
1000
0000
0000
0000
0000
0010
0000
0000
0100
0000
0000
0001
0000
,
1000
0000
0000
0100
0000
0000
0020
0000
0000
0000
0031
0000
1000
0000
0010
0000
,
1000
0001
1000
0001
0010
0100
2100
0000
,
3001
0000
0100
0010
1000
0001
0400
0000
,
1300
0100
0001
0020
0031
0100
0001
0001
,
1000
0000
0000
0010
0000
0000
0200
0000
0000
0000
0301
0000
1000
0000
0100
0000
,
0001
0000
0000
0100
0000
0000
1000
0000
0010
0000
0000
0100
0000
0000
0001
0000
,
1000
0000
0000
0100
0000
0000
0020
0000
0000
0000
0031
0000
1000
0000
0010
0000
,
0001
0000
0000
0010
0000
0000
1000
0000
0100
0000
0000
0010
0000
0000
0000
0000
,
0001
0000
0000
1000
0000
0000
0020
0000
0000
0000
1030
0000
0010
0000
0100
0000
,
1000
0000
0000
0100
0000
0000
0001
0000
0010
0000
0000
0100
0000
0000
1000
0000
,
0002
0000
0000
2003
0000
0000
3002
0000
0000
0000
0000
0000
0000
0000
0000
0000
,
0103
0000
0000
0010
0000
0000
0100
0001
,
1000
0000
0000
0001
0000
0000
0010
0000
0000
0000
0000
0000
0001
0000
1000
0000
,
0100
0000
0000
0010
0000
0000
0100
0000
0000
1000
0000
0000
0001
0000
0100
0000
,
0010
0000
0000
1000
0000
0000
0001
0000
0000
0000
0000
0000
0010
0000
0100
0000
,
1000
0000
0001
0000
0000
1000
0000
0001
0000
0100
0000
0000
0010
0000
1000
0000
,
0001
0000
0000
0000
0010
0000
0000
0100
0000
1000
0000
0000
0001
0000
0100
0000
,
0010
0000
0000
0000
1000
0000
0000
0100
0000
0010
0000
0000
0100
0000
1000
0000
,
0001
0000
0000
0000
0100
0000
0000
0010
0000
0001
0000
0000
0010
0000
1000
0000
,
0001
0000
1000
0000
0000
0100
0000
0010
0000
0001
0000
0000
0100
0000
0010
0000
,
0100
0000
0000
0000
0001
0000
0000
1000
0000
0100
0000
0000
1000
0000
0001
0000
,
0100
0000
0000
0000
0010
0000
0000
1000
0000
0001
0000
0000
1000
0000
0100
0000
,
0001
0000
0000
0100
0000
1000
0000
0002
0000
0000
0000
0000
0000
0000
0000
0000
,
0103
0000
0000
0010
0000
1000
0000
0001
0000
0020
0000
0000
0031
0000
1000
0000
,
0001
0000
0000
0000
0100
0000
0000
0010
0000
2000
0000
0000
3001
0000
1000
0000
,
0100
0000
0000
1000
0000
0001
0000
0010
0000
0100
0000
0000
0010
0000
0001
0000
,
1000
0000
0000
0000
0100
0000
0000
1000
0000
0020
0000
0000
0130
0000
0001
0000
,
1001
0000
0000
1000
0000
0010
0000
0100
0000
0001
0000
0000
1000
0000
0001
0000
,
0010
0000
0000
0000
0100
0000
0000
1000
0000
0004
0000
0000
0000
0000
0000
0000
,
0000
0000
0000
0000
0000
0000
0000
0000
2003
0000
0000
3000
1100
0000
0000
0000
,
1000
0000
0000
0000
0001
0000
0100
0000
0010
0000
1000
0000
0004
0000
0000
0003
,
2001
0000
0000
3001
0000
0010
0000
0001
0000
1000
0000
0000
0010
0000
0100
0000
,
0120
0000
0030
0000
0100
0000
0000
0001
0000
1000
0000
0000
0100
0000
0010
0000
,
0012
0000
0003
1000
0000
0010
0000
1000
0000
0001
0000
0000
0010
0000
0100
0000
,
2100
0000
3000
0000
0001
0000
0000
0100
0000
0010
0000
0000
0100
0000
0001
0000
,
0102
0000
0003
1000
0000
0100
0000
0010
0000
0100
0000
0000
1000
0000
0001
0000
,
2001
0000
3000
0000
0001
0000
0000
0100
0000
0002
0000
0003
1000
0000
0100
0000
,
0120
0000
0030
0100
0000
1000
0000
0001
0000
0100
0000
0000
0001
0000
1000
0000
,
1001
0000
0000
0101
0000
0000
0011
0000
0000
2010
0000
0000
3400
0000
0000
0000
,
0301
0100
1000
0020
1030
0100
1000
1000
,
0001
0000
0000
0100
0000
0000
0020
0000
0000
0000
1030
0000
0001
0000
0100
0000
,
1000
0000
0000
0100
0000
0000
0001
0000
0010
0000
0000
0100
0000
0000
1000
0000
,
0001
0000
0000
0100
0000
0000
0020
0000
0000
0000
1030
0000
0001
0000
0010
0000
,
1000
0000
0000
0010
0000
0000
0001
0000
0100
0000
0000
0010
0000
0000
0000
0000
,
1000
0000
0000
0001
0000
0000
0020
0000
0000
0000
0031
0000
0100
0000
0010
0000
,
0001
0000
0000
0010
0000
0000
1000
0000
0100
0000
0000
0010
0000
0000
0001
0000
,
2000
0000
0000
3002
0000
0000
2003
0000
0000
0000
0000
0000
0000
0000
0000
0000
,
3100
0000
0000
0000
;

//---------------dance-single - ----------------
#NOTES:
     dance-single:
     :
     Easy:
     4:
     0.284894,0.323121,0.075731,0.176707,0.180914,237.000000,228.000000,9.000000,21.000000,0.000000,0.000000,0.284894,0.323121,0.075731,0.176707,0.180914,237.000000,228.000000,9.000000,21.000000,0.000000,0.000000:
0000
0000
0000
0000
,
0000
0000
0000
0000
,
0000
0000
0000
0000
,
0000
0000
0000
0000
,
1000
0000
0000
0001
0000
0000
0000
0000
0100
0000
0000
0010
0000
0000
0000
0000
,
1000
0000
0000
0001
0000
0000
0020
0000
0030
0000
0000
0000
0001
0000
0000
0000
,
1000
0000
0000
0010
0000
0000
0000
0000
0100
0000
0000
0001
0000
0000
0000
0000
,
1000
0000
0000
0100
0000
0000
0020
0000
0030
0000
0000
0000
0001
0000
0000
0000
,
1000
0000
0000
0001
0000
0000
0000
0000
0100
0000
0000
0010
0000
0000
0000
0000
,
0100
0000
0000
0001
0000
0000
1000
0000
0000
0000
0000
0000
0100
0000
0000
0000
,
1000
0000
0000
0001
0000
0000
0000
0000
0100
0000
0000
0001
0000
0000
0000
0000
,
1000
0000
0000
0100
0000
0000
0020
0000
0000
0000
0000
0000
0000
0000
0000
0000
,
0031
0100
0010
1000
,
0001
0010
0100
0010
,
0001
1000
0010
1000
,
0001
0010
0100
1000
,
1001
0000
0000
0001
0000
0000
0000
0000
0100
0000
0000
0010
0000
0000
0000
0000
,
1000
0000
0000
0001
0000
0000
0020
0000
0000
0030
0000
0000
0000
0000
0000
0000
,
0001
1000
0010
0200
,
0301
0100
0001
2000
,
3001
0000
0000
0010
0000
0000
0000
0000
0001
0000
0000
0100
0000
0000
0000
0000
,
0010
0000
0000
1000
0000
0000
0002
0000
0003
0000
0000
0000
0010
0000
0000
0000
,
0100
0000
0000
1000
0000
0000
0000
0000
0001
0000
0000
0100
0000
0000
0000
0000
,
0001
0000
0000
1000
0000
0000
0200
0000
0300
0000
0000
0000
0010
0000
0000
0000
,
0001
0000
0000
1000
0000
0000
0000
0000
0010
0000
0000
0100
0000
0000
0000
0000
,
0010
0000
0000
1000
0000
0000
0002
0000
0003
0000
0000
0000
0010
0000
0000
0000
,
0100
0000
0000
1000
0000
0000
0000
0000
0001
0000
0000
0100
0000
0000
0000
0000
,
0010
0000
0000
2000
0000
0000
3002
0000
0000
0000
0000
0000
0000
0000
0000
0000
,
1003
0000
0000
0000
,
0001
0000
0000
1000
0000
0000
0100
0000
0000
0000
0000
0000
0000
0000
0000
0000
,
1000
0000
0000
0001
0000
0000
0100
0000
,
0010
0000
0000
1000
0000
0000
0001
0000
0000
0000
0000
0000
0010
0000
0000
0000
,
0100
1000
0001
0100
,
0010
0100
0001
1000
,
0100
0010
0100
1000
,
0001
0000
0100
0000
0020
0000
1030
0001
,
1000
0100
0010
0001
,
1000
0010
1000
0001
,
0010
0001
1000
0010
,
0200
0000
0301
1000
0001
0000
0010
0000
,
0100
0000
1000
0001
,
0100
0001
1000
0000
,
0001
0010
0100
1000
,
0000
0001
0100
0010
,
1000
0001
0010
0001
,
1000
0010
0200
0000
,
0000
0000
0000
0000
0000
0000
0000
0000
0302
0000
0000
0003
1001
0000
0000
0000
,
0000
1000
0100
0010
,
0011
0001
1000
0001
,
1001
0001
0100
0010
,
1010
1000
0001
0010
,
0110
0100
1000
0001
,
1001
1000
0010
0100
,
0101
0001
1000
0100
,
0110
0010
0001
1000
,
0001
0000
0000
1000
0000
0000
0001
0000
0000
1000
0000
0000
0020
0000
0000
0000
,
1030
0000
0000
0010
0000
0000
0000
0000
1000
0000
0000
0100
0000
0000
0000
0000
,
0010
0000
0000
0001
0000
0000
2000
0000
3000
0000
0000
0000
0010
0000
0000
0000
,
0100
0000
0000
0001
0000
0000
0000
0000
1000
0000
0000
0100
0000
0000
0000
0000
,
1000
0000
0000
0001
0000
0000
0200
0000
0300
0000
0000
0000
0010
0000
0000
0000
,
1000
0000
0000
0001
0000
0000
0000
0000
0010
0000
0000
0100
0000
0000
0000
0000
,
0010
0000
0000
0001
0000
0000
2000
0000
3000
0000
0000
0000
0010
0000
0000
0000
,
0100
0000
0000
0001
0000
0000
0000
0000
1000
0000
0000
0100
0000
0000
0000
0000
,
0010
0000
0000
0002
0000
0000
2003
0000
0000
0000
0000
0000
0000
0000
0000
0000
,
3001
0000
0000
0000
;

//---------------dance-single - ----------------
#NOTES:
     dance-single:
     :
     Beginner:
     1:
     0.073327,0.080780,0.000000,0.000000,0.000000,61.000000,61.000000,0.000000,0.000000,0.000000,0.000000,0.073327,0.080780,0.000000,0.000000,0.000000,61.000000,61.000000,0.000000,0.000000,0.000000,0.000000:
// measure 0
0000
0000
0000
0000
,  // measure 1
0000
0000
0000
0000
,  // measure 2
0000
0000
0000
0000
,  // measure 3
0000
0000
0000
0000
,  // measure 4
0001
0000
0000
0000
,  // measure 5
1000
0000
0000
0000
,  // measure 6
0100
0000
0000
0000
,  // measure 7
0010
0000
0000
0000
,  // measure 8
0001
0000
0000
0000
,  // measure 9
1000
0000
0000
0000
,  // measure 10
0010
0000
0000
0000
,  // measure 11
0100
0000
0000
0000
,  // measure 12
0001
0000
0000
0000
,  // measure 13
1000
0000
0000
0000
,  // measure 14
0100
0000
0000
0000
,  // measure 15
0010
0000
0000
0000
,  // measure 16
0100
0000
0000
0000
,  // measure 17
1000
0000
0000
0000
,  // measure 18
0001
0000
0000
0000
,  // measure 19
0100
0000
0000
0000
,  // measure 20
0010
0000
0000
0000
,  // measure 21
1000
0000
0000
0000
,  // measure 22
0001
0000
0000
0000
,  // measure 23
0010
0000
0000
0000
,  // measure 24
0100
0000
0000
0000
,  // measure 25
0010
0000
0000
0000
,  // measure 26
0001
0000
0000
0000
,  // measure 27
1000
0000
0000
0000
,  // measure 28
0010
0000
0000
0000
,  // measure 29
0100
0000
0000
0000
,  // measure 30
0001
0000
0000
0000
,  // measure 31
0010
0000
0000
0000
,  // measure 32
0100
0000
0000
0000
,  // measure 33
1000
0000
0000
0000
,  // measure 34
0001
0000
0000
0000
,  // measure 35
1000
0000
0000
0000
,  // measure 36
0010
0000
0000
0000
,  // measure 37
0100
0000
0000
0000
,  // measure 38
0010
0000
0000
0000
,  // measure 39
1000
0000
0000
0000
,  // measure 40
0001
0000
0000
0000
,  // measure 41
0010
0000
0000
0000
,  // measure 42
0100
0000
0000
0000
,  // measure 43
1000
0000
0000
0000
,  // measure 44
0001
0000
0000
0000
,  // measure 45
0100
0000
0000
0000
,  // measure 46
0001
0000
0000
0000
,  // measure 47
1000
0000
0000
0000
,  // measure 48
0100
0000
0000
0000
,  // measure 49
0010
0000
0000
0000
,  // measure 50
0001
0000
0000
0000
,  // measure 51
1000
0000
0000
0000
,  // measure 52
0010
0000
0000
0000
,  // measure 53
1000
0000
0000
0000
,  // measure 54
0001
0000
0000
0000
,  // measure 55
0010
0000
0000
0000
,  // measure 56
0100
0000
0000
0000
,  // measure 57
1000
0000
0000
0000
,  // measure 58
0001
0000
0000
0000
,  // measure 59
0100
0000
0000
0000
,  // measure 60
0010
0000
0000
0000
,  // measure 61
0100
0000
0000
0000
,  // measure 62
0001
0000
0000
0000
,  // measure 63
1000
0000
0000
0000
,  // measure 64
0100
0000
0000
0000
;
