#TITLE:Mario Land Ruins;
#SUBTITLE:;
#ARTIST:Ricky West;
#TITLETRANSLIT:;
#SUBTITLETRANSLIT:;
#ARTISTTRANSLIT:;
#GENRE:Bass House;
#CREDIT:Feraligatr;
#BANNER:MLR-bn.png;
#BACKGROUND:MLR-bg-wide.png;
#LYRICSPATH:;
#CDTITLE:;
#MUSIC:Mario Land Ruins.ogg;
#OFFSET:0.008000;
#SAMPLESTART:56.881001;
#SAMPLELENGTH:14.222000;
#SELECTABLE:YES;
#DISPLAYBPM:135.000000;
#BPMS:0.000000=135.000000
,128.000000=202.500000
,128.750000=67.500000
,129.000000=135.000000
,136.000000=202.500000
,136.750000=67.500000
,137.000000=135.000000
,144.000000=202.500000
,144.750000=67.500000
,145.000000=135.000000
,152.000000=202.500000
,152.750000=67.500000
,153.000000=135.000000
,160.000000=202.500000
,160.750000=67.500000
,161.000000=135.000000
,168.000000=202.500000
,168.750000=67.500000
,169.000000=135.000000
,175.000000=270.000000
,176.000000=202.500000
,176.750000=67.500000
,177.000000=135.000000
,184.000000=202.500000
,184.750000=67.500000
,185.000000=135.000000
;
#STOPS:175.000000=0.028000,
175.125000=0.027000,
175.250000=0.028000,
175.375000=0.028000,
175.500000=0.028000,
175.625000=0.027000,
175.750000=0.028000,
175.875000=0.028000
;
#BGCHANGES:;
#KEYSOUNDS:;
#ATTACKS:;

//---------------dance-single - Feraligatr----------------
#NOTES:
     dance-single:
     Feraligatr:
     Challenge:
     10:
     0.614646,0.751576,0.151261,0.537815,0.609244,512.000000,494.000000,18.000000,64.000000,4.000000,0.000000,0.614646,0.751576,0.151261,0.537815,0.609244,512.000000,494.000000,18.000000,64.000000,4.000000,0.000000:
// measure 0
0000
0000
0000
0000
,  // measure 1
0000
0000
0000
0000
,  // measure 2
0000
0000
0000
0000
,  // measure 3
0000
0000
0000
0000
,  // measure 4
0001
0000
0000
0000
0000
0000
0000
0000
0100
0000
0000
0000
0000
0001
0000
0000
0010
0000
0000
0000
0000
0000
0000
0000
0100
0000
0000
0000
0000
1000
0000
0000
0001
0000
0000
0000
0000
0000
0000
0000
0100
0000
0000
0000
0000
0001
0000
0000
1000
0000
0000
0000
0000
0000
0000
0000
0100
0000
0000
0000
0000
0000
0000
0000
,  // measure 5
0010
0000
0000
0000
0000
0000
0000
0000
0001
0000
0000
0000
0000
0010
0000
0000
0001
0000
0000
0000
0000
0000
0000
0000
0010
0000
0000
0000
0000
0100
0000
0000
0000
0000
0000
0000
0000
0100
0000
0000
1000
0000
0000
0000
0000
0001
0000
0000
0100
0000
0000
0000
0000
0000
0000
0000
0001
0000
0000
0000
0000
0000
0000
0000
,  // measure 6
1000
0000
0000
0000
0000
0000
0000
0000
0010
0000
0000
0000
0000
1000
0000
0000
0100
0000
0000
0000
0000
0000
0000
0000
0010
0000
0000
0000
0000
0001
0000
0000
1000
0000
0000
0000
0000
0000
0000
0000
0010
0000
0000
0000
0000
1000
0000
0000
0001
0000
0000
0000
0000
0000
0000
0000
0010
0000
0000
0000
0000
0000
0000
0000
,  // measure 7
0200
0000
0000
0000
0000
0000
0000
0000
0000
0000
0000
0000
0000
0000
0000
0000
0000
0000
0000
0000
0000
0000
0000
0000
0000
0000
0000
0000
0000
1000
0000
0000
0000
0000
0000
0000
0000
1000
0000
0000
0000
0000
0000
0000
0000
0000
0000
0000
0000
0000
0000
0000
0000
0000
0000
0000
0000
0000
0000
0000
0000
0000
0000
0000
,  // measure 8
0320
0000
0000
0000
0000
0000
0230
0000
0000
1300
0001
0100
0020
0000
0000
0000
0000
0000
0000
0000
0000
2030
0000
0000
,  // measure 9
3002
0000
0000
1003
0002
0000
2003
0000
3200
0000
0000
0000
0000
0000
0000
0000
,  // measure 10
0320
0000
0000
0000
0000
0000
0230
0000
0000
1300
0001
0100
0020
0000
0000
0000
0000
0000
0000
0000
0000
2030
0000
0000
,  // measure 11
3002
0000
0000
0000
0000
0000
0000
0000
0000
0013
0000
0000
2000
0000
0000
0000
0000
0000
3010
0000
0100
0000
0010
0000
0002
0000
0000
0000
0000
0000
0000
0000
0000
0000
0000
0000
0000
0000
0000
0000
0000
0000
0000
0000
0000
0000
0000
0000
,  // measure 12
2003
0000
3000
0020
,  // measure 13
0230
0000
0000
0000
0000
0000
0000
0000
0302
0000
0000
0000
0000
0000
0013
0100
,  // measure 14
2000
0000
3000
0000
,  // measure 15
0000
0000
0000
0000
,  // measure 16
0021
0000
0000
0000
0000
0000
0130
0000
0000
1000
0001
0100
0020
0000
0000
1000
0000
0000
1030
0000
0000
0001
0000
0000
,  // measure 17
1000
0000
0000
0001
1000
0000
0001
0000
0010
0000
0100
0000
1000
0001
0100
0001
,  // measure 18
0020
0000
0000
0000
0000
0000
0130
0000
0000
1000
0001
0100
0020
0000
0000
1000
0000
0000
1030
0000
0000
0001
0000
0000
,  // measure 19
1000
0000
0000
0000
0000
0000
0000
0000
0000
0100
0000
0000
0001
0000
0000
0000
0000
0000
0100
0000
0010
0000
0100
0000
1000
0000
0000
0001
0000
0000
0100
0000
0000
0000
0000
0000
0001
0000
0000
1000
0000
0000
0100
0000
0000
1000
0000
0000
,  // measure 20
0020
0000
0000
0000
0000
0000
0130
0000
0000
0001
1000
0100
0020
0000
0000
0001
0000
0000
0031
0000
0000
1000
0000
0000
,  // measure 21
0001
0000
0000
1000
0001
0000
1000
0000
0010
0000
0100
0000
0001
1000
0100
1000
,  // measure 22
0020
0000
0000
0000
0000
0000
0130
0000
0000
0001
1000
0100
0020
0000
0000
0001
0000
0000
0031
0000
0000
1000
0000
0000
,  // measure 23
0001
0000
0000
0000
0000
0000
0000
0000
0000
0100
0000
0000
1000
0000
0000
0000
0000
0000
0100
0000
0010
0000
0100
0000
0001
0000
0000
1000
0000
0000
0100
0000
0000
1000
0000
0000
0010
0000
0000
0100
0000
0000
0001
0000
0000
0010
0000
0000
,  // measure 24
0100
0000
0000
1000
0000
0000
0100
0000
0000
1000
0010
0100
0001
0000
0000
1000
0000
0000
0100
0000
0000
0010
0000
0000
,  // measure 25
0001
1000
0001
1000
0010
0100
0002
1003
,  // measure 26
1010
0000
0000
0010
0000
0000
0100
0000
0000
0001
0010
0100
1000
0000
0000
0001
0000
0000
0100
0000
0000
0001
0000
0000
,  // measure 27
1000
0000
0000
0100
0000
0000
0001
0000
0000
0100
0010
0100
1000
0000
0000
0001
0000
0000
0200
0000
0000
0310
0000
0000
,  // measure 28
1010
1000
0001
0001
0010
0010
0100
0100
,  // measure 29
1000
0001
1000
0001
0100
0100
0010
0010
,  // measure 30
1000
0001
1000
0100
0010
0001
1000
0010
1000
0001
0010
0100
1000
0001
0100
0001
,  // measure 31
1000
0000
0000
0000
0000
0000
0100
0000
0000
0000
0000
0000
0001
0000
0000
0000
0000
0000
0100
0000
0010
0000
0001
0000
2000
0000
0000
0000
0000
0000
0000
0000
0000
3000
0000
0000
MMMM
0000
0000
0000
0000
0000
0000
0000
0000
0000
0000
0000
,  // measure 32
2001
0000
0000
0000
0000
0000
0000
0000
0000
0000
0000
0000
0000
0000
0000
0000
3010
0000
0000
0000
0000
0000
0000
0000
0100
0000
0000
0000
0000
0001
0000
0000
2000
0000
0000
0000
0000
0000
0000
0000
0000
0000
0000
0000
0000
0000
0000
0000
0001
0000
0000
0000
0000
0000
0000
0000
3100
0000
0000
0000
0000
0000
0000
0000
,  // measure 33
0010
0000
0000
0000
0000
0000
0000
0000
0001
0000
0000
0000
0000
0000
0000
0000
0010
0000
0000
0000
0000
0000
0000
0000
0001
0000
0000
0000
0000
1000
0000
0000
0020
0000
0000
0000
0000
1000
0000
0000
0000
0000
0000
0000
0030
0000
0000
0000
0012
0000
0000
0000
0000
0000
0000
0000
0000
0000
0000
0000
0003
0000
0000
0000
,  // measure 34
2100
0000
0000
0000
0000
0000
3010
0000
0000
1000
0001
1000
0200
0000
0000
0000
0000
0000
0010
0000
0000
1300
0000
0000
,  // measure 35
0001
0000
0000
0000
0000
0000
0000
0000
0000
0000
0000
0000
0000
0000
0000
0000
0000
0000
0000
0000
0000
0000
0000
0000
0100
0000
0000
0000
0000
0000
0000
0000
0000
0000
0000
0000
0000
0000
0000
0000
0000
0000
0000
0000
0000
0000
0000
0000
1000
0000
0000
0000
0000
0000
0000
0000
0000
0000
0000
0000
0000
0000
0000
0000
0000
0000
0000
0000
0000
0000
0000
0000
0100
0000
0000
0000
0000
0000
0000
0000
0010
0000
0000
0000
0000
0000
0000
0000
1000
0000
0000
0000
0000
0000
0000
0000
0002
0000
0000
0000
0000
0000
0000
0000
0000
0000
0000
0000
0000
0000
0000
1000
0000
0000
0000
0000
0000
0000
0000
0000
0000
0000
0000
0000
0000
0000
0000
0000
0000
0000
0000
0000
0003
0000
0000
0000
0000
0000
0000
0000
0000
0000
0000
0000
0021
0000
0000
0000
0000
0000
0000
0000
0000
0000
0000
0000
0000
0000
0000
0000
0000
0000
0000
0000
0000
0000
0000
0000
0000
0000
0000
0000
0000
0000
0000
0000
0000
0000
0000
0000
0030
0000
0000
0000
0000
0000
0000
0000
0000
0000
0000
0000
,  // measure 36
0201
0000
0000
0000
0000
0000
0000
0000
0000
0000
0000
0000
0000
0000
0000
0000
0301
0000
0000
0000
0000
0000
0000
0000
0100
0000
0000
0000
0000
0010
0000
0000
2000
0000
0000
0000
0000
0000
0000
0000
0000
0000
0000
0000
3000
0000
0000
0000
1000
0000
0000
0000
0000
0000
0000
0000
0100
0000
0000
0000
0000
0000
0000
0000
,  // measure 37
0010
0000
0000
0000
0000
0000
0000
0000
0001
0000
0000
0000
0000
0000
0000
0000
0001
0000
0000
0000
0000
0000
0000
0000
0010
0000
0000
0000
0000
0100
0000
0000
2000
0000
0000
0000
0000
0100
0000
0000
0000
0000
0000
0000
3000
0000
0000
0000
0102
0000
0000
0000
0000
0000
0000
0000
0000
0000
0000
0000
0003
0000
0000
0000
,  // measure 38
2100
0000
0000
0000
0000
0000
0000
0000
0000
0000
0000
0000
3010
0000
0000
0000
0000
0000
1000
0000
0001
0000
1000
0000
0200
0000
0000
0000
0000
0000
0000
0000
0000
0300
0000
0000
0100
0000
0000
0000
0000
0000
1000
0000
0000
0000
0000
0000
,  // measure 39
1002
0000
0000
0000
0000
0000
0000
0000
0000
0000
0000
0000
0000
0000
0000
0000
0000
0000
0000
0000
0000
0000
0000
0000
0000
0000
0000
0000
0000
0000
0000
0000
0000
0000
0000
0000
0103
0000
0000
0000
0000
0000
0000
0000
0000
0000
0000
0000
1000
0000
0000
0000
0000
0000
0000
0000
0000
0000
0000
0000
0000
0000
0000
0000
0000
0000
0000
0000
0000
0000
0000
0000
0100
0000
0000
0000
0000
0000
0000
0000
0010
0000
0000
0000
0000
0000
0000
0000
0100
0000
0000
0000
0000
0000
0000
0000
0001
0000
0000
0000
0000
0000
0000
0000
0000
0000
0000
0000
0000
0000
0000
1000
0000
0000
0000
0000
0000
0000
0000
0000
0100
0000
0000
0000
0000
0000
0000
0000
0000
0000
0000
0000
0000
0000
0000
0000
0000
0000
0000
0000
0000
0000
0000
0000
0010
0000
0000
0000
0000
0000
0000
0000
0000
0000
0000
0000
0000
0000
0000
0000
0000
0000
0000
0000
0000
0000
0000
0000
0001
0000
0000
0000
0000
0000
0000
0000
0000
0000
0000
0000
0100
0000
0000
0000
0000
0000
0000
0000
0000
0000
0000
0000
,  // measure 40
0201
0000
0000
0000
0000
0000
0000
0000
0000
0000
0000
0000
0000
0000
0000
0000
1300
0000
0000
0000
0000
0000
0000
0000
0100
0000
0000
0000
0000
0010
0000
0000
2000
0000
0000
0000
0000
0000
0000
0000
0010
0000
0000
0000
0000
0000
0000
0000
0001
0000
0000
0000
0000
0000
0000
0000
3100
0000
0000
0000
0000
0000
0000
0000
,  // measure 41
0010
0000
0000
0000
0000
0000
0000
0000
0001
0000
0000
0000
0000
0000
0000
0000
0010
0000
0000
0000
0000
0000
0000
0000
0001
0000
0000
0000
0000
1000
0000
0000
0020
0000
0000
0000
0000
1000
0000
0000
0000
0000
0000
0000
0030
0000
0000
0000
0012
0000
0000
0000
0000
0000
0000
0000
0000
0000
0000
0000
0003
0000
0000
0000
,  // measure 42
1200
0000
0000
0000
0000
0000
0301
0000
0000
0100
0010
0100
2000
0000
0000
0100
0000
0000
0001
0000
0000
3010
0000
0000
,  // measure 43
1000
0000
0000
0000
0000
0000
0000
0000
0000
0000
0000
0000
0000
0000
0000
0000
0000
0000
0000
0000
0000
0000
0000
0000
0100
0000
0000
0000
0000
0000
0000
0000
0000
0000
0000
0000
0000
0000
0000
0000
0000
0000
0000
0000
0000
0000
0000
0000
0001
0000
0000
0000
0000
0000
0000
0000
0000
0000
0000
0000
0000
0000
0000
0000
0000
0000
0000
0000
0000
0000
0000
0000
0100
0000
0000
0000
0000
0000
0000
0000
0010
0000
0000
0000
0000
0000
0000
0000
0001
0000
0000
0000
0000
0000
0000
0000
2000
0000
0000
0000
0000
0000
0000
0000
0000
0000
0000
0000
0000
0000
0000
0001
0000
0000
0000
0000
0000
0000
0000
0000
0000
0000
0000
0000
0000
0000
0000
0000
0000
0000
0000
0000
0000
0000
0000
0000
0000
0000
0000
0000
0000
0000
0000
0000
3040
0000
0000
0000
0000
0000
0000
0000
0000
0000
0000
0000
0000
0000
0000
0000
0000
0000
0000
0000
0000
0000
0000
0000
0034
0000
0000
0000
0000
0000
0000
0000
0000
0000
0000
0000
0003
0000
0000
0000
0000
0000
0000
0000
0000
0000
0000
0000
,  // measure 44
0210
0000
0000
0000
0000
0000
0000
0000
0000
0000
0000
0000
0000
0000
0000
0000
1300
0000
0000
0000
0000
0000
0000
0000
0100
0000
0000
0000
0000
0010
0000
0000
2000
0000
0000
0000
0000
0000
0000
0000
0001
0000
0000
0000
3000
0000
0000
0000
1000
0000
0000
0000
0000
0000
0000
0000
0100
0000
0000
0000
0000
0000
0000
0000
,  // measure 45
0010
0000
0000
0000
0000
0000
0000
0000
0001
0000
0000
0000
0000
0000
0000
0000
0001
0000
0000
0000
0000
0000
0000
0000
0010
0000
0000
0000
0000
0100
0000
0000
2000
0000
0000
0000
0000
0100
0000
0000
0000
0000
0000
0000
3000
0000
0000
0000
0102
0000
0000
0000
0000
0000
0000
0000
0000
0000
0000
0000
0003
0000
0000
0000
,  // measure 46
1200
0000
0000
0000
0000
0000
0000
0000
0000
0000
0000
0000
0301
0000
0000
0000
0000
0000
0100
0000
0010
0000
0001
0000
2000
0000
0000
0000
0000
0000
0100
0000
0000
3000
0000
0000
1000
0000
0000
0000
0000
0000
0001
0000
0000
0000
0000
0000
,  // measure 47
0100
0000
0000
0000
0000
0000
0000
0000
0000
0000
0000
0000
0000
0000
0000
0000
0000
0000
0000
0000
0000
0000
0000
0000
0010
0000
0000
0000
0000
0000
0000
0000
0000
0000
0000
0000
0000
0000
0000
0000
0000
0000
0000
0000
0000
0000
0000
0000
0001
0000
0000
0000
0000
0000
0000
0000
0000
0000
0000
0000
0000
0000
0000
0000
0000
0000
0000
0000
0000
0000
0000
0000
0010
0000
0000
0000
0000
0000
0000
0000
0100
0000
0000
0000
0000
0000
0000
0000
0001
0000
0000
0000
0000
0000
0000
0000
1000
0000
0000
0000
0000
0000
0000
0000
0000
0000
0000
0000
0000
0000
0000
0001
0000
0000
0000
0000
0000
0000
0000
0000
0010
0000
0000
0000
0000
0000
0000
0000
0000
0000
0000
0000
0000
0000
0000
0000
0000
0000
0000
0000
0000
0000
0000
0000
0200
0000
0000
0000
0000
0000
0000
0000
0000
0000
0000
0000
0000
0000
0000
0000
0000
0000
0000
0000
0000
0000
0000
0000
0010
0000
0000
0000
0000
0000
0000
0000
0000
0000
0000
0000
0300
0000
0000
0000
0000
0000
0000
0000
0000
0000
0000
0000
,  // measure 48
1100
0000
0000
0000
0000
0000
0000
0000
1000
0000
0000
0000
0000
0001
0000
0000
0010
0000
0000
0000
0000
0000
0000
0000
0001
0000
0000
0000
0000
1000
0000
0000
0010
0000
0000
0000
0000
0000
0000
0000
0100
0000
0000
0000
0000
1000
0000
0000
0100
0000
0000
0000
0000
0000
0000
0000
0001
0000
0000
0000
0000
0000
0000
0000
,  // measure 49
1000
0000
0000
0000
0000
0000
0000
0000
0100
0000
0000
0000
0000
0000
0000
0000
1000
0000
0000
0000
0000
0000
0000
0000
0100
0000
0000
0000
0000
0010
0000
0000
0000
0000
0000
0000
0000
0010
0000
0000
0100
0000
0000
0000
0000
0001
0000
0000
0100
0000
0000
0000
0000
0000
0000
0000
1000
0000
0000
0000
0000
0000
0000
0000
,  // measure 50
0010
0000
0000
0000
0000
0000
0000
0000
0000
0000
0000
0000
0000
0000
0000
0000
0000
0000
0000
0000
0000
0000
0000
0000
0100
0000
0000
0000
0000
0000
0000
0000
0000
0000
0000
0000
0000
0000
0000
0001
0000
0000
0000
0000
0000
0000
0000
0000
1000
0000
0000
0000
0000
0000
0000
0000
0000
0000
0000
0000
0000
0000
0000
0000
0000
0000
0000
0000
0000
0000
0000
0000
0001
0000
0000
0000
0000
0000
0000
0000
1000
0000
0000
0000
0000
0000
0000
0000
0001
0000
0000
0000
0000
0000
0000
0000
0100
0000
0000
0000
0000
0000
0000
0000
0000
0000
0000
0000
0000
0000
0000
0000
0000
0000
0000
0000
0000
0000
0000
0000
0010
0000
0000
0000
0000
0000
0000
0000
0000
0000
0000
0000
0000
0000
0000
0001
0000
0000
0000
0000
0000
0000
0000
0000
0010
0000
0000
0000
0000
0000
0000
0000
0000
0000
0000
0000
0000
0000
0000
0000
0000
0000
0000
0000
0000
0000
0000
0000
1000
0000
0000
0000
0000
0000
0000
0000
0000
0000
0000
0000
0000
0000
0000
0000
0000
0000
0000
0000
0000
0000
0000
0000
,  // measure 51
0001
0000
0000
0000
0000
0000
0000
0000
0000
0000
0000
0000
0000
0000
0000
0000
0000
0000
0000
0000
0000
0000
0000
0000
0010
0000
0000
0000
0000
0000
0000
0000
0000
0000
0000
0000
0000
0000
0000
0000
0000
0000
0000
0000
0000
0000
0000
0000
1000
0000
0000
0000
0000
0000
0000
0000
0000
0000
0000
0000
0000
0000
0000
0000
0000
0000
0000
0000
0000
0000
0000
0000
0010
0000
0000
0000
0000
0000
0000
0000
0100
0000
0000
0000
0000
0000
0000
0000
1000
0000
0000
0000
0000
0000
0000
0000
0001
0000
0000
0000
0000
0000
0000
0000
0000
0000
0000
0000
0000
0000
0000
0100
0000
0000
0000
0000
0000
0000
0000
0000
0010
0000
0000
0000
0000
0000
0000
0000
0000
0000
0000
0000
0000
0000
0000
0001
0000
0000
0000
0000
0000
0000
0000
0000
0010
0000
0000
0000
0000
0000
0000
0000
0000
0000
0000
0000
0000
0000
0000
0000
0000
0000
0000
0000
0000
0000
0000
0000
1000
0000
0000
0000
0000
0000
0000
0000
0000
0000
0000
0000
0000
0000
0000
0000
0000
0000
0000
0000
0000
0000
0000
0000
,  // measure 52
0001
0000
0000
0000
0000
0000
0000
0000
0010
0000
0000
0000
0000
0100
0000
0000
1000
0000
0000
0000
0000
0000
0000
0000
0001
0000
0000
0000
0000
1000
0000
0000
0100
0000
0000
0000
0000
0000
0000
0000
0010
0000
0000
0000
0000
1000
0000
0000
0010
0000
0000
0000
0000
0000
0000
0000
0001
0000
0000
0000
0000
0000
0000
0000
,  // measure 53
0100
0000
0000
0000
0000
0000
0000
0000
0010
0000
0000
0000
0000
1000
0000
0000
0001
0000
0000
0000
0000
0000
0000
0000
1000
0000
0000
0000
0000
0100
0000
0000
0000
0000
0000
0000
0000
0100
0000
0000
0010
0000
0000
0000
0000
1000
0000
0000
0010
0000
0000
0000
0000
0000
0000
0000
0001
0000
0000
0000
0100
0000
0000
0000
,  // measure 54
0010
0000
0000
0000
0000
0000
0000
0000
0100
0000
0000
0000
0000
0000
0000
0000
0010
0000
0000
0000
0000
0000
0000
0000
1000
0000
0000
0000
0100
0000
0000
0000
0010
0000
0000
0000
0000
0000
0000
0000
0100
0000
0000
0000
0000
0001
0000
0000
0100
0000
0000
0000
0000
0000
0000
0000
1000
0000
0000
0000
0010
0000
0000
0000
,  // measure 55
0100
0000
0000
0000
0000
0000
0000
0000
0001
0000
0000
0000
0000
0000
0000
0000
0100
0000
0000
0000
0000
0000
0000
0000
0001
0000
0000
0000
0000
0010
0000
0000
0000
0000
0000
0000
0000
0010
0000
0000
0001
0000
0000
0000
0000
0000
0000
0000
0100
0000
0000
0000
0000
0000
0000
0000
0001
0000
0000
0000
0000
0000
0000
0000
,  // measure 56
0020
0000
0000
0000
,  // measure 57
0000
0000
0000
0000
,  // measure 58
0000
0000
0000
0000
,  // measure 59
0000
0000
0000
0000
,  // measure 60
0130
0000
0000
0000
0000
0000
1000
0000
0000
0001
0100
0010
1000
0000
0000
0000
0000
0000
0000
0000
0000
0001
0000
0000
,  // measure 61
0010
0000
0000
0001
0010
0000
0001
0000
1000
0000
0000
0000
0000
0000
0000
0000
,  // measure 62
0010
0000
0000
0000
0000
0000
0100
0000
0000
0001
1000
0100
0010
0000
0000
0000
0000
0000
0000
0000
0000
0001
0000
0000
,  // measure 63
1000
0000
0000
0000
0000
0000
0000
0000
0000
0010
0000
0000
0001
0000
0000
0000
0000
0000
0010
0000
0100
0000
0010
0000
2000
0000
0000
0000
0000
0000
0000
0000
0000
0000
0000
0000
0000
0000
0000
0000
0000
0000
0000
0000
0000
0000
0000
0000
,  // measure 64
3000
0000
0000
0000
0000
0000
0000
0000
0000
0000
0000
0000
0000
0000
0000
0000
0000
0000
0000
0000
0000
0000
0000
0000
0000
0000
0000
0000
0000
0000
0001
0000
0000
0000
0000
0000
0000
0000
0000
0000
0000
0000
0000
0000
0000
0000
0000
0000
0000
0000
0000
0000
0000
0000
0000
0000
0000
0000
0000
0000
0000
0000
0000
0000
0000
0000
0000
0000
0000
0000
0000
0000
0000
0000
0000
0000
0000
0000
0010
0000
0000
0000
0000
0000
0000
0000
0000
0000
0000
0000
0000
0000
0000
0000
0000
0000
0000
0000
0000
0000
0000
0000
0000
0000
0000
0000
0000
0000
0000
0000
0000
0000
0000
0000
0000
0000
0000
0000
0000
0000
0000
0000
0000
0000
0000
0000
0000
0000
0100
0000
0000
0000
0000
0000
0000
0000
0000
0000
0000
0000
0000
0000
0000
0000
0000
0000
0000
0000
0000
0000
0000
0000
0000
0000
0000
0000
0000
0000
0000
1000
0000
0000
0000
0000
0000
0000
0000
0000
0000
0000
0000
0000
0000
0000
0000
0000
0000
0000
0000
0000
0000
0010
0000
0000
0000
0000
0000
0000
0000
0000
0000
0000
,  // measure 65
0000
0000
0000
0000
0000
0000
0000
0000
0000
0000
0100
0000
0000
0000
0000
0000
0000
0000
0000
0000
0000
0000
0000
0000
0000
0000
0000
0000
0000
0000
0000
0000
0001
0000
0000
0000
0000
0000
0000
0000
0000
0000
0000
0000
0000
0000
0000
0000
0000
0000
0000
0000
0000
0000
0000
0000
0000
0000
0000
0000
0000
0000
0000
0000
0000
0000
0010
0000
0000
0000
0000
0000
0000
0000
0000
0000
0000
0000
0000
0000
0000
0000
0000
0000
0000
0000
0000
0000
0000
0000
0000
0000
0000
0000
0000
0000
0000
0100
0000
0000
0000
0000
0000
0000
0000
0000
0000
0000
0000
0000
0000
0000
0000
0000
0000
0000
0000
0000
0000
0000
0000
0000
0000
0000
0000
0000
0000
0000
0000
1000
0000
0000
0000
0000
0000
0000
0000
0000
0000
0000
0000
0000
0000
0000
0000
0001
0000
0000
0000
0000
0000
0000
0000
0000
0000
0000
0000
0000
0000
0000
0000
0000
0000
2000
0000
0000
0000
0000
0000
0000
0000
0000
0000
0000
0000
0000
0000
0000
0000
0000
0000
0000
0000
0000
0000
0000
0000
0000
0000
0000
0000
0000
,  // measure 66
0000
3000
0000
0000
;

//---------------dance-single - Feraligatr----------------
#NOTES:
     dance-single:
     Feraligatr SH:
     Hard:
     9:
     0.484994,0.691691,0.092437,0.596639,0.281513,404.000000,393.000000,11.000000,71.000000,4.000000,0.000000,0.484994,0.691691,0.092437,0.596639,0.281513,404.000000,393.000000,11.000000,71.000000,4.000000,0.000000:
// measure 0
0000
0000
0000
0000
,  // measure 1
0000
0000
0000
0000
,  // measure 2
0000
0000
0000
0000
,  // measure 3
0000
0000
0000
0000
,  // measure 4
1000
0000
0010
0100
0001
1000
0100
0010
,  // measure 5
0001
1000
0001
1000
0010
0100
0001
1000
,  // measure 6
0100
0000
0010
0100
1000
0001
0100
0010
,  // measure 7
2000
0000
0000
0000
0000
0000
0000
0000
0000
0000
0000
0000
0000
0000
0000
0000
0000
0000
0000
0000
0000
0000
0000
0000
0000
0000
0000
0000
0000
0001
0000
0000
0000
0000
0000
0000
0000
0001
0000
0000
0000
0000
0000
0000
0000
0000
0000
0000
0000
0000
0000
0000
0000
0000
0000
0000
0000
0000
0000
0000
0000
0000
0000
0000
,  // measure 8
3020
0000
0000
0000
0230
0000
0301
1000
0200
0000
0000
0000
0000
0000
0320
0000
,  // measure 9
0032
0000
0000
1003
0002
0000
2003
0000
3200
0000
0000
0000
0000
0000
0000
0000
,  // measure 10
0320
0000
0000
0000
0032
0000
1003
0001
0200
0000
0000
0000
0000
0000
0320
0000
,  // measure 11
2030
0000
0000
3001
0020
0000
0130
1000
0002
0000
0000
0000
0000
0000
0000
0000
,  // measure 12
0203
0000
0300
0020
,  // measure 13
2030
0000
0000
0000
0000
0000
0000
0000
3002
0000
0000
0000
0000
0000
0013
0100
,  // measure 14
2000
0000
3000
0000
,  // measure 15
0000
0000
0000
0000
,  // measure 16
0012
0000
0000
0000
1003
0000
0001
0100
0020
0000
1000
0000
1030
0000
0001
0000
,  // measure 17
0010
0000
0000
0001
0010
0000
0001
0000
1000
0000
0010
0000
0100
0001
0100
0001
,  // measure 18
0020
0000
0000
0000
0130
0000
1000
0001
0200
0000
0010
0000
0310
0000
1000
0000
,  // measure 19
0100
0000
0000
1000
0010
0000
0100
0001
1000
0100
0010
0000
0100
1000
0100
1000
,  // measure 20
0020
0000
0000
0000
0130
0000
0001
1000
0200
0000
1000
0000
1300
0000
0001
0000
,  // measure 21
0100
0000
0000
0001
0100
0000
0001
0000
1000
0000
0100
0000
0010
0001
0010
0001
,  // measure 22
0200
0000
0000
0000
0310
0000
1000
0001
0020
0000
0100
0000
0130
0000
1000
0000
,  // measure 23
0010
0000
0000
1000
0100
0000
0010
0001
2000
0000
0100
0000
3001
0100
0001
0100
,  // measure 24
0010
0000
0000
0000
1000
0000
0001
0010
0100
0000
1000
0000
0001
0000
0100
0000
,  // measure 25
0010
0000
1000
0001
0100
0000
0001
0000
1000
0000
0100
0000
0010
0000
0000
0000
,  // measure 26
0011
0000
0000
0000
0010
0000
0100
1000
0001
0000
0100
0000
0010
0000
1000
0000
,  // measure 27
0100
0000
0001
0000
1000
0000
0010
0100
1000
0000
0001
0000
0100
0000
0000
0000
,  // measure 28
0010
0010
1000
1000
0001
0001
0010
0010
,  // measure 29
0100
0100
1000
1000
0001
0001
0100
0100
,  // measure 30
0010
1000
0010
1000
0001
0010
0001
0010
0100
1000
0100
1000
0001
0100
0001
0100
,  // measure 31
0010
0010
0010
MMMM
,  // measure 32
1002
0000
0013
0100
2000
0000
0001
3010
,  // measure 33
0100
0000
0001
0000
0100
0000
0001
0000
2000
0000
0000
0000
3002
0000
0000
0003
,  // measure 34
0021
0000
0000
0000
0130
0000
1000
0001
0200
0000
0000
0000
0010
0000
0301
0000
,  // measure 35
1000
0000
0100
0000
0001
0000
0100
0010
0002
0000
0000
0000
0203
0000
0000
0300
,  // measure 36
0120
0000
0000
0000
1030
0000
0100
0000
0020
0000
0000
0030
0010
0000
0001
0000
,  // measure 37
1000
0000
0010
0000
0010
0000
0100
0000
0002
0000
0000
0003
2000
0000
0000
3000
,  // measure 38
1200
0000
0000
0000
0310
0000
0001
0000
2000
0000
0000
3000
1000
0000
0001
0000
,  // measure 39
0100
0000
0000
0001
0010
0000
0100
1000
0001
0000
0100
0000
0010
0000
1000
0000
,  // measure 40
1200
0000
0301
0100
2000
0000
0001
3100
,  // measure 41
1000
0000
0010
0000
1000
0000
0010
0000
0200
0000
0000
0000
0302
0000
0000
0003
,  // measure 42
0021
0000
0000
0000
1030
0000
0010
0100
2000
0000
0000
0000
0001
0000
3100
0000
,  // measure 43
1000
0000
0010
0000
0001
0000
0010
0100
0002
0000
0000
0000
0043
0000
0000
0030
,  // measure 44
0210
0000
0000
0000
1300
0000
0001
0000
0200
0000
0000
0300
0100
0000
0010
0000
,  // measure 45
1000
0000
0001
0000
0001
0000
0010
0000
0200
0000
0000
0300
2000
0000
0000
3000
,  // measure 46
1002
0000
0000
0000
0103
0000
0010
1000
0002
0000
0000
0003
0001
0000
1000
0000
,  // measure 47
0100
0000
0010
0000
0001
0000
1000
0001
0200
0000
0000
0000
0320
0000
0000
0030
,  // measure 48
1010
1000
0001
0010
0002
1000
0100
1003
,  // measure 49
0010
0100
0010
0100
0002
1000
0100
1000
,  // measure 50
0013
0001
0100
0010
2000
0001
0100
3001
,  // measure 51
1000
0100
0010
0100
2000
0100
0001
0010
,  // measure 52
3002
0100
1000
0010
0100
1000
0203
0010
,  // measure 53
0302
0000
0100
0000
1000
0000
0010
0000
2003
0000
0100
0000
0001
0000
3100
0010
,  // measure 54
0002
0000
0010
0000
1000
0000
0103
0010
2000
0000
0010
0000
0001
0000
3100
0010
,  // measure 55
0001
1000
0010
1000
0001
1000
0100
1000
,  // measure 56
0020
0000
0000
0000
,  // measure 57
0000
0000
0000
0000
,  // measure 58
0000
0000
0000
0000
,  // measure 59
0000
0000
0000
0000
,  // measure 60
1030
0000
0000
0000
0001
0000
0010
0100
1000
0000
0000
0000
0000
0000
0001
0000
,  // measure 61
0100
0000
0000
0001
0100
0000
0001
0000
1000
0000
0000
0000
0000
0000
0000
0000
,  // measure 62
0100
0000
0000
0000
0010
0000
0001
1000
0010
0000
0000
0000
0000
0000
0100
0000
,  // measure 63
0001
0000
0000
1000
0010
0000
1000
0100
0020
0000
0000
0000
0000
0000
0000
0000
,  // measure 64
0030
0000
0000
0000
0000
0000
0000
0000
0000
0000
0000
0000
0000
0000
0000
0000
0000
0000
0000
0000
0000
0000
0000
0000
0000
0000
0000
0000
0000
0000
000F
0000
0000
0000
0000
0000
0000
0000
0000
0000
0000
0000
0000
0000
0000
0000
0000
0000
0000
0000
0000
0000
0000
0000
0000
0000
0000
0000
0000
0000
0000
0000
0000
0000
0000
0000
0000
0000
0000
0000
0000
0000
0000
0000
0000
0000
0000
0000
00F0
0000
0000
0000
0000
0000
0000
0000
0000
0000
0000
0000
0000
0000
0000
0000
0000
0000
0000
0000
0000
0000
0000
0000
0000
0000
0000
0000
0000
0000
0000
0000
0000
0000
0000
0000
0000
0000
0000
0000
0000
0000
0000
0000
0000
0000
0000
0000
0000
0000
0F00
0000
0000
0000
0000
0000
0000
0000
0000
0000
0000
0000
0000
0000
0000
0000
0000
0000
0000
0000
0000
0000
0000
0000
0000
0000
0000
0000
0000
0000
0000
F000
0000
0000
0000
0000
0000
0000
0000
0000
0000
0000
0000
0000
0000
0000
0000
0000
0000
0000
0000
0000
0000
00F0
0000
0000
0000
0000
0000
0000
0000
0000
0000
0000
,  // measure 65
0000
0000
0000
0000
0000
0000
0000
0000
0000
0000
0F00
0000
0000
0000
0000
0000
0000
0000
0000
0000
0000
0000
0000
0000
0000
0000
0000
0000
0000
0000
0000
0000
000F
0000
0000
0000
0000
0000
0000
0000
0000
0000
0000
0000
0000
0000
0000
0000
0000
0000
0000
0000
0000
0000
0000
0000
0000
0000
0000
0000
0000
0000
0000
0000
0000
0000
00F0
0000
0000
0000
0000
0000
0000
0000
0000
0000
0000
0000
0000
0000
0000
0000
0000
0000
0000
0000
0000
0000
0000
0000
0000
0000
0000
0000
0000
0000
0000
0F00
0000
0000
0000
0000
0000
0000
0000
0000
0000
0000
0000
0000
0000
0000
0000
0000
0000
0000
0000
0000
0000
0000
0000
0000
0000
0000
0000
0000
0000
0000
0000
F000
0000
0000
0000
0000
0000
0000
0000
0000
0000
0000
0000
0000
0000
0000
0000
000F
0000
0000
0000
0000
0000
0000
0000
0000
0000
0000
0000
0000
0000
0000
0000
0000
0000
F000
0000
0000
0000
0000
0000
0000
0000
0000
0000
0000
0000
0000
0000
0000
0000
0000
0000
0000
0000
0000
0000
0000
0000
0000
0000
0000
0000
0000
;

//---------------dance-single - Feraligatr----------------
#NOTES:
     dance-single:
     Feraligatr SM:
     Medium:
     6:
     0.346939,0.453571,0.033613,0.394958,0.033613,289.000000,285.000000,4.000000,47.000000,4.000000,0.000000,0.346939,0.453571,0.033613,0.394958,0.033613,289.000000,285.000000,4.000000,47.000000,4.000000,0.000000:
0000
0000
0000
0000
,
0000
0000
0000
0000
,
0000
0000
0000
0000
,
0000
0000
0000
0000
,
1000
0000
0010
0100
0002
0000
0000
1003
,
0100
0010
0100
0010
0002
0000
0000
0000
,
1003
0000
0010
0100
0002
0000
0000
1003
,
0001
0000
0000
0000
,
0020
0000
0230
0000
2300
0000
0000
3002
,
0203
0000
0000
0310
0200
0000
0320
0000
2030
0000
0000
0000
0000
0000
0000
0000
,
3002
0000
0023
0000
0230
0000
0000
2300
,
3002
0000
0000
0103
0020
0000
0230
0000
0302
0000
0000
0000
0000
0000
0000
0000
,
2003
0000
3000
0200
,
0320
0000
0000
0000
0032
0000
0000
2003
,
3020
0000
0030
0000
,
0000
0000
0000
0000
,
0110
0000
0001
1000
0100
0000
0000
0010
,
0001
0000
0000
0010
0001
0000
0010
0000
0100
0000
0000
0000
0000
0000
0000
0000
,
1000
0000
0001
0100
0010
0000
0000
1000
,
0001
0000
0000
0010
0001
0000
1000
0000
0001
0000
0000
0000
0000
0000
0000
0000
,
0100
0000
0010
1000
0001
0000
0000
0010
,
0100
0000
0000
0010
0100
0000
0010
0000
0001
0000
0000
0000
0000
0000
0000
0000
,
1000
0000
0010
0100
0001
0000
0000
1000
,
0100
0000
0000
0010
0100
0000
1000
0000
0100
0000
0000
0000
0000
0000
0000
0000
,
0010
0000
0001
0000
1000
0000
0001
0100
,
0010
1000
0010
1000
0001
0000
0010
0000
,
0100
0000
1000
0000
0001
0000
1000
0010
,
0100
0001
0010
0100
1000
0000
0001
0000
,
1000
0010
1000
0010
0100
0001
0100
0001
,
1000
0100
1000
0100
0010
0001
0010
0001
,
1000
1000
0010
0010
0100
0100
0001
0001
,
1000
1000
1000
MMMM
,
1001
0000
1000
0010
0200
0000
0000
0301
,
1000
0100
1000
0100
0020
0000
0031
0000
,
1000
0000
0010
0100
0002
0000
0000
1003
,
0001
0010
1000
0010
0002
0000
0103
0000
,
0010
0000
1000
0001
0020
0000
0130
1000
,
0001
0100
0001
0100
0020
0000
1030
0000
,
0001
0000
0010
0100
2000
0000
3001
1000
,
0010
0000
0100
0001
0000
0001
1000
0100
,
0110
0000
0010
0001
0200
0000
0000
0310
,
1000
0100
1000
0100
0020
0000
0031
0000
,
1000
0000
0010
1000
0200
0000
0000
0310
,
0001
0100
1000
0100
0002
0000
1003
0000
,
0100
0000
0010
0100
2000
0000
3001
1000
,
0010
0100
0010
0100
0002
0000
1003
0000
,
0100
0000
0010
0100
2000
0000
3001
0100
,
0010
1000
0100
0010
0002
0000
1003
0000
,
1001
0000
0001
0100
0010
1000
0100
0000
,
0010
0001
0010
0001
1000
0010
0100
0000
,
0001
0000
1000
0100
0010
0001
0100
0000
,
0010
1000
0100
0010
0001
0100
0010
0000
,
2000
0100
0001
3020
,
0230
0000
0001
0000
0320
0000
0000
1030
,
0002
0000
0000
1003
0002
0000
0000
1003
,
0001
0100
0000
0100
0000
0100
0000
0100
,
0020
0000
0000
0000
,
0000
0000
0000
0000
,
0000
0000
0000
0000
,
0000
0000
0000
0000
,
1030
0000
0001
0010
0100
0000
0000
1000
,
0001
0000
0000
1000
0001
0000
1000
0000
0010
0000
0000
0000
0000
0000
0000
0000
,
0100
0000
0001
1000
0100
0000
0000
0010
,
0001
0000
0000
1000
0001
0000
0100
0000
0001
0000
0000
0000
0000
0000
0000
0000
;

//---------------dance-single - Feraligatr----------------
#NOTES:
     dance-single:
     Feraligatr SE:
     Easy:
     4:
     0.210084,0.240126,0.016807,0.168067,0.000000,175.000000,173.000000,2.000000,20.000000,4.000000,0.000000,0.210084,0.240126,0.016807,0.168067,0.000000,175.000000,173.000000,2.000000,20.000000,4.000000,0.000000:
0000
0000
0000
0000
,
0000
0000
0000
0000
,
0000
0000
0000
0000
,
0000
0000
0000
0000
,
1000
0001
0100
0000
,
0010
1000
0010
0100
,
0001
0010
0100
0000
,
1000
0000
0000
0000
,
0001
0100
0020
0000
,
1030
1000
0200
0000
,
0310
0001
2000
0000
,
3010
0100
0002
0000
,
2003
0000
3000
0100
,
0020
0000
0032
0000
,
2003
0000
3000
0000
,
0000
0000
0000
0000
,
1001
0001
0100
0000
,
0010
0010
1000
0100
,
0010
0001
1000
0000
,
0010
0100
0001
1000
,
0100
0010
0001
0000
,
1000
0010
0100
0001
,
1000
0100
0010
0000
,
0100
1000
0001
0100
,
0010
1000
0001
0000
,
0010
0010
0010
0000
,
0100
1000
0001
0000
,
0100
0100
0100
0000
,
0010
0010
1000
1000
,
0001
0001
0010
0010
,
0200
0000
0000
0000
,
1300
1000
1000
MMMM
,
1001
0001
0200
0000
,
0310
1000
0010
0100
,
0001
1000
0200
0000
,
0310
0001
0010
0100
,
1000
0001
0100
0000
,
0001
0010
0100
0010
,
0001
1000
0010
0000
,
1000
0100
0010
0100
,
1000
0001
0200
0000
,
0301
0010
1000
0010
,
0001
1000
0020
0000
,
1030
0100
0001
0100
,
1000
0001
0100
0000
,
0001
0010
0001
0100
,
0001
1000
0100
0000
,
1000
0010
1000
0001
,
1000
0100
1000
0000
,
0001
0100
0001
0010
,
0100
1000
0100
0000
,
0010
0001
1000
0010
,
0200
0000
0000
0302
,
2003
0000
3200
0000
,
0320
0000
0000
0030
0020
0000
0000
0030
,
0001
1000
0001
1000
,
0020
0000
0000
0000
,
0000
0000
0000
0000
,
0000
0000
0000
0000
,
0000
0000
0000
0000
,
0130
0001
1000
0000
,
0100
0100
0010
0000
,
0001
1000
0010
0000
,
0100
0100
0001
0000
;

//---------------dance-single - Feraligatr----------------
#NOTES:
     dance-single:
     Feraligatr SN:
     Beginner:
     1:
     0.102041,0.185294,0.084034,0.008403,0.000000,85.000000,75.000000,10.000000,1.000000,4.000000,0.000000,0.102041,0.185294,0.084034,0.008403,0.000000,85.000000,75.000000,10.000000,1.000000,4.000000,0.000000:
0000
0000
0000
0000
,
0000
0000
0000
0000
,
0000
0000
0000
0000
,
0000
0000
0000
0000
,
1000
0000
0000
0000
,
0001
0000
0000
0000
,
0100
0000
0000
0000
,
0010
0000
0000
0000
,
1000
0000
0000
0000
,
1000
0000
0000
0000
,
0001
0000
0000
0000
,
0001
0000
0000
0000
,
0010
0000
0000
0000
,
0100
0000
0000
0000
,
1000
0000
0000
0000
,
0000
0000
0000
0000
,
1001
0000
0000
0000
,
1000
1000
1000
0000
,
0010
0000
0000
0000
,
0100
0100
0100
0000
,
0001
0000
0000
0000
,
1000
1000
1000
0000
,
0100
0000
0000
0000
,
0010
0010
0010
0000
,
0001
0000
0000
0000
,
1000
0000
0000
0000
,
0010
0000
0000
0000
,
0100
0000
0000
0000
,
0001
0000
0000
0000
,
1000
0000
0000
0000
,
0100
0000
0000
0000
,
1000
1000
1000
MMMM
,
1001
0000
0000
0000
,
1000
0000
0000
0000
,
0110
0000
0000
0000
,
0100
0000
0000
0000
,
1001
0000
0000
0000
,
1000
0000
0000
0000
,
0110
0000
0000
0000
,
0001
0000
0000
0000
,
0110
0000
0000
0000
,
1000
1000
1000
0000
,
1001
0000
0000
0000
,
0001
0001
0001
0000
,
0110
0000
0000
0000
,
0100
0100
0100
0000
,
1001
0000
0000
0000
,
0010
0000
0000
0000
,
1001
0000
0000
0000
,
0001
0000
0000
0000
,
0100
0000
0000
0000
,
0010
0000
0000
0000
,
1000
0000
0000
0000
,
0100
0000
0000
0000
,
0010
0000
0000
0000
,
0001
0001
0001
0001
,
0020
0000
0000
0000
,
0000
0000
0000
0000
,
0000
0000
0000
0000
,
0000
0000
0000
0000
,
0130
0000
0000
0000
,
1000
0000
0000
0000
,
0001
0000
0000
0000
,
0100
0000
0000
0000
;
