#VERSION:0.83;
#TITLE:MUTEKI;
#SUBTITLE:;
#ARTIST:PSYQUI;
#TITLETRANSLIT:;
#SUBTITLETRANSLIT:;
#ARTISTTRANSLIT:;
#GENRE:;
#ORIGIN:;
#CREDIT:;
#BANNER:MUTEKI-bn.png;
#BACKGROUND:MUTEKI-bg.png;
#PREVIEWVID:;
#JACKET:MUTEKI-jacket.png;
#CDIMAGE:;
#DISCIMAGE:;
#LYRICSPATH:;
#CDTITLE:;
#MUSIC:MUTEKI.ogg;
#OFFSET:0.015000;
#SAMPLESTART:97.248001;
#SAMPLELENGTH:13.710000;
#SELECTABLE:YES;
#DISPLAYBPM:70.000000:140.000000;
#BPMS:0.000=140.000,
68.000=210.000,
69.000=140.000,
79.000=175.000,
79.750=87.500,
80.000=140.000,
95.000=175.000,
95.750=87.500,
96.000=140.000,
100.000=210.000,
101.000=140.000,
111.000=175.000,
111.750=87.500,
112.000=140.000,
292.000=70.000,
296.000=140.000;
#STOPS:68.000=0.072,
68.500=0.072,
100.000=0.072,
100.500=0.072;
#DELAYS:;
#WARPS:;
#TIMESIGNATURES:0.000=4=4;
#TICKCOUNTS:0.000=4;
#COMBOS:0.000=1;
#SPEEDS:0.000=1.000=0.000=0;
#SCROLLS:0.000=1.000;
#FAKES:;
#LABELS:0.000=Song Start;
#BGCHANGES:;
#KEYSOUNDS:;
#ATTACKS:
;

//---------------dance-single - Maxx----------------
#NOTEDATA:;
#CHARTNAME:Maxx;
#STEPSTYPE:dance-single;
#DESCRIPTION:Maxx;
#CHARTSTYLE:;
#DIFFICULTY:Challenge;
#METER:12;
#RADARVALUES:0.954786,1.033543,0.258478,0.236323,1.687493,905.000000,870.000000,35.000000,32.000000,2.000000,1.000000,3.000000,0.000000,0.000000,0.954786,1.033543,0.258478,0.236323,1.687493,905.000000,870.000000,35.000000,32.000000,2.000000,1.000000,3.000000,0.000000,0.000000;
#CREDIT:Maxx;
#DISPLAYBPM:70.000000:140.000000;
#NOTES:
// measure 0
0000
0000
0000
0000
,  // measure 1
0000
0000
0000
0000
,  // measure 2
0000
0000
0000
0000
,  // measure 3
0000
0000
0000
0000
,  // measure 4
0000
0000
0000
0000
,  // measure 5
0000
0000
0000
0000
,  // measure 6
0000
0000
0000
0000
,  // measure 7
0000
0000
0000
0000
,  // measure 8
1001
0000
1000
0001
0010
0000
0001
0000
0100
0000
0010
0000
1000
0001
1000
0001
,  // measure 9
0100
0000
0010
1000
0001
0000
1000
0100
0010
0000
0001
0000
0100
0010
0100
0010
,  // measure 10
1000
0000
0001
1000
0100
0000
0010
0001
1000
0000
0010
0000
0100
0001
0100
0001
,  // measure 11
0010
0000
0100
0010
0001
0000
1000
0010
0100
0000
0001
0000
0010
0100
0010
0100
,  // measure 12
1000
0000
0001
0000
1000
0000
0001
0000
0100
0000
0010
0000
1000
0000
0001
0010
,  // measure 13
0100
1000
0100
1000
0001
0100
0010
1000
,  // measure 14
0001
0010
0100
1000
0001
0100
0010
1000
0100
0010
0001
1000
0010
0100
0001
1000
,  // measure 15
0001
0000
0000
0000
0000
0000
1000
0000
0001
0000
1000
0000
0001
0000
0000
0000
0100
0000
0000
0000
0010
0000
0000
0000
1000
0000
0000
0000
0001
0000
0000
0000
0010
0000
0000
0000
0200
0000
0000
0000
0000
0000
0000
0000
0000
0300
0000
0000
,  // measure 16
0220
0000
0000
0000
0000
0000
0000
0000
0000
0330
0000
0000
0010
0000
0000
0000
0001
0000
0000
0000
1000
0000
0000
0000
0010
0000
0000
0000
0100
0000
0000
0000
0010
0000
0000
0000
1000
0000
0000
0000
0001
0000
0000
0000
0010
0000
0000
0000
,  // measure 17
0400
0000
0000
0310
0001
1000
0010
0100
0010
1000
0100
0010
,  // measure 18
2000
0000
0000
3010
0001
1000
0010
0100
0010
1000
0001
0010
,  // measure 19
0100
0000
1000
0001
1000
0001
0100
0000
0010
0000
1000
0000
0001
0000
0010
0000
0100
0000
1100
0000
0000
0000
0000
0000
,  // measure 20
2002
0000
0000
0000
0000
0000
0000
0000
0000
3003
0000
0000
0001
0000
0000
0000
0100
0000
0000
0000
0010
0000
0000
0000
1000
0000
0000
0000
0001
0000
0000
0000
0010
0000
0000
0000
0200
0000
0000
0000
0000
0000
1300
0000
0000
0000
0000
0000
,  // measure 21
0002
0000
0000
0103
0000
0000
0010
0000
1000
0000
0001
0000
0010
0000
0100
0000
0010
0000
0001
0000
1000
0000
0010
0000
,  // measure 22
0200
0000
0000
0301
1000
0001
0100
0010
1000
0001
0010
0100
,  // measure 23
1000
0001
1000
0010
0100
0010
1000
0001
0010
0011
0000
0000
,  // measure 24
2002
0000
0000
0000
0000
0000
0000
0000
0000
3003
0000
0000
1010
0000
0000
0000
1000
0000
0000
0000
0001
0000
0000
0000
0010
0000
0000
0000
0001
0000
0000
0000
1000
0000
0000
0000
0101
0000
0000
0000
1000
0000
0000
0000
0001
0000
0000
0000
,  // measure 25
0400
0000
0000
0311
1000
0001
0010
0100
0010
0101
1000
0001
,  // measure 26
0200
0000
0310
1100
0001
1000
0100
0010
0100
1010
0001
1000
,  // measure 27
0010
0000
1000
0001
1000
0001
0100
0000
0010
0000
1000
0000
0001
0000
0010
0000
0100
0000
1100
0000
0000
0000
0000
0000
,  // measure 28
2002
0000
0000
0000
0000
0000
0000
0000
0000
3003
0000
0000
0101
0000
0000
0000
0001
0000
0000
0000
1000
0000
0000
0000
0100
0000
0000
0000
0010
0000
0000
0000
0000
0000
0000
0000
0011
0000
0000
0000
0000
0000
0001
0000
0000
0000
0000
0000
,  // measure 29
1000
0000
0000
0010
0000
0000
1010
0000
1000
0000
0001
0000
0010
0000
0001
0000
1000
0000
0011
0000
0100
0000
0010
0000
,  // measure 30
2000
0000
3001
1010
0001
1000
0100
0010
0001
1100
0010
1000
,  // measure 31
0001
0000
0000
0000
1000
0000
0001
0000
1000
0000
0000
0000
0011
0000
0000
0000
0100
0000
0000
0000
0001
0000
0000
0000
1000
0000
0000
0000
0100
0000
0000
0000
0010
0000
0000
0000
0101
0000
0000
1000
0000
0000
0001
0000
0000
1000
0000
0000
,  // measure 32
0010
0100
0010
1000
0101
0010
0001
1000
0000
0001
1000
0001
1010
0100
1000
0001
,  // measure 33
0100
0010
1000
0000
0011
1000
0001
1000
0000
0100
0010
0001
1100
0010
0100
0001
,  // measure 34
2000
0001
0000
3000
0101
0010
0001
1000
0000
0001
0010
0001
1100
0010
0100
0001
,  // measure 35
1000
0000
0000
0000
0001
0000
1000
0000
0001
0000
1000
0000
0101
0000
0000
0010
0000
0000
0100
0000
0000
1000
0000
0000
0010
0000
0000
0100
0000
0000
0001
0000
0000
1000
0000
0000
1100
0000
0000
0000
0000
0000
0000
0000
0000
1000
0000
0000
,  // measure 36
0001
1000
0001
0000
1010
0001
1000
0001
0100
0010
0100
0001
1000
0000
0100
0010
,  // measure 37
1000
0010
0100
1000
0001
0100
0010
0100
0001
1000
0100
0010
0001
1000
0010
0100
,  // measure 38
0001
0000
1000
0100
1000
0000
0000
0000
0001
0000
0100
0000
0000
0000
0010
1000
0010
0000
0000
0000
1000
0000
0001
0000
,  // measure 39
0000
0000
0010
0001
0010
0000
0000
0000
0100
1000
0100
0000
0000
0000
1000
0001
1000
0000
0101
0000
0000
0000
0000
0000
,  // measure 40
1000
0001
1000
0100
0010
0001
0010
0100
1000
0001
0100
0010
1000
0010
0100
0001
,  // measure 41
1000
0100
0010
0001
0000
0100
0010
1000
0000
0001
0000
0010
0000
0100
1000
0001
,  // measure 42
0000
0100
0000
0010
0000
1000
0000
0001
0000
0010
0100
0002
0000
2003
0000
3020
,  // measure 43
0000
0031
1000
0010
0000
0100
0001
1000
0000
0100
0010
0001
0000
1000
0000
0010
,  // measure 44
0000
0100
0001
1000
0000
0100
0010
0001
0000
1000
0010
0100
0010
0001
0000
1000
,  // measure 45
0000
0100
0010
1000
0000
0001
0010
0100
0000
1000
0001
0100
0000
0010
1000
0001
,  // measure 46
0000
1000
0100
0010
0000
0001
1000
0010
0000
0100
0010
0001
0000
1000
0100
0010
,  // measure 47
0000
1000
0001
0010
0000
0001
1000
0100
0000
0010
0001
1000
0000
0010
0100
0010
,  // measure 48
0000
1000
0001
0010
0000
0100
0010
0001
0000
1000
0010
0100
0001
0010
0100
1000
,  // measure 49
0000
0001
1000
0001
0000
1000
0010
0100
0000
0001
1000
0100
0000
0010
0001
0100
,  // measure 50
0000
0010
1000
0001
0000
1000
0100
0010
0000
0100
0010
2000
0000
3002
0000
0203
,  // measure 51
0000
1300
0001
0100
0000
0010
1000
0001
0000
0010
0100
0010
0000
0001
1000
0010
,  // measure 52
0000
0100
0000
0001
0000
1000
0100
0010
0000
0001
0100
0010
0100
1000
0000
0001
,  // measure 53
0000
0010
1000
0001
0000
1000
0100
0010
0000
0001
1000
0010
0000
0100
0001
0100
,  // measure 54
0000
0001
1000
0100
0000
0010
0001
1000
0000
0100
0010
1000
0000
0001
0100
0010
,  // measure 55
0000
0001
1000
0010
0000
1000
0001
0100
0000
0010
1000
0001
0000
0010
0100
0010
,  // measure 56
0001
1000
0001
0100
0000
0010
1000
0001
0000
1000
0001
0010
0100
0001
0100
1000
,  // measure 57
0001
0100
0010
1000
0001
0010
0100
1000
0010
0100
0010
1000
0100
0010
0001
1000
,  // measure 58
0100
0010
0100
1000
0001
0100
0010
1000
0001
0010
0100
1000
0010
0001
0010
0100
,  // measure 59
0001
1000
0100
1000
0001
0100
0010
1000
0001
0010
0100
0010
0001
1000
0010
0100
,  // measure 60
0001
0010
0001
1000
0010
0100
0010
1000
0001
0010
0100
1000
0001
0100
1000
0100
,  // measure 61
0010
1000
0001
1000
0100
0010
0100
1000
0001
0100
0010
1000
0001
0010
0001
1000
,  // measure 62
0010
0100
0010
1000
0100
0010
0001
1000
0010
0100
0001
1000
0100
0010
1000
0010
,  // measure 63
0001
1000
0010
0100
0010
1000
0001
1000
0100
0010
0100
1000
0001
0100
0010
1000
,  // measure 64
0001
1000
0100
1000
0001
0100
0010
1000
0001
0010
0001
1000
0100
0001
0100
0010
,  // measure 65
0001
0100
0010
1000
0001
0010
0100
1000
0010
0100
0010
1000
0100
0010
0001
1000
,  // measure 66
0100
0010
0100
1000
0001
0100
0010
1000
0001
0010
0100
1000
0010
0001
0010
0100
,  // measure 67
0001
1000
0100
1000
0001
0100
0010
1000
0001
0010
0100
0010
0001
1000
0010
0100
,  // measure 68
0001
0010
0001
1000
0001
0100
0010
1000
0001
0010
0100
1000
0001
0100
1000
0100
,  // measure 69
0010
1000
0001
1000
0100
0010
0100
1000
0001
0100
0010
1000
0001
1000
0100
0010
,  // measure 70
0001
0100
0010
1000
0100
0010
0001
1000
0010
0100
0001
1000
0100
0010
1000
0010
,  // measure 71
0001
1000
0010
0100
0010
1000
0001
1000
0100
0010
0100
1000
0001
0100
0010
1000
,  // measure 72
0100
0001
0100
0010
0000
0100
0010
0001
0000
1000
0001
0100
0010
0001
0010
1000
,  // measure 73
0M02
0000
0023
0000
0230
0000
1300
0001
0200
0000
0320
0000
4030
0000
0000
3000
,  // measure 74
2M02
0000
0000
3003
0001
0000
0100
0000
0001
0000
0100
0000
0010
0000
0000
1000
,  // measure 75
0001
0000
1000
0000
0001
0010
0100
0000
0002
0000
0103
1000
0011
0000
0100
0000
,  // measure 76
0000
0001
1000
0000
0100
0000
0010
0000
0100
0000
0010
0000
0001
1000
0010
0100
,  // measure 77
0001
1000
0100
0000
2000
0000
3001
0000
2000
0000
3001
0000
0110
0000
0000
0000
;

//---------------dance-single - ----------------
#NOTEDATA:;
#CHARTNAME:;
#STEPSTYPE:dance-single;
#DESCRIPTION:;
#CHARTSTYLE:;
#DIFFICULTY:Beginner;
#METER:1;
#RADARVALUES:0.094951,0.143548,0.007385,0.022155,0.000000,90.000000,89.000000,1.000000,3.000000,0.000000,0.000000,0.000000,0.000000,0.000000,0.094951,0.143548,0.007385,0.022155,0.000000,90.000000,89.000000,1.000000,3.000000,0.000000,0.000000,0.000000,0.000000,0.000000;
#CREDIT:Maxx;
#DISPLAYBPM:70.000000:140.000000;
#NOTES:
0000
0000
0000
0000
,
0000
0000
0000
0000
,
0000
0000
0000
0000
,
0000
0000
0000
0000
,
0000
0000
0000
0000
,
0000
0000
0000
0000
,
0000
0000
0000
0000
,
0000
0000
0000
0000
,
1000
0000
0000
0000
,
0001
0000
0000
0000
,
1000
0000
0000
0000
,
0010
0000
0000
0000
,
1000
0000
0000
0000
,
0001
0000
0000
0000
,
1000
0000
0000
0000
,
0100
0000
0000
0000
,
1000
0000
0000
0000
,
1000
0000
0000
0000
,
0001
0000
0000
0000
,
0001
0000
0000
0000
,
1000
0000
0000
0000
,
1000
0000
0000
0000
,
0001
0000
0000
0000
,
0001
0000
0000
0000
,
0010
0000
0000
0000
,
0010
0000
0000
0000
,
0100
0000
0000
0000
,
0100
0000
0000
0000
,
0010
0000
0000
0000
,
0010
0000
0000
0000
,
0100
0000
0000
0000
,
0100
0000
0000
0000
,
1000
0000
0001
0000
,
1000
0000
0000
0000
,
0001
0000
1000
0000
,
0001
0000
0000
0000
,
0010
0000
0100
0000
,
0010
0000
0000
0000
,
0002
0000
0000
0000
,
0000
0000
0003
1001
,
2000
0000
0000
0000
,
3100
0000
0010
0000
,
0001
0000
0000
0000
,
1000
0000
0010
0000
,
0100
0000
0000
0000
,
0001
0000
1000
0000
,
0100
0000
0000
0000
,
0010
0000
0001
0000
,
1000
0000
0000
0000
,
0001
0000
1000
0000
,
0001
0000
0000
0000
,
1000
0000
0001
0000
,
1000
0000
0000
0000
,
0010
0000
0100
0000
,
0010
0000
0000
0000
,
0100
0000
0010
0000
,
0100
0000
0000
0000
,
1000
0000
0000
0000
,
0001
0000
0000
0000
,
1000
0000
0000
0000
,
0100
0000
0000
0000
,
1000
0000
0000
0000
,
0001
0000
0000
0000
,
1000
0000
0000
0000
,
0010
0000
0000
0000
,
1000
0000
1000
0000
,
0001
0000
0001
0000
,
1000
0000
1000
0000
,
0001
0000
0001
0000
,
0010
0000
0010
0000
,
0100
0000
0100
0000
,
1000
0000
0001
0000
,
1000
0000
0000
0000
,
0002
0000
0000
0000
,
1003
0000
0000
0000
,
0001
0000
0000
0000
0000
0000
0000
0010
,
0000
0000
0000
0000
,
0100
0000
0000
1000
;

//---------------dance-single - ----------------
#NOTEDATA:;
#CHARTNAME:;
#STEPSTYPE:dance-single;
#DESCRIPTION:;
#CHARTSTYLE:;
#DIFFICULTY:Easy;
#METER:3;
#RADARVALUES:0.143482,0.258386,0.022155,0.066466,0.000000,136.000000,133.000000,3.000000,9.000000,0.000000,0.000000,0.000000,0.000000,0.000000,0.143482,0.258386,0.022155,0.066466,0.000000,136.000000,133.000000,3.000000,9.000000,0.000000,0.000000,0.000000,0.000000,0.000000;
#CREDIT:Maxx;
#DISPLAYBPM:70.000000:140.000000;
#NOTES:
0000
0000
0000
0000
,
0000
0000
0000
0000
,
0000
0000
0000
0000
,
0000
0000
0000
0000
,
0000
0000
0000
0000
,
0000
0000
0000
0000
,
0000
0000
0000
0000
,
0000
0000
0000
0000
,
1000
0001
1000
0001
,
0020
0000
0000
0000
,
0031
1000
0001
1000
,
0020
0000
0000
0000
,
1030
0001
1000
0001
,
0200
0000
0000
0000
,
0301
1000
0001
1000
,
1001
0000
0000
0000
,
1000
0000
0010
0000
,
1000
0000
0000
0000
,
0001
0000
0100
0000
,
0001
0000
0000
0000
,
1000
0000
0100
0000
,
1000
0000
0000
0000
,
0001
0000
0010
0000
,
0001
0000
0000
0000
,
1000
0000
0001
0000
,
1000
0000
0000
0000
,
0001
0000
1000
0000
,
0001
0000
0000
0000
,
0100
0000
0010
0000
,
0100
0000
0000
0000
,
0010
0000
0100
0000
,
0010
0000
0000
0000
,
1000
0000
0001
0000
,
0020
0000
0030
0000
,
0001
0000
1000
0000
,
0200
0000
0300
0000
,
0010
0000
0001
0000
,
2000
0000
3000
0000
,
0002
0000
0000
0000
,
0000
0000
0003
1001
,
2000
0000
0000
0000
,
3100
0000
0010
0000
,
0001
0000
1000
0000
,
0010
0000
0100
0000
,
0001
0000
1000
0000
,
0100
0000
0010
0000
,
0001
0000
1000
0000
,
0010
0000
0100
0000
,
0010
0000
1000
0000
,
0001
0000
0010
0000
,
0100
0000
0010
0000
,
0001
0000
1000
0000
,
0001
0000
0100
0000
,
0010
0000
1000
0000
,
0001
0000
0010
0000
,
0100
0000
1000
0000
,
0001
0000
0100
0000
,
0010
0000
1000
0000
,
0001
0000
1000
0000
,
0100
0000
0010
0000
,
0100
0000
1000
0000
,
0001
0000
0100
0000
,
0010
0000
0100
0000
,
0001
0000
1000
0000
,
0100
0000
0010
0000
,
0001
0000
0100
0000
,
0001
0000
1000
0000
,
0100
0000
1000
0000
,
0001
0000
1000
0000
,
0010
0000
0100
0000
,
0010
0000
1000
0000
,
0100
0000
0010
0000
,
0001
0000
1000
0000
,
0002
0000
0000
0000
,
1003
0000
0001
0000
,
1000
0000
0000
0000
0010
0000
0000
0100
,
0000
0010
0000
0000
1000
0000
0001
0000
,
0010
0100
1000
1001
;

//---------------dance-single - ----------------
#NOTEDATA:;
#CHARTNAME:;
#STEPSTYPE:dance-single;
#DESCRIPTION:;
#CHARTSTYLE:;
#DIFFICULTY:Medium;
#METER:7;
#RADARVALUES:0.443105,0.488062,0.073851,0.184627,0.073851,420.000000,410.000000,10.000000,25.000000,0.000000,0.000000,2.000000,0.000000,0.000000,0.443105,0.488062,0.073851,0.184627,0.073851,420.000000,410.000000,10.000000,25.000000,0.000000,0.000000,2.000000,0.000000,0.000000;
#CREDIT:Maxx;
#DISPLAYBPM:70.000000:140.000000;
#NOTES:
0000
0000
0000
0000
,
0000
0000
0000
0000
,
0000
0000
0000
0000
,
0000
0000
0000
0000
,
0000
0000
0000
0000
,
0000
0000
0000
0000
,
0000
0000
0000
0000
,
0000
0000
0000
0000
,
1000
0000
0001
0000
1000
0000
0001
0010
,
0200
0000
1000
0000
0010
0000
1300
0001
,
0100
0000
0010
0000
1000
0000
0001
0100
,
0020
0000
1000
0000
0130
0000
0001
1000
,
0100
0010
0001
1000
0010
0100
0010
1000
,
0001
0010
0100
1000
0001
0100
0001
1000
,
0100
0010
0001
1000
0010
0100
0001
1000
,
0100
0000
0000
0110
,
1001
0000
0000
0001
0100
0010
1000
0000
0000
0001
0000
0000
,
0040
0000
0000
0031
1000
0100
0010
0000
0000
0001
0000
0000
,
2000
0000
0000
3010
0100
0001
1000
0000
0000
0100
0000
0000
,
0010
0001
1000
1001
,
2000
0000
0000
0000
0000
0000
3001
0000
0100
0000
0010
0000
1000
0000
0000
0000
0000
0000
0100
0000
0000
0010
0000
0000
,
0001
0000
0000
1000
0000
0000
0010
0000
0100
0000
0001
0000
1000
0000
0000
0000
0000
0000
0100
0000
0000
0000
0000
0000
,
0020
0000
0000
0031
1000
0100
0010
0000
0000
0001
0000
0000
,
1000
0010
0100
0110
,
2000
0000
0000
3001
0010
0100
1000
0000
0000
0010
0000
0000
,
0400
0000
0000
0301
1000
0100
0010
0000
0000
0001
0000
0000
,
2000
0000
0000
3010
0100
0001
1000
0000
0000
0100
0000
0000
,
0010
0001
1000
1001
,
0002
0000
0000
0000
0000
0000
1003
0000
0010
0000
0100
0000
0001
0000
0000
0000
0000
0000
1000
0000
0000
0100
0000
0000
,
0010
0001
1000
0000
0010
0000
0100
0001
,
2000
0000
3100
0000
0010
0000
0001
1000
,
0010
0100
0001
1001
,
1000
0001
0100
0000
0010
0000
1000
0000
,
0001
1000
0100
0000
0010
0000
0001
0000
,
0100
0010
1000
0000
0001
0000
0010
0000
,
0100
1000
0001
0000
1000
0000
1001
0000
,
0001
0100
0010
0000
1000
0000
0001
0010
,
0100
1000
0001
0000
0100
0000
0010
1000
,
0002
0000
0000
0000
,
0000
0000
0003
1001
,
2000
0000
0000
0000
,
3100
0010
0001
1000
0010
0100
0010
1000
,
0001
0010
0100
1000
0001
0100
0001
1000
,
0100
0010
0001
1000
0010
0100
0010
1000
,
0001
0010
0001
1000
0001
0100
0010
1000
,
0001
0010
0100
1000
0001
0100
0010
1000
,
0001
1000
0100
1000
0001
0100
0010
1000
,
0001
0000
0010
0000
0100
0000
1000
0001
,
0100
0000
0010
0000
1000
0000
0001
0010
,
0100
1000
0001
0100
0001
1000
0100
0010
,
0001
1000
0010
0100
0010
1000
0001
1000
,
0100
0010
0001
1000
0010
0100
0001
1000
,
0100
0010
0001
1000
0001
0100
0010
1000
,
0001
0010
0001
1000
0010
0100
0001
1000
,
0100
0010
0001
1000
0010
0100
0010
1000
,
0001
0000
0010
0000
0100
0000
1000
0001
,
0100
0000
0010
0000
1000
0000
0001
1000
,
0200
0000
0010
0000
1000
0000
0310
0001
,
1000
0010
0100
0001
1000
0100
0010
0001
,
0200
0000
0010
0000
0001
0000
0310
1000
,
0001
0010
0100
1000
0001
1000
0010
0100
,
0002
0000
1000
0000
0100
0000
1003
0100
,
0010
0001
1000
0010
0100
0001
1000
0100
,
0020
0001
0230
1000
,
0320
0000
0001
0000
0230
0000
1300
0001
,
0200
0000
0010
0000
0001
0000
0310
1000
,
0001
1000
0100
0010
0001
1000
0010
0100
,
0002
0000
1000
0000
0100
0000
1003
0100
,
0010
0001
1000
0010
0100
0010
1000
0100
,
0020
0000
0001
0000
0100
0000
0031
1000
,
0001
0100
0010
1000
0001
0010
0100
1000
,
0002
1000
0100
1003
,
0200
0000
0310
0001
,
2001
0000
0000
0000
,
3002
0000
1003
0010
1000
0010
0100
0000
,
0001
1000
0100
0010
0001
1000
0010
0100
,
0000
0010
1000
0001
1000
0001
0010
0100
,
1000
0010
0100
0001
0100
0001
1001
0000
;

//---------------dance-single - Maxx----------------
#NOTEDATA:;
#CHARTNAME:;
#STEPSTYPE:dance-single;
#DESCRIPTION:Maxx;
#CHARTSTYLE:;
#DIFFICULTY:Hard;
#METER:10;
#RADARVALUES:0.718464,0.832576,0.110776,0.228938,0.712661,681.000000,666.000000,15.000000,31.000000,1.000000,0.000000,4.000000,0.000000,0.000000,0.718464,0.832576,0.110776,0.228938,0.712661,681.000000,666.000000,15.000000,31.000000,1.000000,0.000000,4.000000,0.000000,0.000000;
#CREDIT:;
#DISPLAYBPM:70.000000:140.000000;
#NOTES:
0000
0000
0000
0000
,
0000
0000
0000
0000
,
0000
0000
0000
0000
,
0000
0000
0000
0000
,
0000
0000
0000
0000
,
0000
0000
0000
0000
,
0000
0000
0000
0000
,
0000
0000
0000
0000
,
1001
0000
1000
0001
0010
0000
0001
0000
0100
0000
0010
0000
1000
0001
1000
0001
,
0100
0000
0010
1000
0001
0000
1000
0100
0010
0000
0001
0000
0100
0010
0100
0010
,
1000
0000
0001
1000
0100
0000
0010
0001
1000
0000
0010
0000
0100
0001
0100
0001
,
0010
0000
0100
0010
0001
0000
1000
0010
0100
0000
0001
0000
0010
0100
0010
0100
,
1000
0000
0001
0000
1000
0000
0001
0000
0100
0000
0010
0000
1000
0000
0001
0010
,
0100
1000
0100
1000
0001
0100
0010
1000
,
0001
0010
0100
1000
0001
0100
0010
1000
0100
0010
0001
1000
0010
0100
0001
1000
,
0001
0000
0000
0000
0000
0000
1000
0000
0001
0000
1000
0000
0001
0000
0000
0000
0100
0000
0000
0000
0010
0000
0000
0000
1000
0000
0000
0000
0001
0000
0000
0000
0010
0000
0000
0000
0200
0000
0000
0000
0000
0000
0000
0000
0000
0300
0000
0000
,
0220
0000
0000
0000
0000
0000
0000
0000
0000
0330
0000
0000
0010
0000
0000
0000
0001
0000
0000
0000
1000
0000
0000
0000
0010
0000
0000
0000
0100
0000
0000
0000
0010
0000
0000
0000
1000
0000
0000
0000
0001
0000
0000
0000
0010
0000
0000
0000
,
0400
0000
0000
0310
0001
1000
0010
0100
0010
1000
0100
0010
,
0002
0000
0000
1003
0001
1000
0010
0100
0010
1000
0001
0010
,
0100
0000
1000
0001
1000
0001
0100
0000
0010
0000
1000
0000
0001
0000
0010
0000
0100
0000
1100
0000
0000
0000
0000
0000
,
2002
0000
0000
0000
0000
0000
0000
0000
0000
3003
0000
0000
0001
0000
0000
0000
0100
0000
0000
0000
0010
0000
0000
0000
1000
0000
0000
0000
0001
0000
0000
0000
0010
0000
0000
0000
0200
0000
0000
0000
0000
0000
1300
0000
0000
0000
0000
0000
,
0002
0000
0000
0103
0000
0000
0010
0000
1000
0000
0001
0000
0010
0000
0100
0000
0010
0000
0001
0000
1000
0000
0010
0000
,
0200
0000
0000
0301
1000
0001
0100
0010
1000
0001
0010
0100
,
1000
0001
1000
0010
0100
0010
1000
0001
0010
0011
0000
0000
,
2002
0000
0000
0000
0000
0000
0000
0000
0000
3003
0000
0000
1010
0000
0000
0000
1000
0000
0000
0000
0001
0000
0000
0000
0010
0000
0000
0000
0001
0000
0000
0000
1000
0000
0000
0000
0100
0000
0000
0000
1000
0000
0000
0000
0001
0000
0000
0000
,
0400
0000
0000
0301
1000
0001
0010
0100
0010
0001
1000
0010
,
0200
0000
0310
0100
0001
1000
0100
0010
0100
1000
0001
1000
,
0010
0000
1000
0001
1000
0001
0100
0000
0010
0000
1000
0000
0001
0000
0010
0000
0100
0000
1100
0000
0000
0000
0000
0000
,
2002
0000
0000
0000
0000
0000
0000
0000
0000
3003
0000
0000
0101
0000
0000
0000
0001
0000
0000
0000
1000
0000
0000
0000
0100
0000
0000
0000
0010
0000
0000
0000
0000
0000
0000
0000
0011
0000
0000
0000
0000
0000
0001
0000
0000
0000
0000
0000
,
1000
0000
0000
0010
0000
0000
1010
0000
1000
0000
0001
0000
0010
0000
0001
0000
1000
0000
0100
0000
0010
0000
0100
0000
,
2000
0000
3001
0100
0010
0100
0001
1000
0100
0010
0100
1000
,
0001
0000
1000
0001
1000
0000
0010
0000
0100
0000
0001
0000
1000
0000
0100
0000
0010
0000
0002
0000
0000
1003
0000
0000
,
0010
0100
0001
0000
1000
0000
0100
0000
0010
0000
0100
0000
1000
0000
0001
0000
,
0400
0000
0000
0000
0310
1000
0001
0000
1000
0000
0100
0000
0010
0000
0100
0000
,
0002
0000
0000
0000
0103
1000
0001
0000
0100
0000
0010
0000
1000
0000
0001
0000
,
0010
0000
0100
1000
0001
0000
0100
0000
0010
0000
1000
0000
1002
0000
0000
1003
,
0100
1000
0001
0000
0100
0010
1000
0000
0001
0000
0010
0000
0200
0000
1300
0000
,
0020
0000
0130
0000
0001
1000
0100
0000
0010
0000
0001
0000
1000
0000
0010
0000
,
0100
0000
0000
0000
0001
0000
1000
0000
0001
0000
0000
0000
0000
0000
0000
0000
1000
0000
0000
0000
0000
0100
0000
0000
0000
0000
0000
0000
0010
0000
0001
0000
0010
0000
0000
0000
0000
0000
0000
0000
0001
0000
0000
0000
0000
1000
0000
0000
,
0000
0000
0000
0000
0001
0000
0100
0000
0001
0000
0000
0000
0000
0000
0000
0000
1000
0000
0010
0000
1000
0000
0000
0000
0000
0000
0000
0000
0001
0000
1000
0000
0001
0000
0000
0000
0200
0000
0000
0300
0000
0000
0000
0000
0000
0000
0000
0000
,
0001
1000
0100
0000
0010
0000
0001
0000
1000
0010
0100
0001
1000
0100
0010
0001
,
1000
0010
0100
0001
1000
0100
0010
0001
,
0100
0010
1000
0001
0010
0100
0010
0001
,
1000
0010
0100
0001
1000
0100
0010
0001
,
1000
0010
1000
0001
1000
0100
1000
0010
,
0100
0001
1000
0001
0010
0100
1000
0001
,
0100
0010
0100
0001
0010
0001
1000
0001
,
0100
0010
1000
0001
1000
0100
0010
0001
,
1000
0010
0100
0010
1000
0001
0010
0100
,
1000
0010
0100
0001
1000
0100
1000
0001
,
0100
0010
1000
0001
0010
0001
1000
0001
,
0100
0010
1000
0001
0010
0100
1000
0001
,
0100
0010
0100
0001
1000
0100
1000
0001
,
0100
0010
1000
0001
0010
0100
1000
0001
,
1000
0010
0100
0001
1000
0100
0010
0001
,
1000
0010
0100
0010
1000
0001
1000
0100
,
0010
0000
0001
0000
0100
0000
0010
0000
1000
0000
0001
0000
0010
0100
0010
0001
,
1000
0010
0100
0001
1000
0100
0010
0001
,
1000
0000
0010
0000
0100
0000
0001
0000
1000
0000
0001
0000
0100
0010
0100
0001
,
1000
0010
0100
0001
1000
0100
0010
0001
,
0100
0000
0010
0000
0100
0000
0001
0000
1000
0000
0100
0000
0010
0100
1000
0001
,
0100
0010
1000
0001
0010
0100
0010
0001
,
0100
0000
0010
0000
1000
0000
0001
0000
0010
0000
0100
0000
0010
0001
1000
0010
,
0000
0000
0200
0000
0000
0301
0000
2000
0000
0000
3100
0000
0000
0010
0001
1000
,
0000
0001
1000
0010
0000
0100
0000
0001
0000
1000
0001
0000
0100
0010
0100
0001
,
1000
0001
0010
0100
1000
0001
0100
0010
,
1000
0000
0001
0000
0010
0000
0001
0000
0100
0000
0010
0000
1000
0001
1000
0100
,
0010
0001
1000
0001
0100
0010
0100
0001
,
1000
0000
0001
0000
0010
0000
0100
0000
1000
0000
0010
0000
0100
0010
0100
0001
,
1000
0100
0010
0001
1000
0010
0100
0001
,
1000
0000
0100
0000
0010
0000
0100
0000
1000
0000
0001
0000
0100
0010
1000
0001
,
0010
0100
1000
0001
0100
0010
1000
0001
,
0010
0100
0010
0001
0000
1000
0001
0100
0000
0010
0100
0010
1000
0001
0010
0100
,
2000
0000
3002
0000
0203
0000
0310
1000
0001
0000
1000
0000
0004
0000
0000
0003
,
2M02
0000
0000
3003
0001
0000
0100
0000
0001
0000
0100
0000
0010
0000
0000
1000
,
0001
0000
1000
0000
0001
0010
0100
0000
2000
0000
3100
1000
0001
0000
0100
0000
,
0000
0010
1000
0000
0100
0000
0010
0000
0100
0000
0010
0000
0001
1000
0010
0100
,
0001
1000
0100
0000
2000
0000
3001
0000
2000
0000
3001
0000
0110
0000
0000
0000
;
