#TITLE:MIND SPLITTER;
#SUBTITLE:;
#ARTIST:Lil Texas;
#TITLETRANSLIT:;
#SUBTITLETRANSLIT:;
#ARTISTTRANSLIT:;
#GENRE:Hard Psy;
#CREDIT:Feraligatr;
#BANNER:Mind Splitter-bn.png;
#BACKGROUND:Mind Splitter-bg.png;
#LYRICSPATH:;
#CDTITLE:;
#MUSIC:LIL TEXAS - MIND SPLITTER.ogg;
#OFFSET:0.007000;
#SAMPLESTART:47.993000;
#SAMPLELENGTH:12.000000;
#SELECTABLE:YES;
#DISPLAYBPM:160.000000;
#BPMS:0.000000=160.000000
;
#STOPS:
;
#BGCHANGES:;
#KEYSOUNDS:;
#ATTACKS:;

//---------------dance-single - Feraligatr----------------
#NOTES:
     dance-single:
     Feraligatr:
     Challenge:
     13:
     1.175661,1.186667,0.140741,0.311111,1.733333,1111.000000,1084.000000,19.000000,42.000000,0.000000,8.000000,1.175661,1.186667,0.140741,0.311111,1.733333,1111.000000,1084.000000,19.000000,42.000000,0.000000,8.000000:
// measure 0
0000
0000
0000
0000
,  // measure 1
0000
0000
0000
0000
,  // measure 2
0000
0000
0000
0000
,  // measure 3
0000
0000
0000
0000
0000
0000
0000
0000
0000
0000
0000
0000
0000
0000
1000
0100
,  // measure 4
1000
0001
0100
0010
1000
0001
0010
0100
,  // measure 5
0010
0001
1000
0000
0010
0000
0100
0000
0001
1000
0001
0010
0100
1000
0001
0100
,  // measure 6
0010
1000
0100
0010
0001
1000
0010
0100
0010
1000
0001
0010
0100
1000
0001
0100
,  // measure 7
0040
4000
0000
0000
0000
0000
0000
0030
3001
0000
0000
0000
0001
0000
0000
0000
,  // measure 8
1000
0100
1000
0100
1000
0000
0001
0100
0010
0000
1000
0001
0010
0000
0100
1000
,  // measure 9
0001
0000
0100
0010
1000
0000
0001
0010
0100
0000
0010
0001
1000
0000
0010
0100
,  // measure 10
0001
0000
1000
0001
0010
0000
0100
1000
0001
0000
1000
0010
0100
0000
0001
1000
,  // measure 11
0100
0000
0010
0001
1000
0000
0100
1000
0010
0000
0100
0001
1000
0000
0100
0000
,  // measure 12
0010
0000
0001
1000
0010
0000
0100
0001
1000
0000
0100
0010
0001
0000
1000
0010
,  // measure 13
0100
0000
0001
1000
0100
0000
0010
0100
1000
0000
0001
0100
0010
0000
1000
0000
,  // measure 14
0001
0000
0010
0100
1000
0000
0001
0100
0010
0000
0100
0001
1000
0000
0100
0010
,  // measure 15
0001
0000
1000
0001
0100
0000
0010
1000
0100
0000
0010
0001
1000
0000
0010
0000
,  // measure 16
0100
0001
1000
0001
0010
0100
0010
0001
1000
0100
1000
0001
0100
0010
0100
0001
,  // measure 17
1000
0100
1000
0001
0010
0100
0010
0001
1000
0010
1000
0001
0010
0100
1000
0001
,  // measure 18
1000
0010
0100
0010
1000
0001
0010
0001
1000
0010
0100
0001
1000
0100
0010
0001
,  // measure 19
1000
0010
1000
0001
0010
0100
0010
0001
1000
0010
1000
0001
0010
0100
1000
0001
,  // measure 20
0100
0010
1000
0001
1000
0100
0010
0001
1000
0010
0100
0001
1000
0100
0010
0100
,  // measure 21
1000
0001
0100
0010
1000
0001
0010
0100
0010
0001
1000
0010
1000
0001
0010
0001
,  // measure 22
0100
0010
1000
0001
1000
0100
0010
0001
0100
0010
1000
0001
1000
0100
0010
0001
,  // measure 23
0000
0000
0000
0102
,  // measure 24
1003
0001
0010
0100
0010
0001
1000
0010
0100
0001
1000
0100
1000
0001
0100
0010
,  // measure 25
1000
0001
0010
0100
0010
0001
1000
0010
1000
0001
0010
0100
0001
0100
0010
0100
,  // measure 26
1000
0001
0100
0010
1000
0001
1000
0100
0010
0100
1000
0001
0100
0010
1000
0001
,  // measure 27
0010
0100
0010
0001
1000
0010
0100
0001
1000
0100
0010
0001
0200
0000
0000
0000
,  // measure 28
0340
0000
0000
0000
1030
0001
1000
0100
0010
0100
1000
0001
0100
0010
1000
0001
,  // measure 29
0010
0001
1000
0010
0100
0001
1000
0100
1000
0001
0100
0010
0001
0010
0100
0010
,  // measure 30
1000
0001
0100
0100
1000
0001
0100
0100
0010
0001
0100
0100
1000
0010
0100
0001
,  // measure 31
2000
0000
0000
3000
2000
0000
0000
3000
1000
0100
0010
0001
0200
0000
0000
0000
,  // measure 32
0301
1000
0100
0010
0100
1000
0001
0100
0010
1000
0001
0010
0100
0010
0001
1000
,  // measure 33
0010
1000
0001
0010
0100
1000
0001
0100
0001
1000
0100
0010
1000
0010
0100
0100
,  // measure 34
0100
1000
0001
0100
0001
1000
0100
0010
0001
1000
0010
0100
0010
1000
0001
0010
,  // measure 35
1000
0010
0001
0100
1000
0100
1000
0100
0010
0000
1000
0000
1002
0000
0000
0003
,  // measure 36
2222
0000
0000
3333
0001
1000
0001
0010
0100
0010
0001
1000
0010
1000
0001
0010
,  // measure 37
0100
1000
0001
0100
0010
1000
0001
0010
0001
1000
0010
0100
1000
0100
0010
0100
,  // measure 38
0001
1000
0100
0010
0001
0100
0010
0100
0001
1000
0001
0010
0100
0100
0100
0100
,  // measure 39
0001
0000
1000
0100
1000
0010
0100
0001
2000
0000
0000
3000
2100
0000
0000
0000
,  // measure 40
3001
0100
0001
1000
0001
0010
0100
0010
0001
1000
0010
0100
0001
1000
0100
0010
,  // measure 41
0100
1000
0001
0100
0011
0000
0011
0000
1000
0010
0100
0001
2020
0000
0000
0000
,  // measure 42
3031
1000
0010
0010
0010
1000
0001
0010
0001
1000
0010
0100
0001
1000
0100
0100
,  // measure 43
0100
1000
0001
1000
0100
0010
0100
1000
0001
0100
0001
0010
0200
0000
0000
0000
,  // measure 44
1300
0100
0010
0001
0100
0001
0010
0100
1000
0010
1000
0100
0010
0001
0100
0001
,  // measure 45
0010
0100
1000
0001
1000
0010
0100
0010
1000
0001
0010
0100
0001
0100
0010
0100
,  // measure 46
1000
0010
0100
0001
1000
0100
0010
0001
0100
0010
1000
0100
0010
0001
1000
0010
,  // measure 47
1100
0001
1100
0010
1100
0001
0010
0001
0100
0010
1000
0001
1000
0100
0010
0001
,  // measure 48
0200
0000
0000
0000
,  // measure 49
0000
0000
0000
0000
,  // measure 50
0310
0000
0000
0000
0100
0000
0001
1000
0100
1000
0001
0000
0100
0000
0010
0000
,  // measure 51
1000
0001
1000
0100
0000
0000
0010
0000
0000
0100
0000
0000
1000
0000
0000
0001
0000
0000
0100
0000
0000
0010
1000
0010
,  // measure 52
1000
0000
0000
0000
0000
0000
0001
0000
0000
0000
0000
0000
0010
0000
0000
0000
0000
0000
0100
0000
0000
0000
0000
0000
1000
0000
0001
0000
1000
0000
0010
0000
0000
0000
0000
0000
0100
0000
0000
0001
0000
0000
0100
0000
0000
0001
0000
0000
,  // measure 53
1000
0100
0010
0100
1000
0001
0100
0010
,  // measure 54
1000
0000
0000
0100
0000
0000
1000
0000
0000
0100
0000
0000
0010
0000
0000
0000
0000
0000
0001
0000
0000
1000
0000
0000
0010
0000
0000
1000
0000
0000
0001
0000
0000
0000
0000
0000
0100
0000
0010
0000
0100
0000
0001
0000
1000
0000
0001
0000
,  // measure 55
0010
0000
0000
0100
0000
0000
1000
0000
0000
0001
0000
0000
1000
0000
0000
0000
0000
0000
0100
0010
0100
1000
0001
1000
,  // measure 56
0010
0100
0001
1000
0100
0010
0100
1000
,  // measure 57
0001
0000
0100
0000
0010
0000
1000
0000
0001
0000
0010
0000
0100
0000
0010
0001
,  // measure 58
1000
0010
0100
0001
1000
0100
0010
0001
,  // measure 59
1000
0000
0010
0000
1000
0000
0001
0000
0000
0100
0000
0000
0001
0000
0000
0000
0000
0000
1000
0000
0000
0000
0000
0000
0000
0000
0000
0000
0000
0000
1000
0000
0000
0000
0000
0000
0001
0000
0000
0000
0000
0000
0010
0000
0000
0100
0000
0000
,  // measure 60
1000
0000
0001
0000
0100
0000
0010
0000
0100
0000
0001
0000
1000
0000
0100
0010
,  // measure 61
0001
0010
0100
0000
1000
0000
0001
0000
0100
0010
1000
0010
0100
0001
1000
0100
,  // measure 62
0010
0000
0001
0000
0010
0000
0001
0000
0000
1000
0000
0000
0010
0000
0000
0100
0000
0000
0001
0000
0000
1000
0000
0000
0100
0000
0000
1000
0000
0000
0010
0000
0000
0100
0000
0000
0001
0000
0000
1000
0000
0000
0100
0000
0000
0010
0000
0000
,  // measure 63
0000
0000
0000
0000
0000
0000
0000
0000
0000
0000
0000
0000
1200
0000
0000
0300
,  // measure 64
2222
0000
0000
3333
0001
1000
0001
0100
0010
0100
0001
1000
0100
0010
0001
1000
,  // measure 65
0010
0100
0010
1000
0001
0010
0100
0010
0001
1000
0010
1000
0100
0100
0100
0100
,  // measure 66
0022
0000
0000
0000
1033
0001
0010
0100
1000
0001
0100
0010
1000
0001
1000
0100
,  // measure 67
0010
0001
0100
0010
0100
0001
0010
0100
0001
0100
0000
1000
0020
0000
0000
0000
,  // measure 68
0130
0100
1000
0001
0010
0100
0010
0001
1000
0010
0100
0001
1000
0001
0010
0010
,  // measure 69
0010
0100
1000
0001
0100
0010
0100
0001
1000
0100
0010
0001
2200
0000
3320
0000
,  // measure 70
0130
0001
1000
0100
1000
0001
0100
0010
0001
0010
0100
0001
1000
0100
0001
0100
,  // measure 71
0010
0001
0100
0001
1000
0100
0010
0001
,  // measure 72
1000
0010
0100
0010
1000
0001
0010
0100
0010
0001
1000
0010
0100
0001
1000
0001
,  // measure 73
0010
0010
1000
0001
0010
0100
0010
0001
1000
0001
0100
0010
0001
0010
0100
0010
,  // measure 74
1000
0001
0010
0100
0010
0001
1000
0010
0100
0001
1000
0100
1000
0001
0100
0010
,  // measure 75
1000
0001
0100
0100
1000
0001
0010
0010
0100
0001
0010
0001
0100
0000
0110
0000
,  // measure 76
2222
0000
0000
3333
0001
1000
0100
1000
0001
0100
0010
1000
0001
1000
0100
0010
,  // measure 77
0001
1000
0010
1000
0001
0010
0100
0010
0001
1000
0010
0100
1000
0100
0010
0100
,  // measure 78
0001
1000
0100
0010
0100
1000
0001
0100
0010
1000
0001
0010
0001
1000
0010
0100
,  // measure 79
0001
0010
0100
1000
0010
0100
0010
1000
0200
0000
0000
0000
0320
0000
0000
0030
,  // measure 80
2222
0000
0000
3333
1000
0001
0100
0010
1000
0001
1000
0100
0010
0100
1000
0001
,  // measure 81
0100
0001
1000
0100
0010
0001
1000
0010
1000
0001
0010
0100
0001
0100
0010
0100
,  // measure 82
2020
0000
3032
0000
1003
0010
0100
0001
1000
0100
1000
0001
0100
0010
1000
0001
,  // measure 83
0100
0100
0100
0100
0010
0010
0010
0010
4000
0000
0000
3000
2001
0000
0000
0000
,  // measure 84
3001
0100
0010
1000
0100
1000
0010
0100
0001
0010
0001
0100
0010
1000
0100
1000
,  // measure 85
0010
0100
0001
1000
0001
0010
0100
0010
0001
1000
0010
0100
1000
0100
0010
0100
,  // measure 86
0001
0010
0100
1000
0001
0100
0010
1000
0100
0010
0001
1000
0010
0100
0001
1000
,  // measure 87
0100
0010
0100
1000
0001
0100
0010
0100
0001
1000
0100
1000
0001
0100
0010
1000
,  // measure 88
0200
0000
0000
0000
,  // measure 89
0300
0000
0000
0000
;

//---------------dance-single - sangyule----------------
#NOTES:
     dance-single:
     :
     Hard:
     11:
     0.775661,1.075556,0.081481,0.229630,0.459259,733.000000,722.000000,11.000000,31.000000,6.000000,2.000000,0.775661,1.075556,0.081481,0.229630,0.459259,733.000000,722.000000,11.000000,31.000000,6.000000,2.000000:
// measure 0
0000
0000
0000
0000
,  // measure 1
0000
0000
0000
0000
,  // measure 2
0000
0000
0000
0000
,  // measure 3
0000
0000
0000
0000
,  // measure 4
1000
0100
0010
0001
0100
0010
1000
0001
,  // measure 5
0010
0001
1000
0010
0100
0010
1000
0100
,  // measure 6
1000
0001
0100
0001
1000
0010
1000
0001
0010
0100
0010
0001
1000
0001
0100
0010
,  // measure 7
0400
0000
M300
M000
,  // measure 8
0001
0010
0001
1000
0001
0010
0001
1000
,  // measure 9
0010
0100
0001
0100
0010
1000
0001
0010
,  // measure 10
0100
1000
0001
1000
0100
1000
0001
1000
,  // measure 11
0010
0100
0001
0100
1000
0100
0010
1000
,  // measure 12
0001
0010
0100
0010
0001
0010
0100
0010
,  // measure 13
0001
1000
0010
1000
0001
0100
0010
1000
,  // measure 14
0100
1000
0001
0100
0001
1000
0001
0010
,  // measure 15
0100
1000
0001
0100
1000
0100
0001
1000
,  // measure 16
0100
0000
0010
0001
1000
0000
0010
0100
0001
0000
1000
0100
0010
0000
0001
1000
,  // measure 17
0010
0000
0100
0001
1000
0000
0001
0010
0100
0000
1000
0010
0100
0000
0001
1000
,  // measure 18
0001
0000
1000
0100
0010
0000
0001
1000
0010
0000
0100
0001
1000
0000
0001
0010
,  // measure 19
0100
0000
1000
0010
0100
0000
0100
0000
0001
0000
1000
0000
1000
0000
0001
1000
,  // measure 20
0010
0100
0001
1000
0100
0010
0100
1000
0010
0100
0001
1000
0100
0010
0100
1000
,  // measure 21
0001
0100
0001
0010
0100
1000
0001
1000
0010
0100
0001
1000
0001
0010
0001
1000
,  // measure 22
0010
0100
0001
1000
0100
0010
0001
0100
0010
1000
0100
1000
0001
0100
0010
0100
,  // measure 23
0000
0000
0000
0002
,  // measure 24
0013
0100
1000
0001
1000
0010
0100
0001
,  // measure 25
0010
0000
0100
0000
1000
0000
0001
0000
1000
0000
0010
0000
0100
0001
1000
0100
,  // measure 26
1000
0100
0010
0001
0100
0010
1000
0001
,  // measure 27
1000
0100
0010
0001
1000
0010
2200
0000
,  // measure 28
3300
0000
0001
0010
0001
1000
0010
0100
,  // measure 29
0010
0000
1000
0000
0001
0000
0010
0000
0001
0000
1000
0000
0010
0100
0001
1000
,  // measure 30
0100
0000
0010
0001
0100
0000
0010
1000
0100
0010
0001
1000
0010
0000
0100
0000
,  // measure 31
0002
0003
0002
0003
0100
0010
1002
0000
,  // measure 32
1003
0100
1000
0010
0100
0001
0010
0100
,  // measure 33
1000
0000
0000
0000
0010
0000
0000
0000
1000
0000
0000
0000
0100
0000
0000
0000
0010
0000
0000
0000
0001
0000
0000
0000
1000
0000
0001
0000
0100
00M0
0100
0000
,  // measure 34
1000
0001
0010
0001
0100
0010
1000
0100
,  // measure 35
1010
0000
0001
0000
0100
0000
0100
0000
0011
0000
1000
0000
0202
0000
0000
0303
,  // measure 36
2000
0000
3010
0100
0001
0010
0100
1000
,  // measure 37
0010
0000
1000
0000
0100
0000
0010
0000
0001
0000
0100
0000
0010
1000
0001
0010
,  // measure 38
0100
0000
1000
0000
0010
0000
0100
0000
0001
0000
0001
0000
1000
0001
1000
0001
,  // measure 39
0100
0000
0010
1000
0001
0010
0001
0100
0020
0000
0000
0000
2030
0000
0000
0000
,  // measure 40
3001
0001
0001
1000
0010
0100
0001
1000
,  // measure 41
0001
0000
0010
0000
0100
0000
0100
0000
1000
0000
0001
0000
2000
0000
0000
3000
,  // measure 42
0010
0M00
0010
0001
1000
0000
1000
0000
1000
0000
0001
0000
0100
00M0
0100
1000
,  // measure 43
0001
0000
0100
0000
0010
0000
1000
0000
0001
0000
0010
0000
0202
0000
0000
0303
,  // measure 44
1000
0010
0100
0001
0010
0100
1000
0001
,  // measure 45
1000
0000
0100
0000
0010
0000
0001
0000
0100
0000
0010
0000
1000
0001
0010
0100
,  // measure 46
1000
0000
0001
0000
0100
0000
0001
0000
2000
0000
3100
0000
0010
0001
0010
0001
,  // measure 47
1000
1000
2000
0000
3010
0000
0110
0000
,  // measure 48
2000
0000
0000
0000
,  // measure 49
0000
0000
0000
3000
,  // measure 50
0001
0000
0000
0000
0010
0000
0001
1000
0001
1000
0010
0000
0100
0000
0001
0000
,  // measure 51
0040
0030
0100
0010
0001
0000
1000
0040
,  // measure 52
0130
0000
0000
0000
0001
0000
1000
0001
1000
0000
0010
0000
0100
0001
0100
0001
,  // measure 53
1000
0100
0010
0001
0000
0100
0100
0010
,  // measure 54
1000
0001
1000
0001
0010
0000
0001
1000
0001
0100
0010
0000
0400
0000
0301
0000
,  // measure 55
1000
0100
0100
0010
0001
0000
4000
0000
,  // measure 56
3010
0100
0001
1000
0100
1000
0001
1000
,  // measure 57
0010
0000
0100
0000
0010
0000
1000
0000
0001
0000
0010
0000
0100
0000
1000
0001
,  // measure 58
1000
0001
0100
0001
1000
0100
0010
0001
,  // measure 59
0100
0001
0100
0001
1000
0000
0001
0000
0010
0000
0100
0000
1000
0000
0001
0100
,  // measure 60
0010
0000
1000
0000
0010
0000
0100
0000
0001
0000
1000
0000
0001
0000
0010
0100
,  // measure 61
1000
0001
1000
0000
0010
0000
0100
0000
0001
1000
0001
0100
0001
1000
0100
1000
,  // measure 62
0010
0100
0010
0100
0001
1000
0100
0010
0001
0100
0010
1000
0100
1000
0001
0100
,  // measure 63
0000
0000
0000
0020
,  // measure 64
2030
0000
3001
0010
0100
1000
0001
0100
,  // measure 65
0010
0000
1000
0000
0001
0000
0010
0000
0100
0000
1000
0000
0010
1000
0010
0100
,  // measure 66
2000
0000
3100
0001
0010
0100
1000
0001
,  // measure 67
1000
0000
0010
0000
0100
0000
0001
1000
0400
0000
0000
0000
1310
0000
0000
0000
,  // measure 68
0001
1000
0010
0000
0100
0000
0001
0000
1000
0000
0100
0000
0010
0000
0001
1000
,  // measure 69
0001
0100
0010
1000
0001
0010
4000
0000
,  // measure 70
3010
0001
1000
0010
2000
3001
0200
0320
,  // measure 71
1030
0001
1010
0001
1000
1000
0100
0100
,  // measure 72
0010
0001
0100
0010
1000
0100
0010
0001
,  // measure 73
0100
00M0
0100
0000
1000
0000
0000
0000
0100
0000
0000
0000
0010
0000
0000
0000
0001
0000
0000
0000
0100
0000
0000
0000
0010
0000
1000
0000
0001
0000
1000
0000
,  // measure 74
0001
0010
0100
0010
0001
0100
0010
1000
,  // measure 75
0100
0000
1000
0010
0100
0000
0001
0010
0100
1000
0001
0100
0044
0000
0000
0033
,  // measure 76
2000
0000
3010
1000
0100
0010
0001
1000
,  // measure 77
0001
0000
0100
0000
0010
0000
1000
0000
0100
0000
0010
0000
0001
1000
0010
0100
,  // measure 78
0001
1000
0100
0010
0001
0100
0010
1000
,  // measure 79
0001
0010
0001
0010
0100
0000
0100
0000
2000
0000
3000
0000
2000
0000
3000
0000
,  // measure 80
0002
0000
0103
0010
1000
0001
1000
0100
,  // measure 81
0010
0000
0001
0000
0100
0000
0010
0000
1000
0000
0001
0000
0100
0010
1000
0001
,  // measure 82
0020
2030
3010
0001
1000
0010
0100
0001
,  // measure 83
1000
0010
0100
0001
1000
0001
0010
0100
4000
0000
0000
0000
3011
0000
0000
0000
,  // measure 84
1000
0100
0010
0001
0100
0010
1000
0001
,  // measure 85
1000
0000
0010
0000
0100
0000
0001
0000
0010
0000
0100
0000
1000
0001
1000
0010
,  // measure 86
0100
0001
1000
0001
0020
0130
1000
0001
,  // measure 87
0100
0010
1000
0100
0010
0001
0200
0000
,  // measure 88
0310
0000
0000
0000
;

//---------------dance-single - sangyule----------------
#NOTES:
     dance-single:
     :
     Beginner:
     2:
     0.141799,0.195556,0.007407,0.000000,0.000000,134.000000,133.000000,1.000000,0.000000,0.000000,0.000000,0.141799,0.195556,0.007407,0.000000,0.000000,134.000000,133.000000,1.000000,0.000000,0.000000,0.000000:
0000
0000
0000
0000
,
0000
0000
0000
0000
,
0000
0000
0000
0000
,
0000
0000
0000
0000
,
1000
0000
0000
0000
,
0001
0000
0000
0000
,
1000
0000
0000
0000
,
0000
0000
0000
0000
,
1001
0000
0000
0000
,
1000
0000
0000
0000
,
0010
0000
0000
0000
,
0010
0000
0000
0000
,
0100
0000
0000
0000
,
0100
0000
0000
0000
,
0001
0000
0000
0000
,
0001
0000
0000
0000
,
1000
0000
1000
0000
,
1000
0000
1000
0000
,
0100
0000
0100
0000
,
0100
0000
0100
0000
,
0010
0000
0010
0000
,
0010
0000
0010
0000
,
0001
0000
0001
0000
,
0000
0000
0000
0000
,
1000
0000
1000
0000
,
0010
0000
0010
0000
,
0100
0000
0100
0000
,
0001
0000
0001
1000
,
0000
0000
1000
0000
,
0100
0000
0100
0000
,
0010
0000
0010
0000
,
0001
0000
0000
0000
,
1000
0000
1000
0000
,
0010
0000
0010
0000
,
0100
0000
0100
0000
,
0001
0000
1000
1000
,
0001
0000
0001
0000
,
0010
0000
0010
0000
,
0100
0000
0100
0000
,
1000
0000
0001
0000
,
0100
0000
0100
0000
,
0010
0000
0010
0000
,
1000
0000
1000
0000
,
0100
0000
0100
0000
,
0010
0000
0010
0000
,
0001
0000
0001
0000
,
1000
0000
1000
0000
,
0010
0010
0010
0000
,
0100
0000
0000
0000
,
0000
0000
0000
0000
,
0000
0000
0000
0000
,
0000
0000
0000
0000
,
0000
0000
0000
0000
,
0000
0000
0000
0000
,
0000
0000
0000
0000
,
0000
0000
0000
0000
,
0001
0000
0000
0000
,
0010
0000
0000
0000
,
0100
0000
0000
0000
,
1000
0000
0000
0000
,
0001
0000
0001
0000
,
0100
0000
0100
0000
,
0010
0000
0000
0000
,
0000
0000
0000
0000
,
1000
0000
1000
0000
,
0100
0000
0100
0000
,
0010
0000
0010
0000
,
0001
0000
1000
0000
,
0001
0000
0001
0000
,
0100
0000
0100
0000
,
0010
0000
0010
0000
,
1000
0000
0000
0000
,
0001
0000
0001
0000
,
1000
0000
1000
0000
,
0100
0000
0100
0000
,
1000
1000
1000
0000
,
0001
0000
0001
0000
,
0100
0000
0100
0000
,
0010
0000
0010
0000
,
0000
1000
0000
1000
,
0001
0000
0001
0000
,
1000
0000
1000
0000
,
0100
0000
0100
0000
,
0010
0010
0000
0001
,
1000
0000
1000
0000
,
0001
0000
0001
0000
,
0100
0000
0100
0000
,
0010
0000
0000
0000
,
1000
0000
0000
0000
;

//---------------dance-single - sangyule----------------
#NOTES:
     dance-single:
     :
     Easy:
     6:
     0.347090,0.423704,0.022222,0.214815,0.000000,328.000000,325.000000,3.000000,29.000000,26.000000,0.000000,0.347090,0.423704,0.022222,0.214815,0.000000,328.000000,325.000000,3.000000,29.000000,26.000000,0.000000:
0000
0000
0000
0000
,
0000
0000
0000
0000
,
0000
0000
0000
0000
,
0000
0000
0000
0000
,
0001
0010
0100
0010
,
0001
0010
0100
0010
,
0001
1000
0010
0100
,
0001
1000
0100
0100
,
0020
0000
0000
0000
,
0000
0000
0000
0000
,
0030
0000
0000
0000
,
0000
0000
0000
0000
,
0001
0000
0001
0000
,
1000
0000
1000
0000
,
0010
0000
0010
0000
,
0100
0000
0100
0000
,
0001
0010
0100
1000
,
0001
0100
0010
1000
,
0001
1000
0100
0010
,
0001
0000
1000
0001
0000
0001
1000
0001
,
0100
0010
0100
0001
,
1000
0001
1000
0000
0001
1000
0001
1000
,
0400
0000
0000
0000
,
0300
0000
0000
0110
,
1000
0001
0100
0010
,
1000
0000
0001
0000
0010
000M
0020
0000
,
1030
0001
0100
0010
,
1000
0000
0001
0000
0010
0100
2000
0000
,
3000
0100
0010
0001
,
1000
0000
0001
0000
0100
M0MM
0200
0000
,
1300
0000
1000
0000
0001
0010
0001
0010
,
0100
0100
0100
2000
,
3001
0100
0010
1000
,
0100
0000
0010
0000
0001
0000
1000
0001
,
1000
0010
0100
0001
,
0010
0000
0010
0001
1000
0000
2000
0000
,
3MMM
0001
1000
0100
,
0010
0000
0001
0000
0100
M0MM
0200
0000
,
1300
0000
0001
0000
1000
0001
1000
0001
,
0020
0000
0130
0100
,
1000
0001
1000
0000
0010
0000
0100
0000
,
0001
0000
1000
1000
0001
0000
0010
0000
,
0100
1000
0100
1000
0100
0000
0010
0001
,
1000
0000
0001
0000
0100
0010
2000
0000
,
3001
0010
0100
1000
,
0001
0000
1000
0000
0010
MM0M
0020
0000
,
0031
0100
0004
0000
,
1003
0100
1000
0000
0001
0000
0100
0000
,
0120
0000
2030
0000
,
3002
0000
0000
0000
,
0000
0000
0000
0000
,
0000
0000
0000
0000
,
1003
0000
0001
0000
0000
0010
0001
0000
,
1000
0000
0010
0100
0000
0010
1000
0001
,
2000
0000
3100
0000
0000
1000
0001
0000
,
1000
0000
0000
1000
0000
0000
2000
0000
,
3010
0100
0001
0010
,
0100
0000
1000
0000
0100
0000
0010
0001
,
0010
0001
1000
0001
,
0100
0000
0010
0100
0000
0100
0001
1000
,
0001
0010
0100
0010
,
0001
1000
0001
0000
1000
0010
1000
0000
,
0040
0000
0000
0000
,
0130
0000
0000
0002
,
1003
0100
0010
0001
,
1000
0000
0010
0000
0100
0000
0001
1000
,
0200
1300
0010
0100
,
0001
2000
3100
0011
,
0001
1000
0001
0000
0100
0000
0010
1000
,
0010
0100
0001
0020
,
0130
1000
0100
0100
,
0010
0001
0010
0100
1000
0001
1000
0001
,
0100
0010
1000
0001
,
1000
0100
1000
0000
0010
M000
0020
0000
,
0031
0100
0010
1000
,
0001
1000
0001
1000
0001
0010
0200
0000
,
M3MM
1000
0100
0010
,
0001
0000
1000
0000
0100
M0MM
0200
0000
,
0301
0100
0010
1000
,
0002
0000
0013
0010
0100
0000
0100
0000
,
2000
3001
0100
0010
,
1000
0000
0001
0000
0010
MM0M
0020
0000
,
1030
0001
1000
0000
0100
0000
1000
0000
,
0001
1000
0001
0010
0200
0000
1300
0000
,
0001
0100
0010
1000
,
0001
0000
1000
0000
0010
MM0M
0020
0000
,
0031
1000
0020
0130
,
0001
1000
0100
0020
,
0031
0000
0000
0000
;

//---------------dance-single - sangyule----------------
#NOTES:
     dance-single:
     :
     Medium:
     9:
     0.584127,0.684444,0.014815,0.281481,0.137037,552.000000,550.000000,2.000000,38.000000,9.000000,0.000000,0.584127,0.684444,0.014815,0.281481,0.137037,552.000000,550.000000,2.000000,38.000000,9.000000,0.000000:
0000
0000
0000
0000
,
0000
0000
0000
0000
,
0000
0000
0000
0000
,
0000
0000
0000
0000
,
0001
0010
0100
0010
,
0001
1000
0010
0100
,
0001
1000
0001
0100
0010
1000
0100
0010
,
0004
0000
0103
0100
,
0020
0000
0000
0000
,
0000
0000
0000
0000
,
1030
0001
1000
0001
,
0100
0010
1000
0001
,
0010
0100
0010
0100
,
1000
0001
1000
0010
,
0100
0001
0100
0001
,
1000
0100
0010
0001
,
1000
0010
0100
0010
1000
0010
0100
0010
,
1000
0001
0100
0001
1000
0100
0010
0001
,
1000
0100
1000
0001
1000
0100
1000
0001
,
0100
0010
0100
0001
0010
0100
1000
0010
,
0100
0001
0100
0001
1000
0100
1000
0100
,
0010
0001
0010
0001
1000
0010
1000
0010
,
0100
0001
0010
0100
1000
0001
0100
0010
,
0000
0000
0000
2000
,
3010
0100
0010
1000
0001
0010
0001
1000
,
0010
0000
0100
0000
0010
0000
1000
0000
0001
0000
0010
0000
0100
M000
0100
0000
,
0001
0100
0001
1000
0100
0010
0100
1000
,
0001
0100
0001
1000
0100
0010
2000
0000
,
3000
0000
0010
0001
1000
0010
1000
0001
,
0010
0000
0100
0000
0010
0000
0001
0000
1000
0000
0010
0000
0100
000M
0100
0000
,
1000
0000
0001
0010
0001
0000
1000
0100
1000
0001
0100
0010
1000
0000
0001
0000
,
0010
0000
0010
0000
0100
1000
0020
0000
,
0130
0001
0100
0010
1000
0100
0010
0001
,
0100
0000
0001
0000
0100
0000
0010
0000
1000
0000
0001
0000
0010
0M00
0010
1000
,
0001
0100
0010
1000
0100
0010
0100
1000
,
1001
0000
0101
0001
0200
0310
0200
0000
,
0302
0000
1003
0100
0010
0001
0100
0010
,
1000
0000
0001
0000
1000
0000
0100
0000
0010
0000
0001
0000
0100
00M0
0100
0000
,
1000
0000
0010
0000
0100
0000
0001
0000
0010
0000
0100
0000
0010
0001
0010
0001
,
1000
0000
0001
1000
0000
0001
1000
0000
0010
0000
0000
0000
0200
0000
0000
0000
,
0301
0001
0001
1000
0100
1000
0001
0100
,
0010
1000
0001
0001
0010
0100
2000
0000
,
3010
0000
0100
0001
0100
0000
0010
0000
1000
0000
0001
0000
0010
0000
0001
0010
,
0100
1000
0010
0100
0001
0001
0020
0000
,
0130
1000
0010
0100
0001
1000
0100
0010
,
0100
0000
1000
0000
0010
0000
0100
0000
0001
0000
1000
0000
0100
00M0
0100
0000
,
0001
1000
0010
0100
0002
1003
0100
0010
,
0001
0001
0002
0000
0203
0000
0320
0000
,
2030
0000
0000
0000
,
0000
0000
0000
0000
,
3000
0000
0000
0000
,
0000
0000
0000
0000
,
0001
0000
0010
0000
0100
0000
0000
0000
0000
0000
1000
0000
0001
0100
0001
0100
,
0001
1000
0100
0010
0000
0001
1000
0001
,
0100
0010
0100
0010
1000
0000
0000
0000
0000
0000
0001
0000
0010
0000
0100
0000
,
0010
0001
0001
1000
0001
0000
0400
0000
,
0310
1000
0002
0023
,
0230
0000
1300
0000
0002
0000
0103
0010
,
0200
0301
2000
3200
,
0340
0000
0031
1000
0000
0001
1000
0010
,
0100
0001
0100
0001
1000
0100
1000
0100
,
0010
0001
0010
0001
0100
0010
1000
0001
,
0010
0100
1000
0010
0100
0001
0010
0100
,
0000
0000
0000
2000
,
3002
0000
0103
0010
1000
0001
0010
0100
,
1000
0000
0001
0000
0100
0000
0010
0000
1000
0000
0001
0000
1000
0100
1000
0100
,
0020
0000
0031
1000
0010
1000
0001
0010
,
0100
1000
0010
0000
0400
0000
0301
0000
,
1000
0001
0000
0000
1000
0000
0100
0000
0010
0000
0001
0000
1000
0000
0001
1000
,
0010
0100
0001
1000
0100
0010
0002
0203
,
0310
1000
0010
0100
0001
1000
0002
0023
,
0130
1000
0010
1000
0100
0100
0010
0010
,
0001
0100
0001
1000
0010
1000
0100
0010
,
0001
1000
0000
0000
0001
0000
1000
0000
0010
0000
1000
0000
0100
00M0
0100
0000
,
0001
0010
0001
0100
0010
1000
0100
0010
,
0001
0000
1000
0001
1000
0000
0010
0100
0001
1000
0001
0010
0400
0000
0000
0000
,
2300
0000
3001
0100
0010
1000
0100
0010
,
0001
0000
1000
0000
0001
0000
0100
0000
0010
0000
1000
0000
0010
0M00
0010
0000
,
0001
0100
0010
1000
0001
0010
0100
0010
,
0002
0000
1003
1000
0020
0030
0020
0030
,
0200
0000
0301
1000
0001
0010
0100
1000
,
0100
0000
0010
0000
0001
0000
1000
0000
0001
0000
0100
0000
0010
M000
0010
0000
,
0002
0000
1003
0010
0100
0001
1000
0001
,
0100
0010
1000
0001
1000
0001
0010
0100
2000
0000
0000
0000
3010
0000
0000
0000
,
0100
0001
1000
0100
0010
0100
1000
0001
,
0100
0000
0010
0000
0100
0000
0001
0000
1000
0000
0001
0000
0100
00M0
0100
0000
,
1000
0001
0010
0100
2000
3001
0100
0010
,
1000
0001
0010
0001
1000
0010
0200
0000
,
0301
0000
0000
0000
;
