#TITLE:Love Taste;
#SUBTITLE:(feat. Jamie Paige & Shiki);
#ARTIST:Moe Shop;
#TITLETRANSLIT:;
#SUBTITLETRANSLIT:;
#ARTISTTRANSLIT:;
#GENRE:;
#CREDIT:;
#BANNER:love taste-bn.png;
#BACKGROUND:love taste-bg.png;
#LYRICSPATH:;
#CDTITLE:;
#MUSIC:Love Taste.ogg;
#OFFSET:0.009003;
#SAMPLESTART:39.017441;
#SAMPLELENGTH:17.455000;
#SELECTABLE:YES;
#DISPLAYBPM:110.000000;
#BPMS:0.000000=110.000000
,111.000000=165.000000
,111.750000=55.000000
,112.000000=110.000000
;
#STOPS:
;
#BGCHANGES:;
#KEYSOUNDS:;
#ATTACKS:;

//---------------dance-single - Maxx----------------
#NOTES:
     dance-single:
     Maxx:
     Challenge:
     10:
     0.726378,0.750344,0.393881,0.343751,0.859377,710.000000,650.000000,55.000000,48.000000,7.000000,11.000000,0.726378,0.750344,0.393881,0.343751,0.859377,710.000000,650.000000,55.000000,48.000000,7.000000,11.000000:
0000
0000
0000
0000
,
0000
0000
0000
0000
0000
0000
0000
0000
0001
0000
0001
0000
0001
0000
1000
0020
,
0000
0000
0130
0000
0001
1000
0000
0000
1000
0001
0010
0010
1000
0100
0100
0000
,
0004
0000
0000
0000
4003
0000
0000
0000
3100
0000
0000
1000
0010
0000
0100
0002
,
0000
0000
1003
0000
0001
0010
0000
0000
0010
0001
0100
0100
1000
0010
0010
0001
,
1000
0000
1001
0000
0001
1010
0000
0001
1100
0000
0000
0000
2022
0000
0000
3033
,
1001
0000
1000
0000
0001
0100
0000
0000
0100
0000
0001
1000
0010
0010
0001
0000
,
4000
0000
0000
0000
0000
0000
0000
0000
3040
0000
0000
0000
0000
0000
0000
0000
0230
0000
0000
0000
0301
1000
0001
1000
0001
0000
0000
0000
1000
0000
0200
0000
,
0000
0000
0000
0000
0000
0000
0000
0000
0000
0000
0000
0000
0000
0000
0000
0000
0000
0000
0000
0000
0000
0000
0000
0000
0310
0000
0000
0000
0000
0000
0000
0000
0000
0000
0000
0000
0000
0000
0000
0000
0000
0000
0000
0000
0000
0000
0000
0000
0001
0000
0000
0000
0000
0000
0000
0000
0000
0000
0000
0000
1000
0000
0000
0000
0000
0000
0000
0000
0000
0000
0000
0000
0000
0000
0000
0000
0000
0000
0000
0000
0000
0000
0000
0000
0000
0000
0000
0000
0000
0000
0000
0000
0000
0000
0000
0000
1000
0000
0000
0000
0000
0000
0000
0000
0000
0000
0000
0000
0000
0000
0000
0000
0000
0000
0000
0000
0000
0000
0000
0000
0100
0000
0000
0000
0000
0000
0000
0000
0000
0000
0000
0000
0000
0000
0000
0000
0000
0000
0000
0000
0000
0000
0000
0000
1000
0000
0000
0000
0000
0000
0000
0000
0000
0000
0000
0000
0000
0000
0001
0000
0000
0000
0000
0000
0000
0000
0000
0000
0100
0000
0000
0000
0000
0000
0000
0000
0000
0000
0000
0000
0000
0000
0000
0000
0000
0000
0000
0000
0000
0000
0000
0000
,
0010
0000
0000
0000
0000
0000
0010
0000
0000
1000
0000
0000
0001
0000
0000
0000
0001
0000
0000
0000
0001
0000
0000
0000
0010
0000
0000
0100
0000
0000
1000
0000
0000
0000
0000
0000
1001
0000
0000
0000
0000
0000
0001
0000
0000
0200
0000
0000
,
0000
0000
0310
0000
1000
0001
0000
0000
0001
0000
1000
0100
0100
0001
0010
0000
,
0001
0000
000M
0000
1000
0000
M000
0000
0100
0000
0000
1000
0010
0000
0100
0002
,
0000
0000
0013
0000
0001
0100
0000
0000
0100
0000
2000
0000
3100
0010
1000
0001
,
0010
0000
0110
0000
1000
0011
0000
1000
0101
0000
0000
0000
2022
0000
0000
3033
,
1001
0000
0001
0000
1000
0100
0000
0000
0100
0000
1000
0010
0010
0001
0100
0100
,
4000
0000
0000
0000
0000
0000
0000
0000
3020
0000
0000
0000
0130
0001
0100
0001
0200
0000
0000
0000
0010
0000
0300
0000
1010
0000
0000
0000
1000
0000
0002
0000
,
0000
0000
0013
0000
0001
0100
0000
0000
0100
0000
0010
0000
0000
1000
0001
0000
,
0010
0000
0001
1000
0100
0010
0001
1000
0000
0001
0100
0010
2020
0000
0000
3030
,
1001
0000
0001
1000
0100
0010
0001
0000
0100
0000
0010
0000
2000
0000
3101
0000
,
1010
0000
0001
1000
0010
0100
0001
1000
0100
0000
0010
0100
1000
0020
0000
0000
,
0130
0000
0001
0100
0100
1000
0100
0100
0001
0000
0010
0100
2000
0000
3002
0000
,
0003
0000
1001
0000
0001
1010
0000
0001
1100
0000
0000
0000
2022
0000
0000
3033
,
1001
0000
1000
0001
0100
0010
1000
0000
0100
0000
0010
0000
0002
0000
1103
0000
,
0011
0000
1000
0001
0010
0100
1000
0001
0100
0000
0010
0100
0001
0020
0000
0000
,
0130
0000
1000
0000
0001
0000
0100
0000
0010
0000
1000
0100
0000
0010
0001
0000
,
1000
0000
1001
0000
0001
1010
0000
0001
4100
0000
0000
0000
0000
0000
3000
0000
,
0001
0000
1000
0001
0010
0000
0001
0100
0010
1000
0001
0000
0010
0000
0100
1000
,
0001
0000
0100
0000
0010
1000
0010
1000
0001
0010
0001
0010
0400
0000
0000
0300
,
2001
0000
3100
0100
0001
0000
0010
0010
2000
0000
0000
3001
0000
1000
0001
0010
,
0100
1000
0100
1000
0001
0100
0001
0100
0010
0000
1000
0001
0000
1000
0100
1000
,
0010
0100
0010
0100
0001
1000
0001
1000
0010
0010
0001
1000
0100
0100
0001
1000
,
0010
0010
0001
1000
0100
0100
0001
1000
0010
0010
0100
0100
0001
1000
0100
0010
,
0001
0000
1000
0010
0100
0001
0100
0001
1000
0000
0100
0010
0001
0000
0000
1000
,
0010
0000
1000
0001
0010
0100
0010
0100
1000
0001
1000
0001
0100
0000
0000
0010
,
1000
0000
0001
0010
0100
1000
0001
0000
1000
0010
1000
0010
0100
0000
0000
0000
,
0001
0000
1000
0100
0010
0000
0001
1000
0010
0100
0010
1000
0001
0000
0000
0000
,
1000
0100
0010
0001
1000
0000
0001
0010
0001
1000
0010
0100
0001
0000
0000
1000
,
0100
1000
0010
0100
0001
0000
0010
0001
0000
1000
0001
0100
0010
0000
1000
0000
,
0001
1000
0100
1000
0010
0100
0000
0001
0010
0100
0010
0001
1000
0010
0000
0000
,
0100
0000
0001
1000
0100
0000
1000
0001
0100
0010
1000
0001
0010
0100
0000
0000
,
1000
0001
0100
0000
0010
1000
0001
0010
0100
1000
0100
1000
0010
0M00
0010
0000
,
0001
0100
0010
1000
0001
0000
1000
0100
1000
0000
0001
0100
0010
0M00
0010
0000
,
0001
1000
0100
0010
0001
0000
1000
0010
0100
0000
0001
0010
0100
00M0
0100
0000
,
0001
0100
0010
1000
0001
0000
1000
0100
0010
0000
0001
0100
0010
0M00
0010
0000
,
0000
0000
0000
0000
0001
0000
0000
0000
1000
0000
0000
0000
0001
0000
0100
0000
0010
0000
1000
0000
0001
0000
0010
0M00
0010
0000
0000
0000
1000
0000
0000
0000
,
0001
0000
0010
0000
0100
0000
1000
0010
0100
0001
1000
0100
0010
0000
0001
0100
,
0010
0000
1000
0001
0010
0000
0100
1000
0001
0000
0100
0000
0110
0010
1000
0001
,
0000
0010
0000
0100
0000
1000
0000
0001
0200
0000
0300
0000
0040
0000
0000
0030
,
1001
0000
1000
0001
0100
0010
1000
0000
0100
0000
0010
0000
0002
0000
1103
0000
,
0011
0000
1000
0001
0010
0100
1000
0001
0100
0000
0010
0100
0001
0020
0000
0000
,
0130
0000
1000
0100
0100
0001
0100
0100
1000
0000
0010
0100
0002
0000
2003
0000
,
3000
0000
1001
0000
1000
0011
0000
1000
0101
0000
0000
0000
2022
0000
0000
3033
,
1001
0000
0001
1000
0100
0010
0001
0000
0100
0000
0010
0000
2000
0000
3101
0000
,
1010
0000
0001
1000
0010
0100
0001
1000
0100
0000
0010
0100
1000
0020
0000
0000
,
0130
0000
0001
0000
1000
0000
0100
0000
0010
0000
0001
0100
0000
0010
1000
0000
,
0001
0000
1001
0000
1000
0011
0000
1000
0101
0000
0000
0000
0101
0000
0000
0000
,
1001
0000
0001
1000
0100
0010
0001
0000
0100
0000
0010
0000
2000
0000
3101
0000
,
1010
0000
0001
1000
0010
0100
0001
1000
0100
0000
0010
0100
1000
0020
0000
0000
,
0130
0000
0001
0100
0100
1000
0100
0100
0001
0000
0010
0100
2000
0000
3002
0000
,
0003
0000
1001
0000
0001
1010
0000
0001
1100
0000
0000
0000
2022
0000
0000
3033
,
1001
0000
1000
0001
0100
0010
1000
0000
0100
0000
0010
0000
0002
0000
1103
0000
,
0011
0000
1000
0001
0010
0100
1000
0001
0100
0000
0010
0100
0001
0020
0000
0000
,
0130
0000
1000
0000
0001
0000
0100
0000
0010
0000
1000
0100
0000
0010
0001
0000
,
1000
0000
1001
0000
0001
1010
0000
0001
1100
0000
0000
0000
0000
0000
0000
0000
;

//---------------dance-single - ----------------
#NOTES:
     dance-single:
     :
     Beginner:
     1:
     0.075707,0.113688,0.000000,0.014323,0.000000,74.000000,74.000000,0.000000,2.000000,0.000000,0.000000,0.075707,0.113688,0.000000,0.014323,0.000000,74.000000,74.000000,0.000000,2.000000,0.000000,0.000000:
// measure 0
0000
0000
0000
0000
,  // measure 1
0000
0000
0000
0000
,  // measure 2
1000
0000
0000
0000
,  // measure 3
0001
0000
0000
0000
,  // measure 4
1000
0000
0000
0000
,  // measure 5
0010
0000
0000
0000
,  // measure 6
1000
0000
0000
0000
,  // measure 7
0001
0000
0000
0000
,  // measure 8
1000
0000
0000
0000
,  // measure 9
0200
0000
0000
0000
,  // measure 10
1300
0000
0000
0000
,  // measure 11
0001
0000
0000
0000
,  // measure 12
1000
0000
0000
0000
,  // measure 13
0010
0000
0000
0000
,  // measure 14
1000
0000
0000
0000
,  // measure 15
0001
0000
0000
0000
,  // measure 16
1000
0000
0000
0000
,  // measure 17
0100
0000
0000
0000
,  // measure 18
1000
0000
0001
0000
,  // measure 19
1000
0000
0000
0000
,  // measure 20
0001
0000
1000
0000
,  // measure 21
0001
0000
0000
0000
,  // measure 22
1000
0000
0010
0000
,  // measure 23
1000
0000
0000
0000
,  // measure 24
0001
0000
0100
0000
,  // measure 25
0001
0000
0000
0000
,  // measure 26
1000
0000
0000
0000
,  // measure 27
0001
0000
0000
0000
,  // measure 28
1000
0000
0000
0000
,  // measure 29
0010
0000
0000
0000
,  // measure 30
0100
0000
0000
0000
,  // measure 31
0001
0000
0000
0000
,  // measure 32
1000
0000
0000
0000
,  // measure 33
0100
0000
0000
0000
,  // measure 34
0010
0000
0000
0000
,  // measure 35
0001
0000
0000
0000
,  // measure 36
1000
0000
0000
0000
,  // measure 37
0001
0000
0000
0000
,  // measure 38
0100
0000
0000
0000
,  // measure 39
0010
0000
0000
0000
,  // measure 40
1000
0000
1000
0000
,  // measure 41
0001
0000
0001
0000
,  // measure 42
0010
0000
0010
0000
,  // measure 43
0100
0000
0100
0000
,  // measure 44
1000
0000
0001
0000
,  // measure 45
1000
0000
0001
0000
,  // measure 46
1000
0000
0001
0000
,  // measure 47
0200
0000
0000
0000
,  // measure 48
0310
0000
0000
0000
,  // measure 49
1000
0000
0000
0000
,  // measure 50
0001
0000
0000
0000
,  // measure 51
0010
0000
0000
0000
,  // measure 52
0100
0000
0000
0000
,  // measure 53
1000
0000
0000
0000
,  // measure 54
0010
0000
0000
0000
,  // measure 55
0100
0000
0000
0000
,  // measure 56
0001
0000
0000
0000
,  // measure 57
1000
0000
0000
0000
,  // measure 58
0100
0000
0000
0000
,  // measure 59
0010
0000
0000
0000
,  // measure 60
0001
0000
0000
0000
,  // measure 61
1000
0000
0000
0000
,  // measure 62
0010
0000
0000
0000
,  // measure 63
0100
0000
0001
0000
;

//---------------dance-single - ----------------
#NOTES:
     dance-single:
     :
     Easy:
     2:
     0.125837,0.159164,0.000000,0.042969,0.000000,123.000000,123.000000,0.000000,6.000000,0.000000,0.000000,0.125837,0.159164,0.000000,0.042969,0.000000,123.000000,123.000000,0.000000,6.000000,0.000000,0.000000:
0000
0000
0000
0000
,
0000
0000
0000
0000
,
1000
0000
0001
0000
,
0200
0000
0000
0000
,
0301
0000
1000
0000
,
0200
0000
0000
0000
,
1300
0000
0010
0000
,
0200
0000
0000
0000
,
0301
0000
0010
0000
,
0200
0000
0000
0000
,
1300
0000
0001
0000
,
1000
0000
0000
0000
,
0001
0000
1000
0000
,
0010
0000
0000
0000
,
1000
0000
0001
0000
,
2000
0000
0000
0000
,
3001
0000
0010
0000
,
0100
0000
0000
0000
,
1000
0001
1000
0000
,
0001
1000
0001
0000
,
1000
0000
1000
0000
,
0001
0000
0001
0000
,
1000
0010
1000
0000
,
0001
0100
0001
0000
,
1000
0000
0001
0000
,
0020
0000
0000
0000
,
0031
0000
1000
0000
,
0010
0000
0100
0000
,
0001
1000
0001
0000
,
1000
0100
1000
0000
,
0001
0100
0001
0000
,
1000
0010
1000
0000
,
0001
0000
1000
0000
,
0100
0000
0010
0000
,
0001
0000
1000
0000
,
0010
0000
0100
0000
,
0001
0000
1000
0000
,
0001
0000
1000
0000
,
0100
0000
0010
0000
,
0100
0000
0010
0000
,
0001
1000
0001
0000
,
1000
0001
1000
0000
,
0001
0100
0001
0000
,
1000
0010
1000
0000
,
0001
0010
0100
0000
,
1000
0010
0100
0000
,
0001
1000
0000
0000
,
0010
0000
0010
0000
,
1000
0000
0001
0000
,
0010
0000
0000
0000
,
0001
0000
1000
0000
,
0100
0000
0000
0000
,
1000
0000
0001
0000
,
0010
0000
0000
0000
,
0001
0000
1000
0000
,
0100
0000
0100
0000
,
0010
0000
0001
0000
,
1000
0000
0000
0000
,
0001
0000
1000
0000
,
0010
0000
0000
0000
,
1000
0000
0001
0000
,
0100
0000
0000
0000
,
0010
0000
1000
0000
,
0001
0000
0010
0000
;

//---------------dance-single - ----------------
#NOTES:
     dance-single:
     :
     Medium:
     4:
     0.194383,0.227377,0.035807,0.085938,0.000000,190.000000,185.000000,5.000000,12.000000,0.000000,0.000000,0.194383,0.227377,0.035807,0.085938,0.000000,190.000000,185.000000,5.000000,12.000000,0.000000,0.000000:
0000
0000
0000
0000
,
0000
0000
0000
0000
,
1000
0001
1000
0001
,
0200
0000
0000
0000
,
0301
1000
0001
1000
,
0200
0000
0000
0000
,
1300
0001
1000
0001
,
0020
0000
0000
0000
,
0031
1000
0001
1000
,
0100
0000
0100
0000
,
1000
0010
0100
0001
,
2000
0000
0000
0000
,
3001
0010
0100
1000
,
0002
0000
0000
0000
,
1003
0010
1000
0010
,
0200
0000
0000
0000
,
0301
0010
0001
0010
,
0100
0000
0100
0000
,
1001
0000
1000
0000
,
0010
0000
0100
0000
,
0101
0001
1000
0100
,
1000
0001
0100
0000
,
1001
0000
0001
0000
,
0010
0000
0100
0000
,
1100
1000
0001
0100
,
0010
1000
0001
0000
,
1000
0000
0001
0000
,
0010
0000
0200
0000
,
1300
0001
0100
0001
,
1000
0100
1000
0001
,
0100
0010
0100
0001
,
1000
0100
0010
0100
,
1000
0001
0100
0001
,
1000
0100
1000
0001
,
0100
0010
1000
0001
,
0010
0100
1000
0001
,
1001
0001
0100
0001
,
1000
0100
1000
0001
,
0100
0010
1000
0001
,
0010
0100
1000
0001
,
0100
0000
0100
0000
,
0010
0000
0010
0000
,
1000
0000
1000
0000
,
0001
0000
0001
0000
,
1000
0100
1000
0100
,
0010
0001
0010
0001
,
1000
0010
1000
0010
,
0200
0000
0000
0000
,
0301
1000
0001
0010
,
0100
1000
0001
1000
,
0020
0000
0100
0000
,
1000
0000
0100
0000
,
1030
0100
0010
0001
,
1000
0010
0100
0001
,
0020
0000
0100
0000
,
0001
0000
0100
0000
,
0031
1000
0010
0100
,
0001
1000
0001
0010
,
0200
0000
1000
0000
,
0010
0000
1000
0000
,
0310
0001
1000
0010
,
0100
0001
1000
0100
,
0020
0000
0001
0000
,
0100
0000
0031
0000
;

//---------------dance-single - ----------------
#NOTES:
     dance-single:
     :
     Hard:
     7:
     0.386720,0.386541,0.064453,0.136068,0.003581,378.000000,369.000000,9.000000,19.000000,0.000000,0.000000,0.386720,0.386541,0.064453,0.136068,0.003581,378.000000,369.000000,9.000000,19.000000,0.000000,0.000000:
0000
0000
0000
0000
,
0000
0000
0000
0000
,
1000
0001
0100
0010
1000
0000
0001
0000
,
2000
3002
0003
0000
,
1000
0001
0010
0100
1000
0000
0001
0000
,
1000
0001
1000
0010
0100
0000
1001
0000
,
0001
1000
0100
0010
0001
0000
1000
0010
,
0100
0000
0000
0000
0001
0000
0000
0000
2000
0000
0000
3000
1001
0000
0000
0000
,
0001
0100
0010
1000
0001
0000
0100
0000
,
0010
0000
0100
0000
0001
0000
1000
0000
0001
1000
0001
0000
0020
0000
0000
0000
,
0130
1000
0001
0100
0010
0000
1000
0000
,
0002
0010
1003
0001
,
1000
0010
0100
0001
1000
0100
0010
0100
,
1000
0010
0100
0001
1000
0000
1001
0000
,
1000
0001
0010
0100
1000
0000
0001
0000
,
2000
0010
3001
0101
,
0100
0010
1000
0001
0010
0000
0100
0000
,
2000
3002
1003
1001
,
1000
0010
2000
0000
3001
0100
0002
0000
,
1003
0100
2000
0000
3001
0100
0002
0000
,
1003
0010
0100
0001
,
1000
0100
0010
0110
,
0001
0100
0002
0000
1003
0100
2000
0000
,
3001
0010
0002
0000
1003
0010
2000
0000
,
3001
0100
0010
1000
0001
0000
1000
0000
,
0001
0010
0100
1000
0001
0000
0000
0000
,
1000
0001
1000
0000
0001
0100
0001
0000
,
0100
0010
0100
0000
0040
0000
0000
0000
,
1030
0001
1000
0100
0010
0001
0100
0010
,
1000
0001
1000
0100
0010
0000
0001
0000
,
1000
0001
1000
0010
0100
0001
1000
0100
,
0010
0100
1000
0010
0100
0001
1000
0100
,
0010
0001
1000
0010
,
0100
0001
1000
0100
0010
0001
1000
0000
,
0010
0100
0001
1000
,
0100
0010
0001
1000
0010
0100
0001
0000
,
1000
0001
1000
0100
0010
0000
0001
0000
,
1000
0001
1000
0010
0100
0000
0001
0000
,
1000
0100
1000
0001
0100
0000
0010
0000
,
1000
0001
1000
0010
0100
0000
0001
0000
,
1000
0001
0100
0010
1000
0001
0010
0100
,
1000
0001
1000
0010
0100
0001
1000
0100
,
1000
0010
0100
0001
1000
0100
0010
0001
,
1000
0010
0100
0010
1000
0001
0010
0100
,
1000
0001
1000
0010
0100
0000
0001
0000
,
1000
0100
0010
0001
1000
0000
0010
0000
,
0100
0001
1000
0100
0010
0000
0001
0000
,
1000
1000
0001
0001
,
1001
0001
0100
0010
1000
0001
0010
0100
,
1000
0000
0001
0100
0010
1000
0001
0000
,
1000
0001
2000
0000
3001
0100
0002
0000
,
1003
0100
2000
0000
3001
0000
1001
0000
,
1000
0010
0100
0001
1000
0100
0010
0000
,
0001
1000
0010
0100
,
0001
1000
0100
0010
0100
1000
0001
0100
,
0010
1000
0001
0010
0100
0000
0100
0000
,
1000
0001
1000
0010
0100
0001
1000
0000
,
0100
0000
0010
0000
0001
1000
0001
0100
,
0010
0000
1000
0001
1000
0100
0010
0000
,
0001
1000
0010
0000
0100
0000
1001
0000
,
1000
0001
1000
0100
0010
0001
1000
0000
,
0010
0000
0100
0001
1000
0100
0010
0000
,
0001
1000
0001
0000
1000
0010
0100
0000
,
0001
1000
0100
0000
0010
0000
0000
0000
;
