#VERSION:0.83;
#TITLE:Loaded Gun;
#SUBTITLE:;
#ARTIST:Joe Stone & Monn;
#TITLETRANSLIT:;
#SUBTITLETRANSLIT:;
#ARTISTTRANSLIT:;
#GENRE:;
#ORIGIN:;
#CREDIT:;
#BANNER:LGbanner.png;
#BACKGROUND:LGbg.png;
#PREVIEWVID:;
#JACKET:;
#CDIMAGE:;
#DISCIMAGE:;
#LYRICSPATH:;
#CDTITLE:;
#MUSIC:Loaded Gun.ogg;
#OFFSET:0.605000;
#SAMPLESTART:54.229000;
#SAMPLELENGTH:15.600000;
#SELECTABLE:YES;
#DISPLAYBPM:123.000000;
#BPMS:0.000=123.000;
#STOPS:;
#DELAYS:;
#WARPS:;
#TIMESIGNATURES:0.000=4=4;
#TICKCOUNTS:0.000=4;
#COMBOS:0.000=1;
#SPEEDS:0.000=1.000=0.000=0;
#SCROLLS:0.000=1.000,
87.000=0.000,
87.250=1.500,
87.500=0.000,
87.750=1.500,
88.000=0.000,
88.250=1.500,
88.500=1.000,
103.000=0.000,
103.250=1.500,
103.500=0.000,
103.750=1.500,
104.000=0.000,
104.250=1.500,
104.500=1.000,
115.000=0.000,
115.250=1.500,
115.500=0.000,
115.750=1.500,
116.000=0.000,
116.250=1.500,
116.500=1.000,
119.000=0.000,
119.250=1.500,
119.500=0.000,
119.750=1.500,
120.000=0.000,
120.250=1.500,
120.500=1.000,
131.000=0.000,
131.250=1.500,
131.500=0.000,
131.750=1.500,
132.000=0.000,
132.250=1.500,
132.500=1.000,
135.000=0.000,
135.250=1.500,
135.500=0.000,
135.750=1.500,
136.000=0.000,
136.250=1.500,
136.500=1.000,
147.000=0.000,
147.250=1.500,
147.500=0.000,
147.750=1.500,
148.000=0.000,
148.250=1.500,
148.500=1.000,
163.000=0.000,
163.250=1.500,
163.500=0.000,
163.750=1.500,
164.000=0.000,
164.250=1.500,
164.500=1.000,
211.000=0.000,
211.250=1.500,
211.500=0.000,
211.750=1.500,
212.000=0.000,
212.250=1.500,
212.500=1.000,
215.000=0.000,
215.250=1.500,
215.500=0.000,
215.750=1.500,
216.000=0.000,
216.250=1.500,
216.500=1.000,
227.000=0.000,
227.250=1.500,
227.500=0.000,
227.750=1.500,
228.000=0.000,
228.250=1.500,
228.500=1.000,
231.000=0.000,
231.250=1.500,
231.500=0.000,
231.750=1.500,
232.000=0.000,
232.250=1.500,
232.500=1.000,
243.000=0.000,
243.250=1.500,
243.500=0.000,
243.750=1.500,
244.000=0.000,
244.250=1.500,
244.500=1.000;
#FAKES:;
#LABELS:0.000=Song Start;
#BGCHANGES:;
#KEYSOUNDS:;
#ATTACKS:
;

//---------------dance-single - Maxx----------------
#NOTEDATA:;
#CHARTNAME:Maxx;
#STEPSTYPE:dance-single;
#DESCRIPTION:Maxx;
#CHARTSTYLE:;
#DIFFICULTY:Challenge;
#METER:9;
#RADARVALUES:0.447979,0.524727,0.023460,0.609966,0.355813,401.000000,398.000000,3.000000,78.000000,0.000000,0.000000,2.000000,0.000000,0.000000,0.447979,0.524727,0.023460,0.609966,0.355813,401.000000,398.000000,3.000000,78.000000,0.000000,0.000000,2.000000,0.000000,0.000000;
#CREDIT:Maxx;
#DISPLAYBPM:123.000000;
#NOTES:
// measure 0
0000
0000
0000
0000
,  // measure 1
0000
0000
0000
0000
,  // measure 2
0000
0000
0000
0000
,  // measure 3
0000
0000
0000
0000
,  // measure 4
0001
1000
0000
0200
0000
0000
0310
0000
0002
0000
0000
0000
0003
0000
0000
0000
,  // measure 5
1000
0001
0100
0001
0010
0200
0000
2300
,  // measure 6
0000
3020
0030
0000
0000
0000
0000
0000
,  // measure 7
0000
0000
0000
0000
,  // measure 8
1000
0001
0000
0200
0000
0000
0310
0000
2000
0000
0000
0000
3000
0000
0000
0000
,  // measure 9
0001
1000
0100
1000
0010
0200
0000
0302
,  // measure 10
0000
0023
0030
0000
0000
0001
2000
0000
,  // measure 11
3200
0000
0300
0000
0000
0000
1000
0000
0001
0100
0010
0000
0000
0000
0000
0000
,  // measure 12
1000
0001
0000
0200
0000
0000
0310
0000
2010
0000
0000
0000
3001
0000
0000
0000
,  // measure 13
0001
0000
0000
1000
0000
0000
0100
0000
0000
1000
0000
0000
0010
0000
0000
0200
0000
0000
0000
0000
0301
0000
1000
0000
,  // measure 14
0100
0000
0020
0000
0000
0000
0031
0000
2001
0000
0000
0000
3010
0000
0000
0010
,  // measure 15
0000
0000
1000
0000
0001
0000
0100
0000
0001
0010
0100
0000
1000
0000
0000
0000
,  // measure 16
0001
1000
0000
0020
0000
0000
0130
0000
0102
0000
0000
0000
0000
0000
1003
0000
,  // measure 17
0100
1000
0010
0100
0001
0020
0000
0230
,  // measure 18
0000
0000
0000
1300
0000
0001
0000
0001
,  // measure 19
0000
0100
0000
0100
0000
0010
0000
0010
,  // measure 20
0000
0000
1000
0001
0100
0000
0000
0010
0000
0000
1000
0000
0002
0000
0000
0000
,  // measure 21
0003
0000
1000
0100
0020
0000
0000
0230
0000
0000
1300
0000
0001
0000
0001
0000
,  // measure 22
0001
0100
1000
0100
0010
2000
0000
3100
,  // measure 23
0001
0100
0010
0002
1000
0000
0103
0000
,  // measure 24
0001
0000
1000
0001
0010
0000
0000
0100
0000
0000
0010
0000
0002
0000
0000
0000
,  // measure 25
1003
0000
0001
1000
0020
0000
0000
0230
0000
0000
0310
0000
1000
0000
1000
0000
,  // measure 26
1000
0000
0001
0010
0100
0000
1000
0000
0100
0000
1000
0000
0001
0000
0001
2000
,  // measure 27
0000
3020
0000
1030
0002
0000
0023
0000
,  // measure 28
0030
0000
0001
1000
0200
0000
0000
0320
0100
0000
0031
0000
1000
0000
1000
0000
,  // measure 29
1000
0000
0001
1000
0020
0000
0000
0230
0010
0000
0301
0000
1000
0000
1000
0000
,  // measure 30
1000
0100
0001
0100
0010
0002
0000
0103
,  // measure 31
1000
0000
0100
0000
0010
0000
2000
0000
0001
0000
0000
0000
3200
0000
0000
1300
,  // measure 32
0001
0000
1000
0010
0200
0000
0000
0320
0100
0000
1030
0000
0001
0000
0001
0000
,  // measure 33
0001
0000
1000
0100
0020
0000
0000
0230
0010
0000
1300
0000
0001
0000
0001
0000
,  // measure 34
0001
0100
1000
0100
0010
2000
0000
3100
,  // measure 35
0001
0000
0100
0000
0010
0000
0002
0000
1000
0000
0000
0000
0203
0000
0000
0301
,  // measure 36
1000
0000
0001
1000
0200
0000
0000
0320
0100
0000
0031
0000
1000
0000
1000
0000
,  // measure 37
1000
0000
0001
0100
0020
0000
1000
0100
0000
0000
0001
0100
0000
0000
1000
0001
,  // measure 38
0030
0100
0001
0100
0010
0002
0000
0103
,  // measure 39
1000
0000
0100
0000
0010
0000
2000
0000
0001
0000
0000
0000
3200
0000
0000
1300
,  // measure 40
0001
0000
1000
0001
0200
0000
0000
0320
0100
0000
1030
0000
0001
0000
0001
0000
,  // measure 41
0001
0000
1000
0100
0020
0000
0001
0100
0000
0000
1000
0100
0000
0000
0001
1000
,  // measure 42
0030
0100
1000
0100
0010
2000
0000
3100
,  // measure 43
0001
0000
0100
0000
0010
0000
0002
0000
1000
0000
0000
0000
0203
0000
0000
0310
,  // measure 44
1000
0000
0000
0000
0000
0000
0000
0000
0000
0000
0000
0000
0001
0000
0000
0000
0010
0000
0000
0000
0000
0000
0000
0000
0001
0000
0000
0000
0000
0000
0000
0000
0001
0000
0000
0000
0000
0000
0000
0000
1000
0000
0000
0000
0000
0100
0000
0000
0000
0000
0000
0000
0000
0010
0000
0000
0000
0000
0000
0000
0000
0010
0000
0000
,  // measure 45
0000
0000
0000
0000
0000
0001
0000
0000
1000
0000
0000
0000
0000
0010
0000
0000
0000
0000
0000
0000
0000
1000
0000
0000
0001
0000
0000
0000
0000
0000
0000
0000
0100
0000
0000
0000
0000
0000
0000
0000
0000
0000
0000
0000
0000
0000
0000
0000
0010
0000
0000
0000
0000
0000
0000
0000
0000
0000
0000
0000
0010
0000
0000
0000
,  // measure 46
0000
0000
0000
0000
0000
0000
0000
0000
0000
0000
0000
0000
0000
0000
0000
0000
1000
0000
0000
0000
0000
0000
0000
0000
1000
0000
0000
0000
0000
0000
0000
0000
0000
0000
0000
0000
0000
0000
0000
0000
0001
0000
0000
0000
0000
0010
0000
0000
0000
0000
0000
0000
0000
0100
0000
0000
0000
0000
0000
0000
0000
0100
0000
0000
,  // measure 47
0000
0000
0000
0000
0000
1000
0000
0000
0010
0000
0000
0000
0000
0100
0000
0000
0000
0000
0000
0000
0000
0010
0000
0000
1000
0000
0000
0000
0000
0000
0000
0000
0002
0000
0000
0000
0000
0000
0000
0000
0000
0000
0000
0000
0000
0000
0000
0000
1003
0000
0000
0000
0000
0000
0000
0000
0000
0000
0000
0000
1000
0000
0000
0000
,  // measure 48
0002
0000
0000
0000
0000
0000
0000
0000
0000
0000
0000
0000
0000
0000
0000
0000
0013
0000
0000
0000
0000
0000
0000
0000
0010
0000
0000
0000
0000
0000
0000
0000
0000
0000
0000
0000
0000
0000
0000
0000
0001
0000
0000
0000
0000
1000
0000
0000
0000
0000
0000
0000
0000
0100
0000
0000
0000
0000
0000
0000
0000
0100
0000
0000
,  // measure 49
0000
0000
0000
0000
0000
1000
0000
0000
0001
0000
0000
0000
0000
0100
0000
0000
0000
0000
0000
0000
0000
0001
0000
0000
1000
0000
0000
0000
0000
0000
0000
0000
0020
0000
0000
0000
0000
0000
0000
0000
0000
0000
0000
0000
0000
0000
0000
0000
4030
0000
0000
0000
0000
0000
0000
0000
0000
0000
0000
0000
0000
0000
0000
0000
,  // measure 50
3004
0000
0000
0000
0000
0000
0000
0000
0000
0000
0000
0000
0000
0000
0000
0000
0013
0000
0000
0000
0000
0000
0000
0000
0010
0000
0000
0000
0000
0000
0000
0000
0000
0000
0000
0000
0000
0000
0000
0000
0001
0000
0000
0000
0000
1000
0000
0000
0000
0000
0000
0000
0000
0100
0000
0000
0000
0000
0000
0000
0000
0100
0000
0000
,  // measure 51
0000
0000
0000
0000
0000
1000
0000
0000
0001
0000
0000
0000
0000
0100
0000
0000
0000
0000
0000
0000
0000
0001
0000
0000
1000
0000
0000
0000
0000
0010
0000
0000
0000
0000
0000
0000
0000
1000
0000
0000
0001
0000
0000
0000
0000
0010
0000
0000
0000
0000
0000
0000
0000
0001
0000
0000
1000
0000
0000
0000
0000
0100
0000
0000
,  // measure 52
0000
0000
1000
0001
0200
0000
0000
0320
0100
0000
1030
0000
0001
0000
0001
0000
,  // measure 53
0001
0000
1000
0001
0020
0000
0000
0230
0010
0000
1300
0000
0001
0000
0001
0000
,  // measure 54
0001
0100
1000
0100
0010
2000
0000
3100
,  // measure 55
0001
0000
0100
0000
0010
0000
0002
0000
1000
0000
0000
0000
0203
0000
0000
0301
,  // measure 56
1000
0000
0001
0010
0200
0000
0000
0320
0100
0000
0031
0000
1000
0000
1000
0000
,  // measure 57
1000
0000
0001
0100
0020
0000
0000
0230
0010
0000
0301
0000
1000
0000
1000
0000
,  // measure 58
1000
0100
0001
0100
0010
0002
0000
0103
,  // measure 59
1000
0000
0100
0000
0010
0000
2000
0000
0001
0000
0000
0000
3200
0000
0000
1300
,  // measure 60
0001
0000
1000
0001
0200
0000
0000
0320
0000
0000
1030
0000
0001
0000
0001
0000
,  // measure 61
0001
0000
0000
0000
;

//---------------dance-single - ----------------
#NOTEDATA:;
#CHARTNAME:;
#STEPSTYPE:dance-single;
#DESCRIPTION:;
#CHARTSTYLE:;
#DIFFICULTY:Beginner;
#METER:1;
#RADARVALUES:0.117301,0.119745,0.000000,0.078201,0.000000,105.000000,105.000000,0.000000,10.000000,0.000000,0.000000,0.000000,0.000000,0.000000,0.117301,0.119745,0.000000,0.078201,0.000000,105.000000,105.000000,0.000000,10.000000,0.000000,0.000000,0.000000,0.000000,0.000000;
#CREDIT:Maxx;
#DISPLAYBPM:123.000000;
#NOTES:
0000
0000
0000
0000
,
0000
0000
0000
0000
,
0000
0000
0000
0000
,
0000
0000
0000
0000
,
0000
0001
0000
1000
,
0000
0100
0000
0010
,
0000
0001
0000
0000
,
0000
0000
0000
0000
,
0000
1000
0000
0001
,
0000
0100
0000
0010
,
0000
1000
0000
0002
,
0000
0000
0000
0000
,
0000
1003
0000
0100
,
0000
0010
0000
0001
,
0000
2000
0000
0000
,
0000
0000
0000
0000
,
0000
3001
0000
0100
,
0000
0010
0000
1000
,
0000
0100
0000
0100
,
0000
0100
0000
0100
,
0000
0010
0000
0001
,
0000
1000
0000
0020
,
0000
1030
0000
0001
,
0000
0010
0000
0100
,
0000
1000
0000
0001
,
0000
0100
0000
0020
,
0000
1030
0000
0001
,
0000
0010
0000
0100
,
0000
1000
0000
1000
,
0000
0001
0000
0001
,
0000
0100
0000
0100
,
0000
0010
0000
0010
,
0000
1000
0000
1000
,
0000
0001
0000
0001
,
0000
0010
0000
0010
,
0000
0100
0000
0100
,
0000
2000
0000
0001
,
0000
3002
0000
1000
,
0000
1003
0000
0001
,
0000
0100
0000
0010
,
0000
2000
0000
0001
,
0000
3002
0000
1000
,
0000
0103
0000
0010
,
0000
1000
0000
0001
,
0000
0010
0000
0010
,
0000
0001
0000
0001
,
0000
1000
0000
1000
,
0000
0010
0000
0010
,
0000
0100
0000
0100
,
0000
0001
0000
0001
,
0000
1000
0000
1000
,
0000
0200
0000
0000
,
0000
1300
0000
1000
,
0000
0001
0000
0001
,
0000
0100
0000
0100
,
0000
0010
0000
0010
,
0000
1000
0000
1000
,
0000
0001
0000
0001
,
0000
0010
0000
0010
,
0000
0100
0000
0100
,
0000
1000
0000
2000
,
0000
3000
0000
0000
;

//---------------dance-single - ----------------
#NOTEDATA:;
#CHARTNAME:;
#STEPSTYPE:dance-single;
#DESCRIPTION:;
#CHARTSTYLE:;
#DIFFICULTY:Easy;
#METER:3;
#RADARVALUES:0.196619,0.238512,0.031280,0.070381,0.000000,176.000000,172.000000,4.000000,9.000000,0.000000,0.000000,0.000000,0.000000,0.000000,0.196619,0.238512,0.031280,0.070381,0.000000,176.000000,172.000000,4.000000,9.000000,0.000000,0.000000,0.000000,0.000000,0.000000;
#CREDIT:Maxx;
#DISPLAYBPM:123.000000;
#NOTES:
0000
0000
0000
0000
,
0000
0000
0000
0000
,
0000
0000
0000
0000
,
0000
0000
0000
0000
,
0000
1000
0001
1000
,
0001
0100
0010
0100
,
0010
1000
0000
0000
,
0000
0000
0000
0000
,
0000
0001
1000
0001
,
1000
0100
0010
0001
,
0000
1000
0000
0001
,
0000
0200
0000
0000
,
0000
0310
1000
0010
,
1000
0001
0100
0001
,
0100
0020
1000
0000
,
1000
0230
0001
0000
,
0301
1000
0000
0100
,
0000
0010
0001
1000
,
0010
0100
0001
1000
,
0000
1000
0000
1000
,
0000
0001
1000
0001
,
1000
0100
0010
0100
,
0010
0002
0000
1000
,
0000
1000
0000
1000
,
0000
1003
0010
0100
,
0001
1000
0100
0010
,
0000
0010
0001
1000
,
0010
0100
0001
1000
,
0000
1001
0001
1000
,
0000
1001
1000
0001
,
0000
0010
0100
0010
,
0100
1000
0001
1000
,
0001
1001
0001
1000
,
0000
1001
1000
0001
,
0000
0001
1000
0010
,
0100
0001
1000
0100
,
0010
0001
1000
0010
,
0000
0100
0001
0100
,
0001
1000
0000
0001
,
0000
0010
0000
0100
,
0000
1000
0001
0100
,
0000
0010
1000
0010
,
1000
0001
0000
0100
,
0000
0010
0000
1000
,
0000
0002
1000
0000
,
1000
0000
1000
0000
,
1003
2000
0001
0000
,
0001
0000
0001
0000
,
3001
0200
0010
0000
,
0010
0000
0310
1000
,
0001
0020
0100
0000
,
0100
0000
0100
0000
,
0031
1000
0001
1000
,
0000
0001
1000
0001
,
0000
0100
0010
1000
,
0001
0010
0100
1000
,
0001
0100
0010
0100
,
0000
0010
0100
0010
,
0000
1000
0001
0010
,
0100
1000
0001
0100
,
0010
2000
0001
0001
,
3000
0000
0000
0000
;

//---------------dance-single - ----------------
#NOTEDATA:;
#CHARTNAME:;
#STEPSTYPE:dance-single;
#DESCRIPTION:;
#CHARTSTYLE:;
#DIFFICULTY:Medium;
#METER:6;
#RADARVALUES:0.328443,0.357768,0.000000,0.000000,0.000000,294.000000,294.000000,0.000000,0.000000,0.000000,0.000000,0.000000,0.000000,0.000000,0.328443,0.357768,0.000000,0.000000,0.000000,294.000000,294.000000,0.000000,0.000000,0.000000,0.000000,0.000000,0.000000,0.000000;
#CREDIT:Maxx;
#DISPLAYBPM:123.000000;
#NOTES:
0000
0000
0000
0000
,
0000
0000
0000
0000
,
0000
0000
0000
0000
,
0000
0000
0000
0000
,
0001
1000
0100
0010
0001
0000
0000
0000
,
1000
0001
0100
0010
1000
0001
0000
0010
,
0000
0100
0000
0000
0000
0000
0000
0000
,
0000
0000
0000
0000
,
1000
0001
0100
0010
1000
0000
0000
0000
,
0001
1000
0010
0100
0001
1000
0000
0100
,
0000
0010
0000
0000
0000
0001
1000
0000
,
0010
0000
0000
0100
0001
0000
0000
0000
,
1000
0000
0001
0010
0001
0000
1000
0100
,
1000
0001
0100
0010
,
1000
0000
0001
0010
0001
0000
1000
0100
,
1000
0001
0100
0010
,
1000
0000
0001
0010
0001
0000
1000
0100
,
1000
0001
0100
0010
1000
0001
0000
0010
,
0000
0100
0000
1000
0000
0001
0000
0001
,
0000
1000
0000
1000
0000
0010
0000
0010
,
0000
0100
0001
0000
1000
0000
0100
0000
,
0010
0000
0001
0000
1000
0000
0010
0010
,
0010
1000
0001
0010
,
0100
1000
0001
0100
,
0010
1000
0001
0010
,
0100
0000
1000
0000
0001
0000
0100
0100
,
0100
0010
1000
0001
,
0010
0100
1000
0001
,
0000
0000
1000
0001
1000
0001
0100
0100
,
0100
0000
0001
1000
0001
1000
0100
0100
,
0100
1000
0001
0100
,
0010
1000
0001
0010
,
0100
0000
1000
0001
1000
0001
0100
0100
,
0100
0000
0001
1000
0001
1000
0010
0010
,
0010
1000
0001
0010
,
0100
1000
0001
0100
,
0010
0000
1000
0001
1000
0001
0100
0100
,
0100
0001
1000
0100
,
0010
0001
1000
0010
,
0100
0001
1000
0100
,
0010
0000
0001
1000
0001
1000
0010
0010
,
0010
0100
0001
1000
,
0100
0010
0001
1000
,
0010
0100
0001
1000
,
0100
0000
0010
0001
0010
0000
0100
1000
,
0100
0000
1000
0001
1000
0000
0001
0100
,
0001
0000
1000
0010
1000
0000
0001
0100
,
0001
0000
1000
0100
1000
0000
0001
0010
,
0001
0000
1000
0010
1000
0000
0001
0100
,
0001
0000
1000
0100
1000
0000
0001
0010
,
0100
0100
1000
0001
1000
0000
0001
0100
,
0001
0000
1000
0010
1000
0000
0001
0010
,
0100
0000
1000
0001
1000
0001
0100
0100
,
0100
0000
0001
1000
0001
1000
0100
0100
,
0100
0000
1000
0001
0100
0000
0001
1000
,
0100
0000
1000
0001
0010
0000
0100
0000
,
0100
0000
1000
0001
1000
0001
0100
0100
,
0100
0000
0001
1000
0001
1000
0100
0100
,
0100
0000
1000
0001
0010
0000
0001
1000
,
0010
0000
1000
0001
0100
0000
0010
0000
,
0010
0000
1000
0001
1000
0001
0100
0100
,
0100
0000
0000
0000
;

//---------------dance-single - Maxx----------------
#NOTEDATA:;
#CHARTNAME:;
#STEPSTYPE:dance-single;
#DESCRIPTION:Maxx;
#CHARTSTYLE:;
#DIFFICULTY:Hard;
#METER:8;
#RADARVALUES:0.427870,0.453173,0.023460,0.594326,0.215052,383.000000,380.000000,3.000000,76.000000,0.000000,0.000000,2.000000,0.000000,0.000000,0.427870,0.453173,0.023460,0.594326,0.215052,383.000000,380.000000,3.000000,76.000000,0.000000,0.000000,2.000000,0.000000,0.000000;
#CREDIT:;
#DISPLAYBPM:123.000000;
#NOTES:
0000
0000
0000
0000
,
0000
0000
0000
0000
,
0000
0000
0000
0000
,
0000
0000
0000
0000
,
0001
1000
0000
0200
0000
0000
0310
0000
0002
0000
0000
0000
0003
0000
0000
0000
,
1000
0001
0100
0001
0010
0200
0000
2300
,
0000
3020
0030
0000
0000
0000
0000
0000
,
0000
0000
0000
0000
,
1000
0001
0000
0200
0000
0000
0310
0000
2000
0000
0000
0000
3000
0000
0000
0000
,
0001
1000
0100
1000
0010
0200
0000
0302
,
0000
0023
0030
0000
0000
0001
2000
0000
,
3200
0000
0300
0000
0000
0000
1000
0000
0001
0100
0010
0000
0000
0000
0000
0000
,
1000
0001
0000
0200
0000
0000
0310
0000
2010
0000
0000
0000
3001
0000
0000
0000
,
0001
0000
0000
1000
0000
0000
0100
0000
0000
1000
0000
0000
0010
0000
0000
0200
0000
0000
0000
0000
0301
0000
1000
0000
,
0100
0000
0020
0000
0000
0000
0031
0000
2001
0000
0000
0000
3010
0000
0000
0010
,
0000
0000
1000
0000
0001
0000
0100
0000
0001
0010
0100
0000
1000
0000
0000
0000
,
0001
1000
0000
0020
0000
0000
0130
0000
0102
0000
0000
0000
0000
0000
1003
0000
,
0100
1000
0010
0100
0001
0020
0000
0230
,
0000
0000
0000
1300
0000
0001
0000
0001
,
0000
0100
0000
0100
0000
0010
0000
0010
,
0000
0000
1000
0001
0100
0000
0000
0010
0000
0000
1000
0000
0002
0000
0000
0000
,
0003
0000
1000
0100
0020
0000
0000
0230
0000
0000
1300
0000
0001
0000
0001
0000
,
0001
0100
1000
0100
0010
2000
0000
3100
,
0001
0100
0010
0002
1000
0000
0103
0000
,
0001
0000
1000
0001
0010
0000
0000
0100
0000
0000
0010
0000
0002
0000
0000
0000
,
1003
0000
0001
1000
0020
0000
0000
0230
0000
0000
0310
0000
1000
0000
1000
0000
,
1000
0000
0001
0010
0100
0000
1000
0000
0100
0000
1000
0000
0001
0000
0001
2000
,
0000
3020
0000
1030
0002
0000
0023
0000
,
0030
0000
0001
1000
0200
0000
0000
0320
0100
0000
0031
0000
1000
0000
1000
0000
,
1000
0000
0001
1000
0020
0000
0000
0230
0010
0000
0301
0000
1000
0000
1000
0000
,
1000
0100
0001
0100
0010
0002
0000
0103
,
1000
0000
0100
0000
0010
0000
2000
0000
0001
0000
0000
0000
3200
0000
0000
1300
,
0001
0000
1000
0010
0200
0000
0000
0320
0100
0000
1030
0000
0001
0000
0001
0000
,
0001
0000
1000
0100
0020
0000
0000
0230
0010
0000
1300
0000
0001
0000
0001
0000
,
0001
0100
1000
0100
0010
2000
0000
3100
,
0001
0000
0100
0000
0010
0000
0002
0000
1000
0000
0000
0000
0203
0000
0000
0301
,
1000
0000
0001
1000
0200
0000
0000
0320
0100
0000
0031
0000
1000
0000
1000
0000
,
1000
0001
0100
0000
0010
0000
1000
0000
,
0001
0010
0100
1000
0001
0200
0000
0310
,
1000
0000
0001
0000
0010
0000
0200
0000
1000
0000
0300
0000
0200
0000
0000
1300
,
0001
0000
1000
0001
0200
0000
0000
0320
0100
0000
1030
0000
0001
0000
0001
0000
,
0001
1000
0100
0000
0010
0000
0001
0000
,
1000
0010
0100
0001
1000
0200
0000
0310
,
0001
0000
0100
0000
0010
0000
2000
0000
0002
0000
3000
0000
0203
0000
0000
0310
,
1000
0000
0000
0001
0010
0000
0001
0000
0001
0000
1000
0000
0100
0000
0010
0000
,
0001
0000
1000
0000
0001
0000
0000
0000
0100
0000
0000
0000
0010
0000
0000
0010
,
0000
0000
1000
1000
0000
0001
0010
0100
,
1000
0000
0001
0000
0100
0000
0010
0000
2000
0000
0000
0000
3001
0000
0000
0001
,
0200
0000
0310
0010
0000
1000
0001
0010
,
0100
0000
1000
0000
0001
0000
0100
0000
0010
0000
0000
1000
0004
0000
0000
0000
,
4003
0000
3100
0100
0000
1000
0001
0100
,
0010
1000
0001
0010
0100
0010
0001
1000
,
0010
0000
1000
0001
0200
0000
0000
0320
0100
0000
1030
0000
0001
0000
0001
0000
,
0001
0000
1000
0001
0020
0000
0000
0230
0010
0000
1300
0000
0001
0000
0001
0000
,
0001
0100
1000
0100
0010
2000
0000
3100
,
0001
0000
0100
0000
0010
0000
0002
0000
1000
0000
0000
0000
0203
0000
0000
0301
,
1000
0000
0001
0010
0200
0000
0000
0320
0100
0000
0031
0000
1000
0000
1000
0000
,
1000
0000
0001
0100
0020
0000
0000
0230
0010
0000
0301
0000
1000
0000
1000
0000
,
1000
0100
0001
0100
0010
0002
0000
0103
,
1000
0000
0100
0000
0010
0000
2000
0000
0001
0000
0000
0000
3200
0000
0000
1300
,
0001
0000
1000
0001
0200
0000
0000
0320
0000
0000
1030
0000
0001
0000
0001
0000
,
0001
0000
0000
0000
;
