#VERSION:0.83;
#TITLE:Lightning Attack;
#SUBTITLE:;
#ARTIST:Mameyudoufu;
#TITLETRANSLIT:;
#SUBTITLETRANSLIT:;
#ARTISTTRANSLIT:;
#GENRE:;
#ORIGIN:;
#CREDIT:;
#BANNER:Lightning_Attack-bn.png;
#BACKGROUND:Lightning_Attack-bg.png;
#PREVIEWVID:;
#JACKET:Lightning_Attack-jacket.png;
#CDIMAGE:;
#DISCIMAGE:;
#LYRICSPATH:;
#CDTITLE:cd-title-Benpai.png;
#MUSIC:Lightning Attack.ogg;
#OFFSET:0.009000;
#SAMPLESTART:97.288300;
#SAMPLELENGTH:10.378379;
#SELECTABLE:YES;
#DISPLAYBPM:185.000000;
#BPMS:0.000=185.000,
82.000=277.500,
84.000=185.000,
250.000=277.500,
251.000=185.000;
#STOPS:82.000=0.110,
83.000=0.110,
250.000=0.110;
#DELAYS:;
#WARPS:;
#TIMESIGNATURES:0.000=4=4;
#TICKCOUNTS:0.000=4;
#COMBOS:0.000=1;
#SPEEDS:0.000=1.000=0.000=0;
#SCROLLS:0.000=1.000,
67.000=1.500,
67.750=0.500,
68.000=1.000,
99.000=1.500,
99.750=0.500,
100.000=1.000,
106.500=1.500,
106.750=0.750,
107.000=1.500,
107.500=0.750,
108.000=1.000,
119.000=1.500,
119.250=0.750,
119.500=1.500,
119.750=0.750,
120.000=1.000,
137.500=1.500,
137.750=0.750,
138.000=1.000,
138.250=1.500,
138.375=0.750,
138.500=1.000,
160.000=1.500,
160.250=0.750,
160.500=1.000,
161.500=1.500,
161.750=0.750,
162.000=1.000,
162.250=1.500,
162.500=0.750,
162.750=1.000,
331.000=1.500,
331.500=0.500,
332.000=1.000,
336.000=1.500,
336.250=0.750,
336.500=1.000,
336.750=1.500,
337.000=0.750,
337.250=1.000,
337.500=1.500,
337.750=0.750,
338.000=1.000,
338.250=1.500,
338.500=0.750,
338.750=1.000,
340.000=1.500,
340.375=0.500,
340.500=1.000;
#FAKES:;
#LABELS:0.000=Song Start;
#BGCHANGES:;
#KEYSOUNDS:;
#ATTACKS:
;

//---------------dance-single - XO FS BR 24ths----------------
#NOTEDATA:;
#CHARTNAME:Quicker than Quick Attack;
#STEPSTYPE:dance-single;
#DESCRIPTION:XO FS BR 24ths;
#CHARTSTYLE:Pad;
#DIFFICULTY:Challenge;
#METER:13;
#RADARVALUES:1.106046,1.320608,0.407491,0.655529,1.107312,874.000000,828.000000,46.000000,74.000000,16.000000,4.000000,3.000000,0.000000,0.000000,1.106046,1.320608,0.407491,0.655529,1.107312,874.000000,828.000000,46.000000,74.000000,16.000000,4.000000,3.000000,0.000000,0.000000;
#CREDIT:Benpai;
#DISPLAYBPM:185.000000;
#NOTES:
00M0
0000
0000
0000
0000
0000
0M00
0000
00M0
0000
0M00
0000
00M0
0000
0000
0000
0000
0000
M000
0000
0000
0M00
0000
0000
00M0
0000
0000
0M00
0000
0000
00M0
0000
0000
000M
0000
0000
M000
0000
0000
0000
0000
0000
0000
0000
0000
0000
0000
0000
,
2001
0000
3001
0100
0001
1000
0000
1000
,
0000
0010
0100
0001
1000
0001
0010
0100
,
1000
0100
1000
0001
0100
0010
1000
0001
,
1000
0000
0100
0000
0010
0001
1000
0010
1000
0001
0010
0001
0100
0010
1000
0000
,
0200
0000
0310
0001
0010
0100
0000
0100
,
0000
1000
0010
0100
0001
0100
0010
1000
,
0001
0010
0001
0100
0010
0100
0001
1000
,
0100
0000
0000
0000
1000
0000
0001
1000
0001
0000
0000
0000
0100
0000
0010
0000
0100
0000
0001
0000
1000
0000
0100
0000
0010
0000
0000
0000
0001
0000
0000
0000
,
1002
0000
0013
0100
1100
0000
1000
0001
,
0100
0001
1000
0100
0120
0000
1030
0010
,
0002
0000
1003
0010
0110
0000
0100
0001
,
1000
0000
0001
0000
0100
00M0
0100
0000
2000
0000
0000
0000
3100
0000
0010
0000
,
0002
0000
0013
0100
1100
0000
1000
0001
,
0100
0001
1000
0100
0210
0000
0301
0100
,
2000
0000
0000
3020
0100
0000
1030
0001
,
2020
0000
3031
0000
0100
0000
0000
0000
0010
0000
0000
0000
2200
0000
3300
0000
0000
0000
0000
0000
0001
0000
0000
0000
20M0
0000
0000
0000
0000
3000
0000
0000
,
1001
0000
1000
0010
0100
0001
1000
0200
,
0300
0010
0001
0100
1000
0100
0000
0010
,
2000
3000
0001
1000
0100
1000
0000
0001
,
0100
0000
0100
0000
0010
0000
1000
0001
2M20
3030
0000
0000
0202
0303
0000
0000
,
0001
1000
0010
0100
0001
1000
0100
0010
,
0001
0000
0100
0010
1000
0001
1000
0100
0010
0001
1000
0010
0100
0001
0010
0100
,
1000
0001
1000
0010
0100
0001
0100
0010
1000
0001
0010
0100
1000
0001
0100
0010
,
2200
0000
3300
0000
0001
0000
0000
0000
0010
0000
0000
0000
0202
0000
0303
0000
0000
0000
0000
0000
1000
0000
0000
0000
0002
0000
0000
0000
0000
0003
0000
0000
,
1001
0000
0000
0000
1000
0000
0010
0000
0100
0001
1000
0000
0400
0000
0000
0000
,
0310
0000
0000
0000
0001
0000
1000
0000
0010
0000
0000
0000
0100
0000
0001
0000
1000
0000
0000
0000
0100
0000
0000
0000
0200
0000
0000
0000
0000
0300
0000
0000
,
2001
0000
0000
0000
3010
0000
0100
0010
1000
0001
1000
0000
0100
00M0
0100
0000
,
0001
0100
0001
0000
0000
0010
0000
1000
0010
0100
0000
1000
0001
1000
0010
0000
,
0110
0000
0000
0000
0001
0000
1000
0001
0010
0100
1000
0001
0400
0000
0000
0000
,
0310
1000
0001
0010
0100
1000
0001
0100
0010
1000
0100
0010
0001
0100
0001
0100
,
0020
0000
0000
0000
1030
0000
0001
0000
0010
0100
0010
0000
0001
0000
1000
0000
,
0010
0000
1000
0001
0000
0100
0010
0000
0001
0000
0010
0000
1000
0001
0010
0000
,
0110
0000
0000
0000
0100
0000
1000
0000
0001
0100
0010
0000
4000
0000
0000
0000
,
3100
0000
1000
0001
0100
0000
0022
0033
0000
0022
1033
0001
0010
0100
1000
0001
,
0200
0000
0000
0000
0310
0000
1000
0001
0010
0100
1000
0000
0001
0000
0001
0000
,
0100
0000
0010
1000
0000
0001
0000
0010
1000
0010
0000
0100
1000
0001
0100
0000
,
0110
0000
0000
0000
0001
0000
1000
0001
0100
0010
1000
0001
1000
0100
0010
0001
,
1000
0010
0100
0001
0010
0100
1000
0001
0100
0001
1000
0100
0010
0001
0010
0001
,
2000
0000
0000
0000
3010
0000
0100
0000
0001
1000
0001
0000
0010
0000
0100
0000
,
1010
0000
0000
0101
1000
0000
0011
0000
0000
1100
0000
0000
0220
0000
0330
0000
,
1001
1000
0100
1000
0010
0100
0001
1000
,
0100
0010
0100
1000
0001
0100
0001
0010
0100
1000
0001
0100
0020
0000
0000
0030
,
1001
0000
1000
0100
1000
0001
0100
0000
0000
0010
0100
0000
0001
0000
1000
0000
,
0100
0000
0000
0010
0000
0000
0100
0000
0000
1000
0000
0000
0001
0000
0000
1000
0000
0000
0010
0000
0100
0000
0010
0000
1000
0000
0000
0001
0000
0000
1000
0000
0000
0100
0000
0000
0010
0000
0000
0001
0000
0000
0100
0000
0000
0000
0000
0000
,
0010
0000
1000
0001
1000
0100
0010
0000
0001
0010
0000
0100
1000
0000
0001
0100
,
0000
0100
0010
0000
1000
0000
0001
0010
0100
0000
1000
0010
0000
1000
0001
0010
,
0100
0000
1000
0100
1000
0001
0100
0000
0000
0010
0100
0000
0001
0000
1000
0000
,
0100
0000
0000
0010
0000
0000
0100
0000
0000
1000
0000
0000
0001
0000
0000
0100
0000
0000
0010
0000
0100
0000
0010
0000
1000
0000
0000
0001
0000
0000
0010
0000
0000
0100
0000
0000
1000
0000
0000
0001
0000
0000
0100
0000
0000
0000
0000
0000
,
0010
0000
1000
0001
1000
0100
0010
0000
0000
0100
1000
0001
0100
0000
0010
0100
,
0000
0000
0000
0001
0000
0000
1000
0000
0000
0000
0000
0000
0100
0000
0000
0010
0000
0000
0001
0000
1000
0000
0001
0000
0100
0000
0000
0010
0000
0000
1000
0000
0000
0001
0000
0000
0010
0000
0000
0100
0000
0000
1000
0000
0000
0010
0000
0000
,
0100
0000
0001
1000
0001
0010
0100
0000
0000
1000
0001
0000
0100
0000
0001
0000
,
1000
0000
0000
0100
0000
0000
0010
0000
0000
0001
0000
0000
1000
0000
0000
0001
0000
0000
0100
0000
0010
0000
0100
0000
0001
0000
0000
1000
0000
0000
0001
0000
0000
0010
0000
0000
0100
0000
0000
1000
0000
0000
0001
0000
0000
0000
0000
0000
,
0100
0000
0010
0100
0010
1000
0001
0000
1000
0100
0000
1000
0001
0000
0100
0010
,
0000
0100
0001
0000
1000
0100
0010
0100
1000
0000
0001
0100
0010
1000
0100
0010
,
0001
0000
1000
0010
1000
0001
0010
0000
0000
0100
1000
0000
0001
0000
1000
0000
,
0010
0000
0000
0100
0000
0000
0010
0000
0000
1000
0000
0000
0001
0000
0000
1000
0000
0000
0100
0000
0010
0000
0100
0000
1000
0000
0000
0001
0000
0000
0100
0000
0000
0010
0000
0000
1000
0000
0000
0001
0000
0000
0010
0000
0000
0001
0000
0000
,
0100
0010
1000
0100
0010
0001
1000
0010
0100
0001
1000
0100
0010
0001
0010
0100
,
1010
0000
0001
1010
0000
0001
1100
0000
0010
1100
0010
1000
0002
0000
0000
0003
,
1001
1000
0100
1000
0001
0100
0001
0010
,
0100
0000
1000
0000
0010
0000
0200
0000
0001
0000
0000
0000
0301
0000
1000
0100
,
0020
0000
0000
0000
0000
0000
0031
0000
0000
1000
0000
0000
0001
0000
0000
0100
0000
0000
0010
0100
0001
2000
0000
0000
,
0000
0000
0000
0000
0000
0000
3100
0000
0000
0010
0000
0000
0100
0000
0000
1000
0000
0000
0001
0000
0000
0000
0000
0000
2200
0000
0000
3300
0000
0000
0000
0000
0000
0000
0000
0000
0022
0000
0000
0033
0000
0000
0100
0000
0001
0000
0100
0000
,
0010
1000
0100
0010
0100
1000
0001
0100
,
0010
0000
1000
0000
0100
0000
1000
0000
0001
0000
0100
0000
0010
0100
0001
1000
,
0100
0010
0100
0000
1000
0001
1000
0000
0010
0100
0001
1000
0100
1000
0001
0100
,
0022
0000
0000
1033
0000
0000
0001
0000
0000
1000
0000
0000
0100
0000
0000
0010
0000
0000
0202
0000
0000
0303
0000
0000
0000
0000
0000
0000
0000
0000
1000
0000
0000
0000
0000
0000
0001
0000
1000
0000
0001
0000
1000
0000
0001
0000
1000
0000
,
0100
1000
0001
0100
0001
0010
0100
1000
,
0001
0000
1000
0000
0010
0000
0200
0000
0001
0000
0000
0000
0301
0000
1000
0100
,
0020
0000
0130
1000
0001
1000
0010
0200
,
0000
0000
0000
0000
0000
0000
0310
0000
0000
1000
0000
0000
0100
0000
0000
1000
0000
0000
0001
0000
0000
0000
0000
0000
0020
0000
0000
0000
0000
0000
0000
0000
0000
0000
0000
0000
0130
0000
1000
0000
0001
0000
1000
0000
0010
0000
0100
0000
,
0001
1000
0010
0200
0001
0310
1000
0200
,
0010
0000
1300
0000
0010
0000
0100
0000
0001
0000
1000
0000
0100
0010
0100
1000
,
0001
0000
0100
0000
0010
0000
0002
0000
0000
0000
0013
1000
0001
1000
0100
0010
,
0001
0000
0000
1000
0000
0000
0100
0000
0000
1000
0000
0000
0002
0000
0000
0000
0000
0000
1003
0001
1000
0001
1000
0001
,
0100
0001
1000
0100
0010
0100
1000
0001
,
0100
0000
0001
0000
0010
0000
0200
0000
1000
0000
0000
0000
1300
0000
0001
0100
,
0020
0000
0130
0001
1000
0100
1000
0020
,
0000
0000
0000
0000
0000
0000
0031
0000
0000
0010
0000
0000
0100
0000
0000
0001
0000
0000
1000
0000
0000
0000
0000
0000
0002
0000
0000
0000
0000
0000
0000
0000
0000
0000
0000
0000
1003
0000
0100
0000
0010
0000
0001
0000
1000
0000
0010
0000
,
0100
0001
0100
0020
1000
0130
0001
0020
,
0100
0000
0031
0000
0100
0000
0010
0000
2000
0000
0000
0000
3010
0100
0001
0010
,
0100
1000
0010
0002
0000
0013
0100
0001
,
2200
3301
0010
0100
1000
0000
0202
0303
0000
0000
0110
0000
2002
0000
3003
0000
,
1000
0001
1000
0100
0010
0001
0100
0010
1000
0001
0010
0001
1000
0010
0100
0001
,
1100
0000
0001
1100
0000
0001
1010
0000
0001
1010
0000
0100
0010
0001
0100
0010
,
2200
0000
0000
3300
0000
0000
0000
0000
0000
0000
0000
0000
0000
0000
0000
0000
;

//---------------dance-single - Stream----------------
#NOTEDATA:;
#CHARTNAME:;
#STEPSTYPE:dance-single;
#DESCRIPTION:Stream;
#CHARTSTYLE:;
#DIFFICULTY:Edit;
#METER:12;
#RADARVALUES:0.927611,1.280052,0.398632,0.478359,0.814981,733.000000,688.000000,45.000000,54.000000,0.000000,0.000000,3.000000,0.000000,0.000000,0.927611,1.280052,0.398632,0.478359,0.814981,733.000000,688.000000,45.000000,54.000000,0.000000,0.000000,3.000000,0.000000,0.000000;
#CREDIT:;
#DISPLAYBPM:185.000000;
#NOTES:
0000
0000
0000
0000
,
2001
0000
3001
0100
0001
1000
0000
1000
,
0000
0010
0100
0001
1000
0001
0010
0100
,
1000
0100
1000
0001
0100
0010
1000
0001
,
1000
0000
0100
0000
0010
0001
1000
0010
1000
0001
0010
0001
0100
0010
1000
0000
,
0200
0000
0310
0001
0010
0100
0000
0100
,
0000
1000
0010
0100
0001
0100
0010
1000
,
0001
0010
0001
0100
0010
0100
0001
1000
,
0100
0000
0000
0000
1000
0000
0001
1000
0001
0000
0000
0000
0100
0000
0010
0000
0100
0000
0001
0000
1000
0000
0100
0000
0010
0000
0000
0000
0001
0000
0000
0000
,
0200
0000
0310
1000
1001
0000
0001
0010
,
0001
1000
0001
0100
0210
0000
1300
0100
,
0002
0000
1003
0100
1100
0000
1000
0001
,
1000
0010
0100
0100
0002
0000
0013
0100
,
2000
0000
3001
1000
1001
0000
0001
0100
,
0001
1000
0100
0010
0021
0000
1030
0010
,
0002
0000
0003
0100
0020
0000
1030
0100
,
1010
0001
1000
0000
0010
0000
2200
3300
0000
0000
1000
0000
0001
0000
0000
0000
,
1001
0000
1000
0010
0100
0001
1000
0200
,
0300
0010
0001
0100
1000
0100
0000
0010
,
2000
3000
0001
1000
0100
1000
0000
0001
,
0100
0000
0100
0000
0010
0000
1000
0001
2020
3030
0000
0000
0202
0303
0000
0000
,
1001
1000
0010
0100
0001
1000
0100
0010
,
0001
0000
0100
0010
0100
0001
1000
0100
0010
0001
1000
0010
0100
0001
0010
0001
,
1000
0010
0100
0001
1000
0100
0010
0001
0100
0010
0100
0001
1000
0100
0010
0001
,
2020
3030
0100
0000
1000
0000
0022
0033
0000
0000
0100
0000
0010
0000
0000
0000
,
1010
0000
0000
0000
0000
0000
0000
0000
1000
0000
0000
0000
0001
1000
0001
0000
0010
0000
0100
0000
1000
0000
0001
0000
0400
0000
0000
0000
0000
0000
0000
0000
,
0301
0000
1000
0100
0010
0000
0100
1000
0002
0000
0103
0000
0200
0000
0000
0300
,
1002
0000
0000
0000
0013
0000
0100
0000
0010
0001
1000
0000
0010
0000
0100
0000
,
0001
0100
0001
0000
0000
0010
0100
0000
0001
0100
0000
0010
0001
1000
0010
0000
,
0101
0000
0000
0000
0000
0000
0000
0000
0001
0000
0000
0000
1000
0100
1000
0000
0100
0000
0010
0000
0001
0000
1000
0000
0040
0000
0000
0000
0000
0000
0000
0000
,
0130
0001
1000
0001
0010
0100
1000
0010
0100
0001
1000
0100
0010
0001
0010
0001
,
2000
0000
0000
0000
3010
0000
0100
0000
0001
1000
0001
0000
0010
0000
0100
0000
,
0010
0000
0001
1000
0000
0010
0100
0000
1000
0000
0100
0000
0001
1000
0100
0000
,
0110
0000
0000
0000
0000
0000
0000
0000
0010
0000
0000
0000
0001
1000
0001
0000
0100
0000
0010
0000
1000
0000
0001
0000
0040
0000
0000
0000
0000
0000
0000
0000
,
0130
0000
1000
0001
0100
0000
0011
0000
0000
0011
1000
0001
0010
0100
1000
0001
,
0200
0000
0000
0000
0310
0000
1000
0000
0001
0010
0100
0000
0010
0000
0001
0000
,
1000
0010
1000
0000
0000
0001
0010
0000
1000
0010
0000
0100
1000
0001
0100
0000
,
0101
0000
0000
0000
0000
0000
0000
0000
1000
0000
0000
0000
0001
0100
0001
0000
0100
0000
0010
0000
1000
0000
0001
0000
1000
0000
0100
0000
0010
0000
0001
0000
,
1000
0010
0100
0001
0010
0100
1000
0001
0100
0001
1000
0100
0010
0001
0010
0001
,
2000
0000
0000
0000
3010
0000
0100
0000
0001
1000
0001
0000
0010
0000
0100
0000
,
1010
0000
0000
0101
1000
0000
0011
0000
0000
1100
0000
0000
0220
0000
0330
0000
,
1001
1000
0100
1000
0010
0100
0001
1000
,
0100
0010
0100
0000
1000
0001
1000
0000
0010
0100
0001
0000
2000
0000
3000
0000
,
0010
0100
0001
1000
0100
0010
0100
1000
0001
1000
0010
0100
0001
1000
0100
1000
,
0001
0000
0000
0010
0000
0000
0001
0000
0000
1000
0000
0000
0010
0000
0000
0100
0000
0000
0001
0000
1000
0000
0001
0000
0010
0000
0000
0100
0000
0000
1000
0000
0000
0001
0000
0000
0100
0000
0000
0001
0000
0000
0010
0000
0000
0100
0000
0000
,
1000
0001
0100
0010
0100
1000
0001
1000
0010
0100
0001
1000
0100
1000
0010
0100
,
0010
0100
0001
1000
0100
0000
0000
0000
0000
0000
0000
0000
0000
0000
0000
0000
,
0000
0000
0000
0000
,
0000
0000
0000
0000
,
0000
0000
0000
0000
,
0000
0000
0000
0000
,
0000
0000
0000
0000
,
0000
0000
0000
0000
,
0000
0000
0000
0000
,
0000
0000
0000
0000
,
0000
0000
0000
0000
,
0000
0000
0000
0000
,
0000
0000
0000
0000
,
1010
0000
0001
1010
0001
1000
0011
0000
0100
0011
1000
0000
0002
0000
0000
0003
,
1001
1000
0010
0100
0001
1000
0100
0010
,
0100
0000
1000
0000
0010
0000
0200
0000
0001
0000
0000
0000
0301
0000
1000
0100
,
0020
0000
0000
0000
0000
0000
0000
0000
0000
0030
0000
0000
0010
0000
0000
0000
0000
0000
0001
0000
0000
0000
0000
0000
0100
0000
0000
0000
0000
0000
0010
0000
0000
0000
0000
0000
1000
0000
0001
0000
1000
0000
0200
0000
0000
0000
0000
0000
,
0310
0000
0000
0000
0000
0000
0001
0000
0000
1000
0000
0000
0010
0000
0000
0100
0000
0000
0001
0000
0000
0000
0000
0000
1100
0000
0000
0000
0000
0000
0000
0000
0000
0000
0000
0000
0011
0000
0000
0000
0000
0000
1000
0000
0010
0000
0100
0000
,
0001
0100
0001
0010
0100
1000
0001
0100
,
0001
0000
1000
0000
0100
0000
0010
0000
0001
0000
1000
0000
0010
0100
0001
1000
,
0100
0010
0001
0000
1000
0010
0100
0000
0010
1000
0100
0010
0001
1000
0001
0100
,
0011
0000
0000
1000
0000
0000
0001
0000
0000
1000
0000
0000
0100
0000
0000
0010
0000
0000
0101
0000
0000
0000
0000
0000
0000
0000
0000
0000
0000
0000
1000
0000
0000
0000
0000
0000
0001
0000
1000
0000
0001
0000
1000
0000
0100
0000
0010
0000
,
0001
0001
1000
0100
1000
0001
0100
0020
,
0000
0000
0130
0000
1000
0000
0200
0000
0010
0000
0000
0000
0310
0000
1000
0001
,
0020
0000
0130
0010
0001
1000
0010
0200
,
0000
0000
0000
0000
0000
0000
0301
0000
0000
1000
0000
0000
0100
0000
0000
1000
0000
0000
0020
0000
0000
0000
0000
0000
0100
0000
0000
0000
0000
0000
0030
0000
0000
0000
0000
0000
1000
0000
0001
0000
0010
0000
0100
0000
1000
0000
0001
0000
,
0100
0010
0100
0002
1000
0013
0100
2000
,
0001
0000
3010
0000
0001
0000
0010
0000
0200
0000
0000
0300
0100
0001
1000
0100
,
0010
0000
0001
0000
0100
0000
2000
0000
0000
0000
3100
0010
1000
0001
0010
0000
,
0010
0000
0000
0100
0000
0000
1000
0000
0000
0020
0000
0000
0100
0000
0000
0030
0000
0000
0100
0001
1000
0100
0010
0001
,
1000
1000
0001
0010
0001
1000
0010
0200
,
0000
0000
0310
0000
0001
0000
0020
0000
0100
0000
0000
0000
0130
0000
0001
1000
,
0200
0000
0310
0100
1000
0001
0100
0020
,
0000
0000
0000
0000
0000
0000
0031
0000
0000
0010
0000
0000
0100
0000
0000
0001
0000
0000
2000
0000
0000
0000
0000
0000
0001
0000
0000
0000
0000
0000
3000
0000
0000
0000
0000
0000
0001
0000
0010
0000
0100
0000
1000
0000
0001
0000
1000
0000
,
0010
0100
0010
2000
0001
3100
0010
0002
,
1000
0000
0103
0000
0010
0000
1000
0000
2000
0000
0000
3000
0100
0010
0001
0100
,
0010
0000
1000
0000
0010
0000
0002
0000
0000
0000
0013
0100
0001
1000
0100
0000
,
1010
0001
1000
0010
0100
0000
0011
0000
0000
0000
0110
0000
1001
0000
0000
0000
,
1000
0001
0010
0100
1000
0001
0100
0010
1000
0001
0010
0001
1000
0010
0100
0001
,
1100
0000
0001
1100
0000
0001
1010
0000
0001
1010
0000
0100
1000
0001
0100
0010
,
1100
0000
0000
0000
;

//---------------dance-single - ----------------
#NOTEDATA:;
#CHARTNAME:Thundershock;
#STEPSTYPE:dance-single;
#DESCRIPTION:;
#CHARTSTYLE:Pad;
#DIFFICULTY:Hard;
#METER:10;
#RADARVALUES:0.842822,0.829487,0.274613,0.380915,0.358769,666.000000,635.000000,31.000000,43.000000,6.000000,0.000000,7.000000,0.000000,0.000000,0.842822,0.829487,0.274613,0.380915,0.358769,666.000000,635.000000,31.000000,43.000000,6.000000,0.000000,7.000000,0.000000,0.000000;
#CREDIT:Benpai;
#DISPLAYBPM:185.000000;
#NOTES:
0000
0000
0000
0000
,
2001
0000
3001
0100
0001
1000
0000
1000
,
0000
0010
0100
0001
1000
0001
0010
0100
,
1000
0100
1000
0001
0100
0010
1000
0001
,
1000
0000
0100
0000
0010
0001
0010
0000
0001
1000
0001
0000
0100
0010
0100
0000
,
0002
0000
1003
0001
1000
0100
0000
0100
,
0000
1000
0010
0100
0001
0100
0010
1000
,
0001
0010
0001
0100
0010
0100
0001
1000
,
0100
0000
0010
0001
1000
0000
0010
0000
0100
0001
0100
0000
0010
0000
1000
0000
,
2001
0000
3100
0010
0001
0000
0001
1000
,
0010
1000
0001
0010
0200
0000
0301
0100
,
2000
0000
3001
0100
0010
0000
0010
1000
,
0001
0000
1000
0000
0100
00M0
0100
0000
0002
0000
0000
0000
0103
0000
0010
0000
,
2000
0000
3001
0010
0100
0000
0100
1000
,
0001
0100
0001
1000
0200
0000
0301
0100
,
2000
0000
0000
3020
0100
0000
1030
0001
,
1001
0000
1000
0000
0010
0000
0110
0000
0000
0000
0100
0000
0002
0000
0000
0003
,
1001
0000
1000
0100
0010
0001
1000
0020
,
0030
0100
0001
0010
0001
1000
0000
0010
,
0200
0300
0001
1000
0100
1000
0000
0002
,
0000
0000
0103
0000
0010
0000
1000
0000
202M
3030
0000
0000
0202
0303
0000
0000
,
0001
1000
0100
0010
0001
1000
0010
0100
,
0001
1000
0100
1000
0010
0100
0001
0010
,
0100
1000
0100
0000
0010
0001
0010
0000
0004
0000
4003
0000
3400
0000
0310
0000
,
0011
0000
0001
0000
1000
0000
1100
0000
0000
0000
1000
0000
0002
0000
0000
0003
,
1001
0000
0000
0000
1000
0000
0010
0000
0100
0001
1000
0000
0200
0000
0000
0000
,
0310
0000
0001
1000
0001
0000
0100
0000
0010
0000
1000
0000
2000
0000
0000
0000
,
3002
0000
0000
0000
0013
0000
0100
0000
1000
0000
0001
0000
0100
00M0
0100
0000
,
1000
0000
1000
0000
0000
0010
0000
0000
0100
0001
0000
1000
0000
0001
0010
0000
,
0110
0000
0000
0000
0100
0000
1000
0000
0001
0000
0100
0000
0010
0M00
0010
0000
,
0001
0000
1000
0000
0010
0000
0100
0000
0001
0000
1000
0000
0100
0010
0100
0010
,
0002
0000
0000
0000
1003
0000
0001
0000
0100
0010
0100
0000
0001
0000
1000
0000
,
0001
0000
0010
0100
0000
1000
0010
0000
0100
0000
0001
0000
1000
0000
0001
0000
,
1001
0000
0000
0000
1000
0000
0001
0000
0100
0010
0100
0000
0002
0000
0000
0000
,
0013
0000
0100
1000
0001
0000
1100
0000
0000
1100
0000
0000
1000
0000
0100
0000
,
0020
0000
0000
0000
0031
0000
1000
0000
0001
0000
0100
0000
0010
0M00
0010
0000
,
0001
0000
1000
0100
0000
1000
0000
0010
0100
0000
0001
0000
1000
0001
0010
0000
,
0110
0000
0000
0000
0001
0000
1000
0000
0010
0000
1000
0000
0100
00M0
0100
0000
,
0001
0000
1000
0000
0010
0000
0100
0000
0001
0000
0010
0000
0100
1000
0100
1000
,
0002
0000
0000
0000
0103
0000
0010
0000
1000
0001
1000
0000
0100
0000
0010
0000
,
0011
0000
0000
1100
0000
0000
1001
0000
0000
0101
0000
0000
0110
0000
0000
0000
,
0001
1000
0100
1000
0010
0100
0001
1000
,
0100
0010
0100
0000
1000
0001
1000
0000
0010
0100
0001
1000
0200
0000
0000
0000
,
0310
0000
0001
0000
0000
0000
1000
0000
0000
0010
0100
0000
0001
0000
1000
0000
,
0010
0000
1000
0000
0001
0000
0010
0100
0010
0000
0001
1000
0000
0000
0010
0000
,
1000
0000
0100
0000
1000
0000
0001
0000
0000
0010
0000
0000
0100
1000
0001
0000
,
0000
0000
0001
0000
0100
0000
0010
1000
0010
0000
0000
0100
0000
0001
1000
0100
,
0010
0000
0001
0000
0000
0000
1000
0000
0000
0010
0100
0000
0001
0000
1000
0000
,
0100
0000
1000
0000
0001
0000
0100
0010
0100
0000
0001
1000
0000
0000
0100
0000
,
1000
0000
0001
0000
0100
0000
0010
0000
0000
1000
0000
0000
0001
0010
0100
0000
,
0000
0000
0100
0000
1000
0000
0001
0100
0010
0000
1000
0000
0010
0000
0100
0000
,
0001
0000
1000
0000
0000
0000
0100
0000
0000
0010
0001
0000
1000
0000
0010
0000
,
0100
0000
0001
0000
1000
0000
0100
0010
0100
0000
1000
0001
0000
0000
0100
0000
,
0010
0000
1000
0000
0001
0000
0010
0000
0100
1000
0100
0000
1000
0000
0010
0000
,
0000
0000
0010
0000
0100
0000
0001
1000
0001
0000
0010
0000
0000
0100
1000
0001
,
0100
0000
0010
0000
0000
0000
1000
0000
0000
0001
0010
0000
0100
0000
0010
0000
,
0001
0000
0100
0000
0010
0000
1000
0001
0010
0000
0100
0000
0010
0000
0001
0000
,
1000
0001
0100
0010
1000
0001
0010
0100
,
1100
0000
0000
1100
0000
0000
0110
0000
0000
0011
0000
0000
1001
0000
0000
0000
,
2000
0000
3010
0000
0100
0001
1000
0200
,
0000
0000
1300
0000
0010
0000
0200
0000
0000
0000
0000
0000
0000
0000
0301
1000
,
0002
0000
0000
0000
0103
0000
0010
0000
0100
0000
0001
0000
1000
0100
0020
0000
,
0000
0000
0130
1000
0001
0100
0010
0000
0110
0000
0000
0000
1010
0000
0000
0000
,
1001
1000
0010
0100
0001
1000
0100
0010
,
0100
1000
0010
0100
0001
1000
0100
0010
,
0001
1000
0001
0000
0100
0010
0100
0000
0001
0000
0100
0000
0010
0000
1000
0000
,
1010
0010
0100
0101
0000
0001
0040
0000
,
0130
1000
0001
0100
0010
0100
0001
1000
,
0100
0000
0010
0000
1000
0000
0020
0000
0100
0000
0000
0000
0031
0000
1000
0001
,
0200
0000
0310
1000
0001
1000
0100
2000
,
0000
0000
3001
0000
0100
0010
0100
0000
0001
0000
0000
0000
0040
0000
0000
0000
,
0130
1000
0010
0100
0001
1000
0100
0010
,
0001
0000
0100
0000
0010
0000
0100
0000
0001
0000
1000
0000
0100
1000
0100
0000
,
0010
0000
0001
0000
0100
0000
2000
0000
0000
0000
3100
0000
0010
0000
1000
0001
,
1000
0100
0010
0002
1000
0000
0403
0000
,
0310
1000
0001
0010
0100
0010
0001
1000
,
0010
0000
0100
0000
0001
0000
0200
0000
0010
0000
0000
0000
0301
0000
1000
0001
,
0020
0000
0130
1000
0001
1000
0010
0002
,
0000
0013
0100
0001
1000
0000
0400
0000
,
0310
0001
0100
0010
1000
0001
0010
0100
,
1000
0000
0010
0000
0100
0000
0001
0000
1000
0000
0100
0000
0010
0001
0010
0000
,
0100
0000
1000
0000
0010
0000
0002
0000
0000
0000
0013
0000
0100
0000
0001
1000
,
0100
0010
0001
0200
0000
0310
1010
0000
,
1000
0100
1000
0010
0100
0001
1000
0100
,
0010
0000
0000
0010
0000
0000
0001
0000
0000
0001
0000
0000
0100
0000
0010
1000
,
0002
0003
0000
0000
0000
0000
0000
0000
;

//---------------dance-single - ----------------
#NOTEDATA:;
#CHARTNAME:Spark;
#STEPSTYPE:dance-single;
#DESCRIPTION:;
#CHARTSTYLE:Pad;
#DIFFICULTY:Medium;
#METER:8;
#RADARVALUES:0.641608,0.640967,0.150594,0.690963,0.031005,507.000000,490.000000,17.000000,78.000000,1.000000,0.000000,1.000000,0.000000,0.000000,0.641608,0.640967,0.150594,0.690963,0.031005,507.000000,490.000000,17.000000,78.000000,1.000000,0.000000,1.000000,0.000000,0.000000;
#CREDIT:Benpai;
#DISPLAYBPM:185.000000;
#NOTES:
0000
0000
0000
0000
,
1001
0000
1000
0000
1000
0100
0000
0100
,
0000
0100
1000
0001
1000
0001
0200
0000
,
0320
0000
0000
0230
0000
0000
0302
0000
,
0000
0000
1003
0100
0010
0100
1000
1000
,
0002
0000
0013
0000
0010
0100
0000
0100
,
0000
0100
0010
0001
0010
0001
2000
0000
,
3020
0000
0000
0032
0000
0000
0023
0000
,
0130
0010
1000
0010
0100
0001
1000
1000
,
0200
1300
1001
0001
,
0001
0100
0010
0000
0110
0000
2000
0000
,
3200
0000
0310
0000
0011
0000
0001
1000
,
0001
1000
0010
0100
0002
0000
0203
0000
,
0320
0000
1030
0000
1001
0000
0001
0010
,
0100
0010
0001
1000
0020
0000
0230
0000
,
0302
0000
0000
0023
0000
0000
0230
0300
,
1100
0000
0000
1001
0000
0001
0200
0000
,
0310
0000
1000
0000
0100
0000
1000
0002
,
0000
0003
0100
0010
0100
0001
0000
0010
,
0200
0000
1300
0001
0010
0001
0000
2000
,
0000
0000
3001
0100
M110
0000
1001
0000
,
1000
0000
0100
0010
0100
2000
0000
3002
,
0000
0103
0010
0100
0001
1000
0100
0010
,
0001
0100
0010
1000
0001
0010
0100
1000
,
1010
0000
0000
0101
0000
0001
2000
0000
,
3100
0000
1000
0001
0100
0001
0020
0000
,
0130
1000
0001
1000
0010
0100
0200
0000
,
0302
0000
0013
0200
0000
0310
0001
0001
,
1000
0000
1000
0010
0100
0010
1000
0001
,
0010
0000
0100
0000
1000
0001
0400
0000
,
0310
1000
0010
0100
0001
0010
0100
1000
,
0002
0000
0103
0001
1000
0100
0010
0010
,
0002
0000
1003
0010
0100
0010
1000
0001
,
0010
0000
0100
1000
0010
0100
0002
0000
,
1003
0000
0000
0000
0100
0000
0010
0000
0000
0010
0000
0000
0100
0000
1000
0000
,
0002
0000
0103
0010
0100
0001
1000
1000
,
0200
0000
1300
0010
0100
0001
1000
0100
,
0010
0000
0100
1000
0001
0100
0010
0010
,
1000
0100
0010
0001
0100
0010
2000
0000
,
3002
0000
0103
0010
1000
0001
0010
0000
,
0110
0000
0000
0100
0000
0000
1000
0000
0000
0010
0000
0000
0110
0000
0000
0000
,
0100
0001
1000
0100
0010
0001
1000
0001
,
0100
0010
1000
0100
0010
0001
2000
0000
,
3001
0100
0000
0001
0000
0010
0100
1000
,
0000
0000
0000
0010
0100
0000
0010
1000
,
0001
0010
0000
0100
0000
1000
0001
0100
,
0000
0100
0010
1000
0001
0010
0100
1000
,
0001
0100
0000
0001
0000
0100
0010
1000
,
0000
0000
0000
0100
0010
0000
0100
1000
,
0001
0100
0000
0010
0000
1000
0001
0010
,
0000
0010
0100
1000
0001
0100
0010
1000
,
0001
0100
0000
0001
0000
0010
0100
1000
,
0000
0000
0000
0010
0100
0000
0010
1000
,
0001
0010
0000
0100
0000
1000
0001
0100
,
0000
0100
0010
1000
0001
0010
0100
1000
,
0001
0010
0000
0001
0000
0100
0010
1000
,
0000
0000
0000
0100
0010
0000
0100
1000
,
0001
0100
0000
0010
0000
1000
0001
0010
,
0100
0000
0000
0100
0000
0000
1000
0000
0000
1000
0000
0000
0002
0000
0000
0000
,
0203
0000
0010
0000
0301
1000
0001
0020
,
0000
0130
1000
0002
0000
0000
0000
0103
,
0010
0000
0010
0100
0001
1000
0100
0200
,
0000
0310
0001
1000
1001
0000
0001
0000
,
0200
0000
0301
0020
0000
0130
1000
0020
,
0000
0130
0001
2000
0000
0000
3100
0010
,
0100
1000
0010
0200
0000
0301
1000
0100
,
0010
0100
1000
0001
0000
0100
0020
0000
,
0230
0000
0301
0000
1000
0100
1000
0002
,
0000
0103
0010
2000
0001
0000
3100
0010
,
0200
0000
1300
0001
0100
0001
1000
0200
,
0000
1300
0010
0200
0001
0000
0310
0000
,
1010
0000
1000
0200
0000
0310
0001
0200
,
0000
0310
1000
0002
0010
0000
0013
0100
,
1000
0010
1000
0200
0000
0310
0001
1000
,
0001
0100
0001
2000
0100
0000
3002
0000
,
0023
0000
0130
0000
1000
0100
1000
0002
,
0000
0103
0010
2000
0001
0000
3100
0010
,
0002
0000
1003
0100
0010
0100
1000
0020
,
0000
0130
0001
2000
0100
0000
3002
0000
,
0203
0000
0310
2000
0000
3100
1000
0020
,
0000
0130
0001
2000
0100
0000
3001
0100
,
0010
0100
0001
0020
0000
0130
1000
0001
,
0012
0000
0003
2100
0000
0000
3020
0000
,
0130
0001
1000
0001
0010
0100
1000
0100
,
0010
0000
0000
0010
0000
0000
0001
0000
0000
0001
0000
0000
0100
0000
0010
0000
,
2000
3000
0000
0000
0000
0000
0000
0000
;

//---------------dance-single - ----------------
#NOTEDATA:;
#CHARTNAME:Shockwave;
#STEPSTYPE:dance-single;
#DESCRIPTION:;
#CHARTSTYLE:Pad;
#DIFFICULTY:Easy;
#METER:5;
#RADARVALUES:0.412553,0.490152,0.141736,0.513793,0.000000,326.000000,310.000000,16.000000,58.000000,0.000000,0.000000,0.000000,0.000000,0.000000,0.412553,0.490152,0.141736,0.513793,0.000000,326.000000,310.000000,16.000000,58.000000,0.000000,0.000000,0.000000,0.000000,0.000000;
#CREDIT:Benpai;
#DISPLAYBPM:185.000000;
#NOTES:
0000
0000
0000
0000
,
1002
0000
0000
0000
,
0000
0000
0000
0203
,
0320
0000
0000
0230
0000
0000
0302
0000
,
0000
2003
0000
0000
,
3200
0000
0000
0000
,
0000
0000
0000
0320
,
0032
0000
0000
0203
0000
0000
0302
0000
,
1003
1000
0100
0010
,
0001
0000
1000
0000
1001
0000
0001
0100
,
0001
1000
1100
0002
,
0023
0000
0130
0000
0110
0000
0010
0001
,
0010
0200
2300
3002
,
0203
0000
0310
0000
1010
0000
1000
0001
,
1000
0100
2000
3020
,
0230
0000
0000
0302
0000
0000
1003
0000
,
1001
0000
0000
0110
0000
0000
0002
0000
,
0013
0000
0100
0000
1000
0000
0001
0100
,
0010
0000
1000
0000
1000
0001
0000
0001
,
0010
0100
1000
0001
,
0100
0010
0210
0001
,
0301
0000
1000
0000
0100
0000
1000
0001
,
0100
0010
1000
0100
,
0010
0010
0001
1000
,
1001
0000
0000
0110
0000
0000
2000
0000
,
3100
0000
0010
0000
0001
1000
0020
0000
,
0130
0000
0001
0000
1000
0100
2000
0000
,
3002
0103
0010
0100
,
0001
0000
0010
0000
0100
0000
1000
0001
,
0100
0000
0010
0000
1000
0001
0020
0000
,
0130
1000
0010
0200
,
0301
1000
0100
0010
,
0001
0100
0010
1000
,
1001
0000
0001
0000
0100
0010
0200
0000
,
0301
0000
1000
0200
0000
0000
0310
0000
,
0011
0001
1000
0010
,
0100
0001
0010
0100
,
1100
1000
0001
0100
,
0010
1000
0100
2000
,
3001
0100
0001
1000
,
2100
0000
0000
3002
0000
0000
0103
0000
,
0010
1000
0100
1000
,
0001
0100
0010
2000
,
3001
0000
0000
0010
0000
0000
0100
0000
,
1000
0001
0100
0001
,
1000
0000
0000
0100
0000
0000
1000
0000
,
1000
0000
0100
0000
0010
0000
0001
1000
,
0010
0000
0000
0100
0000
0000
0010
0000
,
1000
0001
0010
0001
,
1000
0000
0000
0010
0000
0000
0100
0000
,
0100
0000
0010
0000
1000
0000
0001
1000
,
0100
0000
0000
0010
0000
0000
0100
0000
,
1000
0001
0100
0001
,
0010
0000
0000
0100
0000
0000
1000
0000
,
1000
0000
0010
0000
0100
0000
0001
1000
,
0100
0000
0000
0010
0000
0000
0100
0000
,
1000
0001
0100
0001
,
1000
0100
0010
0001
,
0100
0000
0000
0100
0000
0000
0020
0000
,
1030
0000
0000
0000
1000
0000
0000
0200
,
0000
0310
0020
0000
,
0031
0000
0001
0000
2000
0000
0000
3020
,
0000
0130
0001
0001
,
0002
0000
0000
0023
0000
0000
0000
0230
,
0000
0000
0000
2300
0000
0000
3002
0000
,
0103
0100
0010
0010
,
2000
0000
0000
3002
0000
0000
0023
0000
,
0130
1000
0001
1000
,
0010
0100
0002
0000
,
1003
0010
1000
0001
,
0010
0100
0010
0001
,
1001
1000
0010
0100
,
0001
1000
0100
1000
,
0001
0100
0010
1000
,
1000
0001
0010
0200
,
0310
0001
1000
0001
,
0100
0010
2000
0000
,
3001
0100
0001
1000
,
0100
0010
0100
1000
,
1001
0001
0100
0010
,
1000
0001
0010
0001
,
1000
0010
0100
0001
,
0002
0000
0000
2003
0000
0000
3200
0000
,
0310
0010
0001
0001
,
2000
0000
0000
3020
0000
0000
0230
0000
,
0302
0003
0000
0000
0000
0000
0000
0000
;

//---------------dance-single - ----------------
#NOTEDATA:;
#CHARTNAME:Volt Switch;
#STEPSTYPE:dance-single;
#DESCRIPTION:;
#CHARTSTYLE:Pad;
#DIFFICULTY:Beginner;
#METER:3;
#RADARVALUES:0.231586,0.263928,0.053151,0.097443,0.000000,183.000000,177.000000,6.000000,11.000000,0.000000,0.000000,0.000000,0.000000,0.000000,0.231586,0.263928,0.053151,0.097443,0.000000,183.000000,177.000000,6.000000,11.000000,0.000000,0.000000,0.000000,0.000000,0.000000;
#CREDIT:Benpai;
#DISPLAYBPM:185.000000;
#NOTES:
// measure 0
0000
0000
0000
0000
,  // measure 1
0001
0000
0000
0000
,  // measure 2
0000
0000
0000
0000
,  // measure 3
0100
0000
0000
0000
,  // measure 4
0000
0000
0000
0000
,  // measure 5
0001
0000
0000
0000
,  // measure 6
0000
0000
0000
0000
,  // measure 7
0010
0000
0000
0000
,  // measure 8
0100
0000
0100
0000
,  // measure 9
0010
0000
0001
0000
,  // measure 10
1000
0000
0001
0100
,  // measure 11
0010
0000
0100
0000
,  // measure 12
0001
1000
0100
1000
,  // measure 13
0001
0000
0100
0000
,  // measure 14
0010
1000
0010
0000
,  // measure 15
0100
0000
0001
0000
,  // measure 16
1000
0000
0000
1000
0000
0000
0000
0000
,  // measure 17
0100
0000
0010
0000
,  // measure 18
0100
1000
0100
0000
,  // measure 19
1000
0000
0001
0000
,  // measure 20
0100
0001
0020
0000
,  // measure 21
0130
0000
1000
0000
,  // measure 22
0001
0010
0001
0000
,  // measure 23
1000
0000
0010
0000
,  // measure 24
0100
0000
0000
0100
0000
0000
0000
0000
,  // measure 25
0001
0000
1000
0010
,  // measure 26
1000
0000
0001
0001
,  // measure 27
0001
0000
0010
0000
,  // measure 28
0100
0000
1000
0001
,  // measure 29
0100
0000
0010
1000
,  // measure 30
0010
0000
0100
0001
,  // measure 31
0100
0000
0010
0000
,  // measure 32
1000
0000
0100
0010
,  // measure 33
0100
0000
1000
0001
,  // measure 34
1000
0000
0000
0020
0000
0000
0000
0030
,  // measure 35
0100
0000
0001
1000
,  // measure 36
0001
0000
0010
0100
,  // measure 37
1000
0000
0001
0100
,  // measure 38
0001
0000
1000
0100
,  // measure 39
1000
0000
0001
0000
,  // measure 40
0020
0000
0000
0032
0000
0000
0000
0000
,  // measure 41
1003
0000
0010
0000
,  // measure 42
0100
0000
0001
0000
,  // measure 43
1001
0000
1000
0000
,  // measure 44
0100
0000
1000
0000
,  // measure 45
0001
0000
0100
0000
,  // measure 46
0010
0000
0100
0000
,  // measure 47
0001
0000
1000
0000
,  // measure 48
0100
0000
0010
0000
,  // measure 49
0100
0000
1000
0000
,  // measure 50
0010
0000
0100
0000
,  // measure 51
0100
0000
0010
0000
,  // measure 52
1000
0000
0100
0000
,  // measure 53
1000
0000
0001
0000
,  // measure 54
0100
0000
0010
0000
,  // measure 55
1000
0000
0001
0000
,  // measure 56
1000
0000
0100
0000
,  // measure 57
0010
0000
0001
0000
,  // measure 58
2000
0000
0000
3001
,  // measure 59
0001
0000
0001
0000
,  // measure 60
0010
0100
0010
0000
,  // measure 61
0001
0000
0001
0000
,  // measure 62
0100
0010
2000
0000
,  // measure 63
3002
0000
0000
0000
,  // measure 64
0203
0000
0000
0000
,  // measure 65
0310
0000
1000
0000
,  // measure 66
2001
0000
0000
3001
0000
0000
0000
0000
,  // measure 67
0010
0000
0100
0000
,  // measure 68
0010
0000
0001
0000
,  // measure 69
1000
0000
1000
0000
,  // measure 70
0100
0000
0010
0000
,  // measure 71
1001
0000
0001
0000
,  // measure 72
0010
0000
0001
0000
,  // measure 73
1000
0000
0010
0000
,  // measure 74
0100
0000
0100
0000
,  // measure 75
0110
0000
0001
0000
,  // measure 76
1000
0000
1000
0000
,  // measure 77
0100
0000
0100
0000
,  // measure 78
0010
0000
0001
0000
,  // measure 79
1001
0000
1000
0000
,  // measure 80
0010
0000
0100
0000
,  // measure 81
0001
0000
0010
0000
,  // measure 82
0120
0000
0000
0130
0000
0000
0000
0000
,  // measure 83
1000
0000
0100
0000
,  // measure 84
0010
0000
0000
0010
0000
0000
0000
0000
,  // measure 85
0002
0003
0000
0000
0000
0000
0000
0000
;
