#VERSION:0.83;
#TITLE:LRAD;
#SUBTITLE:;
#ARTIST:Knife Party;
#TITLETRANSLIT:;
#SUBTITLETRANSLIT:;
#ARTISTTRANSLIT:;
#GENRE:Big Room House;
#ORIGIN:;
#CREDIT:Feraligatr;
#BANNER:LRAD-bn.png;
#BACKGROUND:LRAD-bg-wide.png;
#PREVIEWVID:;
#JACKET:LRAD-jacket.png;
#CDIMAGE:FeraligatrV5-cd.png;
#DISCIMAGE:LRAD-bg.png;
#LYRICSPATH:;
#CDTITLE:;
#MUSIC:Knife Party - LRAD.ogg;
#OFFSET:0.009000;
#SAMPLESTART:43.116001;
#SAMPLELENGTH:15.000000;
#SELECTABLE:YES;
#DISPLAYBPM:128.000000;
#BPMS:0.000=128.000;
#STOPS:;
#DELAYS:;
#WARPS:;
#TIMESIGNATURES:0.000=4=4;
#TICKCOUNTS:0.000=4;
#COMBOS:0.000=1;
#SPEEDS:0.000=1.000=0.000=0;
#SCROLLS:0.000=1.000;
#FAKES:;
#LABELS:0.000=Song Start;
#BGCHANGES:;
#KEYSOUNDS:;
#ATTACKS:
;

//---------------dance-single - Feraligatr----------------
#NOTEDATA:;
#CHARTNAME:Feraligatr;
#STEPSTYPE:dance-single;
#DESCRIPTION:Feraligatr;
#CHARTSTYLE:;
#DIFFICULTY:Challenge;
#METER:10;
#RADARVALUES:0.763975,1.005072,1.304348,0.311594,0.681159,738.000000,544.000000,180.000000,43.000000,4.000000,17.000000,8.000000,0.000000,0.000000,0.763975,1.005072,1.304348,0.311594,0.681159,738.000000,544.000000,180.000000,43.000000,4.000000,17.000000,8.000000,0.000000,0.000000;
#CREDIT:Feraligatr;
#DISPLAYBPM:128.000000;
#NOTES:
0000
0000
0000
0000
,
0000
0000
0000
0000
,
0000
0000
0000
0000
,
0000
0000
0000
0000
,
1000
0000
0000
0001
0010
0000
0001
0000
1000
0000
0010
0100
0001
0000
0010
0000
,
0100
0000
0000
0010
0001
0000
1000
0000
0001
0000
0100
0010
1000
0000
0100
0000
,
0010
0000
0000
0001
1000
0000
0001
0000
0100
0000
0010
0100
0001
0000
0010
0000
,
0100
0000
0000
1000
0001
0000
1000
0000
0010
0000
0100
0000
0110
0000
0000
0000
,
1010
0000
0000
0000
1000
0000
0000
0000
0010
0000
0000
1000
0000
0000
0100
0000
,
0000
0010
0000
0000
0001
0000
0000
0000
0001
0000
0000
0010
0000
0000
0100
0000
,
1000
0000
0000
0000
1000
0000
0000
0000
1000
0000
0000
0010
0000
0000
0100
0000
,
0000
0001
0000
0000
0001
0000
0000
0000
0001
0000
0000
0010
0000
0000
0100
0000
,
1000
0000
0000
0000
0010
0000
0000
0000
0100
0000
0000
0001
0000
0000
0010
0000
,
0000
0100
0000
0000
1000
0000
0000
0000
1000
0000
0000
0100
0000
0000
0010
0000
,
0001
0000
0000
0000
0001
0000
0000
0000
0001
0000
0000
0100
0000
0000
0010
0000
,
0000
1000
0000
0000
1000
0000
0000
0000
1000
0000
0000
0001
0010
0000
0100
0000
,
1100
0000
0000
0000
1000
0000
0000
0000
0001
0000
0000
0100
0010
0000
1000
0000
,
0001
0000
0000
0000
0001
0000
0000
0000
0010
0000
0000
0100
1000
0000
0001
0000
,
0100
0000
0000
0000
0100
0000
0000
0000
0010
0000
0000
1000
0001
0000
0010
0000
,
0100
0000
0000
0000
0100
0000
0000
0000
1000
0000
0000
0001
0100
0000
0001
0000
,
1000
0100
1000
0001
0100
0010
0100
0001
1000
0001
0010
0100
1000
0001
0100
0001
,
1000
0010
1000
0001
0010
0100
1000
0001
1000
0010
0100
0001
1000
0100
0010
0001
,
4000
0000
0000
0040
0000
0000
0000
0000
0000
0000
3000
0000
0430
0000
0000
0004
0000
0000
0000
0000
0000
0000
0300
0000
4003
0000
0000
0400
0000
0000
0000
0000
0000
0000
3000
0000
0340
0000
0000
0004
0000
0000
0000
0000
0000
0000
0030
0000
,
0203
0000
0301
0100
0010
1000
0100
0010
0002
0000
0000
0000
0000
0000
0000
0003
,
2001
0000
0000
3011
0100
0000
0011
0000
1000
0000
0011
0000
0100
0000
0011
0000
,
0110
0000
0000
1100
0001
0000
1100
0000
0010
0000
1100
0000
0001
0000
0000
0000
,
2001
0000
0000
3101
0010
0000
0101
0000
1000
0000
0101
0000
0010
0000
0101
0000
,
0110
0000
0000
1010
0001
0000
1010
0000
0100
0000
1010
0000
0001
0000
0100
0000
,
0120
0000
0000
1130
0010
0000
1100
0000
0001
0000
1100
0000
0010
0000
1100
0000
,
0110
0000
0000
0011
1000
0000
0011
0000
0100
0000
0011
0000
1000
0000
0000
0000
,
2001
0000
0000
3101
0010
0000
0101
0000
1000
0000
0101
0000
0010
0000
0101
0000
,
2000
0000
0000
3000
2000
0000
0000
0000
3020
0000
0000
0000
0230
0000
0000
0300
,
0102
0000
0000
1103
0010
0000
1100
0000
0001
0000
0011
0000
0001
0000
1100
0000
,
0110
0000
0000
0011
0100
0000
0011
0000
1000
0000
0011
0000
0100
0000
0001
0000
,
0021
0000
0000
0131
1000
0000
0101
0000
0010
0000
0101
0000
1000
0000
0101
0000
,
0110
0000
0000
1010
0100
0000
1010
0000
0001
0000
1010
0000
0100
0000
1000
0000
,
2010
0000
0000
3011
0100
0000
0011
0000
1000
0000
1100
0000
1000
0000
0011
0000
,
0110
0000
0000
1100
0010
0000
1100
0000
0001
0000
1100
0000
0010
0000
1000
0000
,
1200
0000
0000
1310
0001
0000
1010
0000
0100
0000
1010
0000
0001
0000
1010
0000
,
0002
0000
0000
0003
0002
0000
0000
0000
0203
0000
0000
0000
0320
0000
0000
0030
,
2010
0000
0000
3010
1000
0000
1000
0001
0010
0000
0110
0000
0100
0000
1000
1000
,
0001
0100
0010
0000
0010
1000
0000
1000
0001
0000
0000
1000
0001
0000
0010
0000
,
0021
0000
0000
0031
0010
0000
0001
1000
0010
0000
0110
0000
0100
0000
0001
0001
,
1000
0100
0010
0000
0010
0001
0000
0001
1000
0000
0000
0001
1000
0000
0010
0000
,
2010
0000
0000
3001
0010
0000
0100
1000
0001
0000
0101
0000
0100
0000
0010
0010
,
0100
0001
1000
0000
1000
0100
0000
0100
0010
0000
0000
0100
0010
0000
0001
0000
,
0012
0000
0000
1003
0010
0000
0100
0001
1000
0000
1100
0000
0100
0000
1000
1000
,
0001
0000
1000
0010
0100
0001
0010
0100
2000
0000
0000
0000
0000
0000
0000
3000
,
1002
0000
0000
1103
0011
1100
0011
1100
0011
1100
0000
0011
,
1000
0000
0000
0000
0101
0000
1010
0000
0101
0000
1010
0000
0101
00M0
1100
0000
0011
0000
0100
0000
0001
0000
0010
0000
,
0110
0000
0000
0101
1010
0101
1010
0101
1010
0101
0000
1010
,
0001
0000
1100
0011
1100
0011
1100
0011
1100
0001
0010
0100
,
1100
0000
0000
0101
1010
0101
1010
0101
1010
0101
0000
1010
,
0001
0000
0000
0000
1100
0000
0011
0000
1100
0000
0011
0000
1100
00M0
0101
0000
1010
0000
0001
0000
0100
0000
0010
0000
,
0110
0000
0000
0011
1100
0011
1100
0011
1100
0011
0000
1100
,
0002
0000
0000
0000
0000
0000
0000
0000
0000
0003
0000
0000
0002
0000
0000
0000
0000
0000
0000
0000
0000
0000
0000
0000
0023
0000
0000
0000
0100
0000
0000
0000
0100
0030
0000
0000
2000
0000
0000
0000
0001
0000
0000
0000
0001
3000
0000
0000
,
0101
0000
0000
0100
0011
0000
1111
0000
1100
0000
0011
0M00
,
1010
0000
0101
0000
1010
0000
1111
1000
0101
0000
1010
0000
,
1001
0000
0000
0001
1100
0000
1111
0000
0110
0000
0011
0000
,
1000
0000
0101
0000
1010
0000
1111
0000
0101
0000
1010
0101
,
1001
0000
0000
0001
1100
0000
1111
0000
0011
0000
1100
00M0
,
0101
0000
1010
0000
0101
0000
1111
0001
1010
0000
0101
0000
,
1002
0000
1103
0000
0011
0000
1111
0000
0110
0000
1100
0000
,
0002
0000
0000
0003
0002
0000
0000
0000
0023
0000
0000
0000
0230
0000
0000
0300
,
2100
0000
0000
3100
1000
0000
0001
1000
0010
0000
0110
0000
0100
0000
0001
0001
,
1000
0100
0010
0000
0010
0001
0000
0001
1000
0000
0000
0001
1000
0000
0010
0000
,
1020
0000
0000
1030
0010
0000
1000
0001
0010
0000
0110
0000
0100
0000
1000
1000
,
0001
0100
0010
0000
0010
1000
0000
1000
0001
0000
0000
1000
0001
0000
0010
0000
,
0012
0000
0000
1003
0010
0000
0100
0001
1000
0000
1100
0000
0100
0000
0010
0010
,
0001
1000
0010
0000
0010
0100
0000
0100
0001
0000
0000
0100
0001
0000
1000
0000
,
2100
0000
0000
3001
0010
0000
0100
1000
0001
0000
0101
0000
0100
0000
0001
0001
,
2000
0000
0000
3000
2000
0000
0000
0000
3200
0000
0000
0000
0320
0000
0000
0030
,
2002
0000
0000
0000
,
3003
0000
0000
0000
;

//---------------dance-single - Feraligatr----------------
#NOTEDATA:;
#CHARTNAME:Feraligatr SH;
#STEPSTYPE:dance-single;
#DESCRIPTION:Feraligatr;
#CHARTSTYLE:;
#DIFFICULTY:Hard;
#METER:8;
#RADARVALUES:0.539337,0.581884,0.181159,0.246377,0.568841,521.000000,496.000000,25.000000,34.000000,0.000000,0.000000,0.000000,0.000000,0.000000,0.539337,0.581884,0.181159,0.246377,0.568841,521.000000,496.000000,25.000000,34.000000,0.000000,0.000000,0.000000,0.000000,0.000000;
#CREDIT:Feraligatr;
#DISPLAYBPM:128.000000;
#NOTES:
0000
0000
0000
0000
,
0000
0000
0000
0000
,
0000
0000
0000
0000
,
0000
0000
0000
0000
,
1000
0000
0000
0001
0000
0000
0001
0000
0100
0000
0000
0010
0000
0000
1000
0000
,
0100
0000
0000
0010
0100
0000
1000
0000
0001
0000
0000
1000
0000
0000
0010
0000
,
0100
0000
0000
0001
0000
0000
0001
0000
1000
0000
0000
0100
0000
0000
0010
0000
,
0001
0000
0000
1000
0010
0000
1000
0000
0001
0000
0000
0010
0000
0000
0100
0000
,
1001
0000
0000
0000
1000
0000
0000
0000
0010
0000
0000
1000
0000
0000
0100
0000
,
0000
0010
0000
0000
0001
0000
0000
0000
0001
0000
0000
1000
0000
0000
0010
0000
,
0100
0000
0000
0000
0100
0000
0000
0000
0100
0000
0000
0001
0000
0000
1000
0000
,
0000
0100
0000
0000
0100
0000
0000
0000
0100
0000
0000
0010
0000
0000
0001
0000
,
1000
0000
0000
0000
0010
0000
0000
0000
0100
0000
0000
0001
0000
0000
0010
0000
,
0000
0100
0000
0000
1000
0000
0000
0000
1000
0000
0000
0001
0000
0000
0100
0000
,
0010
0000
0000
0000
0010
0000
0000
0000
0010
0000
0000
1000
0000
0000
0001
0000
,
0000
0010
0000
0000
0010
0000
0000
0000
0010
0000
0000
0100
1000
0000
0001
0000
,
0101
0000
0000
0000
0100
0000
0000
0000
0010
0000
0000
1000
0000
0000
0001
0000
,
0010
0000
0000
0000
0010
0000
0000
0000
0100
0000
0000
1000
0000
0000
0001
0000
,
0100
0000
0000
0000
0100
0000
0000
0000
0010
0000
0000
1000
0000
0000
0001
0000
,
0010
0000
0000
0000
0010
0000
0000
0000
0100
0000
0000
1000
0000
0000
0001
0000
,
1000
0010
0100
0001
1000
0100
0010
0001
,
1000
0100
1000
0001
0100
0010
1000
0001
,
1000
0010
1000
0000
0001
0100
0001
0000
1000
0100
1000
0000
0001
0010
0001
0000
,
0200
0300
0000
0000
0000
0000
0000
0000
,
1001
0000
0000
1000
0100
0000
1000
0000
0001
0000
1000
0000
0100
0000
1000
0000
,
0001
0000
0000
0100
0010
0000
0100
0000
0001
0000
0100
0000
0010
0000
0000
0000
,
1000
0000
0000
0001
0010
0000
0001
0000
1000
0000
0001
0000
0010
0000
0001
0000
,
1000
0000
0000
0010
0100
0000
0010
0000
1000
0000
0010
0000
0100
0000
0001
0000
,
1000
0000
0000
0100
0010
0000
0100
0000
1000
0000
0100
0000
0010
0000
0100
0000
,
1000
0000
0000
0001
0100
0000
0001
0000
1000
0000
0001
0000
0100
0000
0000
0000
,
0010
0000
0000
1000
0001
0000
1000
0000
0100
0000
1000
0000
0001
0000
1000
0000
,
0020
0000
0000
0030
0020
0000
0000
0000
0230
0000
0000
0000
0302
0000
0000
0003
,
1001
0000
0000
1000
0001
0000
1000
0000
0100
0000
0001
0000
0100
0000
1000
0000
,
0001
0000
0000
0100
0010
0000
0100
0000
0001
0000
0100
0000
0010
0000
1000
0000
,
2100
0000
0000
3001
0100
0000
0001
0000
1000
0000
0001
0000
0100
0000
0001
0000
,
1000
0000
0000
0100
0010
0000
0100
0000
1000
0000
0100
0000
0010
0000
0001
0000
,
0201
0000
0000
0301
1000
0000
0001
0000
0100
0000
1000
0000
0100
0000
0001
0000
,
1000
0000
0000
0100
0010
0000
0100
0000
1000
0000
0100
0000
0010
0000
0001
0000
,
0102
0000
0000
1003
0001
0000
1000
0000
0100
0000
1000
0000
0001
0000
1000
0000
,
0020
0000
0000
0030
0020
0000
0000
0000
0230
0000
0000
0000
0302
0000
0000
0003
,
1001
0000
0000
1000
0100
0000
1000
0000
0100
0000
0001
0000
0100
0000
0010
0001
,
1000
0010
0100
0000
0001
0100
0000
0001
1000
0000
0000
0001
1000
0000
0100
0000
,
2100
0000
0000
3001
0100
0000
0001
0000
0100
0000
1000
0000
0100
0000
0010
1000
,
0001
0010
0100
0000
1000
0100
0000
1000
0001
0000
0000
1000
0001
0000
0100
0000
,
0102
0000
0000
1003
0010
0000
1000
0000
0010
0000
0001
0000
0010
0000
0100
0001
,
1000
0100
0010
0000
0001
0010
0000
0001
1000
0000
0000
0001
1000
0000
0010
0000
,
2010
0000
0000
3001
0010
0000
0001
0000
0010
0000
1000
0000
0010
0000
0100
1000
,
0001
0000
0000
0000
0001
0000
0000
0000
0200
0000
0000
0000
0010
0000
0000
0300
,
1001
0000
0000
1000
0100
1000
0001
0100
0001
1000
0000
0100
,
0000
0000
0100
1000
0001
1000
0010
0100
0001
0010
0100
1000
,
0010
0000
0000
0100
0001
0100
0010
1000
0010
0100
0000
0001
,
0000
0000
0001
1000
0100
1000
0001
0100
0010
1000
0100
0010
,
0001
0000
0000
1000
0010
1000
0001
0010
0001
1000
0000
0010
,
0000
0000
0010
1000
0001
1000
0100
0010
0001
0100
0010
1000
,
0100
0000
0000
0010
0001
0010
0100
1000
0100
0010
0000
0001
,
2000
0000
0000
0000
0000
0000
0000
0000
0000
3000
0000
0000
2000
0000
0000
0000
0000
0000
0000
0000
0000
0000
0000
0000
3020
0000
0000
0000
0100
0000
0000
0000
0130
0000
0000
0000
0002
0000
0000
0000
1000
0000
0000
0000
1003
0000
0000
0000
,
0100
0000
0000
0010
0001
0000
1001
0000
1000
0000
0010
0000
,
0100
0000
0001
0000
1000
0000
1100
0000
0001
0000
0100
0000
,
1010
0000
0000
0001
0010
0000
0110
0000
0001
0000
0010
0000
,
0100
0000
1000
0000
0010
0000
0001
0000
0010
0000
0100
0001
,
0010
0000
0000
0100
1000
0000
1001
0000
0001
0000
0100
0000
,
0010
0000
1000
0000
0001
0000
0011
0000
0010
0000
0100
0000
,
2100
0000
3001
0000
0100
0000
0110
0000
1000
0000
0010
0000
,
0200
0000
0000
0300
0200
0000
0000
0000
0302
0000
0000
0000
2003
0000
0000
3000
,
1001
0000
0000
0001
0010
0000
0000
0001
0010
0000
1000
0000
0010
0000
0100
1000
,
0001
0100
0010
0000
1000
0010
0000
1000
0001
0000
0000
1000
0001
0000
0010
0000
,
0012
0000
0000
1003
0010
0000
0000
1000
0010
0000
0001
0000
0010
0000
0100
0001
,
1000
0100
0010
0000
0001
0010
0000
0001
1000
0000
0000
0001
1000
0000
0010
0000
,
2010
0000
0000
3001
0100
0000
0000
0001
0100
0000
1000
0000
0100
0000
0010
1000
,
0001
0010
0100
0000
1000
0100
0000
1000
0001
0000
0000
1000
0001
0000
0100
0000
,
0102
0000
0000
1003
0100
0000
0000
1000
0100
0000
0001
0000
0100
0000
0010
0001
,
2000
0000
0000
3000
2000
0000
0000
0000
3020
0000
0000
0000
0230
0000
0000
0300
,
2002
0000
0000
0000
,
3003
0000
0000
0000
;

//---------------dance-single - Feraligatr----------------
#NOTEDATA:;
#CHARTNAME:Feraligatr SM;
#STEPSTYPE:dance-single;
#DESCRIPTION:Feraligatr;
#CHARTSTYLE:;
#DIFFICULTY:Medium;
#METER:7;
#RADARVALUES:0.437888,0.528986,0.152174,0.282609,0.347826,423.000000,402.000000,21.000000,39.000000,0.000000,0.000000,2.000000,0.000000,0.000000,0.437888,0.528986,0.152174,0.282609,0.347826,423.000000,402.000000,21.000000,39.000000,0.000000,0.000000,2.000000,0.000000,0.000000;
#CREDIT:Feraligatr;
#DISPLAYBPM:128.000000;
#NOTES:
0000
0000
0000
0000
,
0000
0000
0000
0000
,
0000
0000
0000
0000
,
0000
0000
0000
0000
,
1000
0000
0000
0000
0001
0000
0000
0000
0100
0000
0000
0010
0000
0000
1000
0000
,
0001
0000
0000
0000
0010
0000
0000
0000
0100
0000
0000
1000
0000
0000
0001
0000
,
0100
0000
0000
0000
0001
0000
0000
0000
1000
0000
0000
0100
0000
0000
0010
0000
,
0100
0000
0000
0000
1000
0000
0000
0000
0001
0000
0000
0100
0000
0000
0010
0000
,
1000
0000
0000
0000
0001
0000
0000
0000
0010
0000
0000
0100
0000
0000
1000
0000
,
0000
0001
0000
0000
0100
0000
0000
0000
0010
0000
0000
1000
0000
0000
0001
0000
,
0010
0000
0000
0000
0010
0000
0000
0000
0010
0000
0000
0100
0000
0000
1000
0000
,
0000
0001
0000
0000
0100
0000
0000
0000
0010
0000
0000
1000
0000
0000
0001
0000
,
0010
0000
0000
0000
0100
0000
0000
0000
1000
0000
0000
0001
0000
0000
0100
0000
,
0000
0010
0000
0000
1000
0000
0000
0000
0001
0000
0000
0010
0000
0000
0100
0000
,
1000
0000
0000
0000
1000
0000
0000
0000
1000
0000
0000
0001
0000
0000
0100
0000
,
0000
0010
0000
0000
1000
0000
0000
0000
0001
0000
0000
0010
0000
0000
0100
0000
,
1000
0000
0000
0000
0001
0000
0000
0000
0100
0000
0000
0010
0000
0000
1000
0000
,
0100
0000
0000
0000
0100
0000
0000
0000
0010
0000
0000
0001
0000
0000
1000
0000
,
0010
0000
0000
0000
0100
0000
0000
0000
0001
0000
0000
1000
0000
0000
0100
0000
,
0010
0000
0000
0000
0010
0000
0000
0000
0001
0000
0000
1000
0000
0000
0010
0000
,
0100
0001
0100
0001
1000
0010
1000
0010
,
1000
0001
1000
0001
0010
0100
0010
0100
,
4000
0004
0000
0000
0000
0000
0000
0000
0000
0000
0000
0000
0000
0000
0000
0000
,
3003
0000
0000
0000
,
1001
0000
0000
1000
0000
0000
0100
0000
0010
0000
0001
0000
0010
0000
0001
0000
,
1000
0000
0000
0001
0000
0000
0100
0000
0010
0000
1000
0000
0001
0000
0000
0000
,
0010
0000
0000
0100
0000
0000
1000
0000
0001
0000
0100
0000
0001
0000
0100
0000
,
0010
0000
0000
1000
0000
0000
0001
0000
0010
0000
0100
0000
1000
0000
0001
0000
,
0100
0000
0000
0010
0000
0000
1000
0000
0001
0000
0010
0000
0001
0000
0010
0000
,
0100
0000
0000
1000
0000
0000
0001
0000
0100
0000
0010
0000
1000
0000
0000
0000
,
0001
0000
0000
0010
0000
0000
0100
0000
1000
0000
0001
0000
1000
0000
0001
0000
,
0200
0000
0000
0300
0200
0000
0000
0000
0320
0000
0000
0000
2030
0000
0000
3000
,
2001
0000
0000
3001
0000
0000
1000
0000
0100
0000
0010
0000
0001
0000
1000
0000
,
0010
0000
0000
1000
0000
0000
0001
0000
0010
0000
0100
0000
1000
0000
0001
0000
,
0201
0000
0000
0310
0000
0000
1000
0000
0001
0000
0010
0000
0001
0000
0010
0000
,
0100
0000
0000
1000
0000
0000
0001
0000
0100
0000
0010
0000
1000
0000
0001
0000
,
0021
0000
0000
0130
0000
0000
1000
0000
0001
0000
0010
0000
0001
0000
0100
0000
,
0010
0000
0000
1000
0000
0000
0001
0000
0010
0000
0100
0000
1000
0000
0001
0000
,
0102
0000
0000
1003
0000
0000
0001
0000
0010
0000
0100
0000
0010
0000
0100
0000
,
2000
0000
0000
3000
2000
0000
0000
0000
3002
0000
0000
0000
0203
0000
0000
0300
,
0120
0000
1030
0000
0001
0010
0001
1000
,
0010
0000
0100
0000
0001
1000
0100
0010
,
0012
0000
1003
0000
0010
0100
0001
1000
,
0100
0000
0010
0000
0100
1000
0001
0100
,
0120
0000
1030
0000
0001
0010
0001
1000
,
0010
0000
0100
0000
0001
1000
0100
1000
,
1002
0000
0103
0000
0010
1000
0001
0010
,
0200
0000
0000
0300
0200
0000
0000
0000
2300
0000
0000
0000
3002
0000
0000
0003
,
0101
0000
0000
0001
0100
0001
0100
0001
0100
0001
0000
1000
,
0000
0000
1000
0100
1000
0100
1000
0100
0010
0001
0000
0000
,
1001
0000
0000
1000
0010
1000
0010
1000
0010
1000
0000
0001
,
0000
0000
0001
0010
0001
0010
0001
0010
0001
0100
0000
0000
,
0110
0000
0000
1000
0001
1000
0001
1000
0001
1000
0000
0010
,
0000
0000
0010
0100
0010
0100
0010
0100
0010
0100
0000
0000
,
0110
0000
0000
0001
1000
0001
1000
0001
1000
0001
0000
0010
,
0200
0000
0000
0300
0200
0000
0000
0000
2300
0000
0000
0000
3002
0000
0000
0003
,
0101
0000
0000
0000
0100
0000
0001
0000
1000
0000
0100
0000
,
0010
0000
0001
0000
1000
0000
0010
0000
0100
0000
0001
0000
,
1001
0000
0000
0000
1000
0000
0100
0000
0010
0000
0100
0000
,
0000
0000
1000
0000
0001
0000
0100
0000
0010
0000
1000
0001
,
0010
0000
0000
0000
0100
0000
1000
0000
0001
0000
0100
0000
,
0010
0000
1000
0000
0001
0000
0010
0000
0100
0000
1000
0000
,
1002
0000
1003
0000
0001
0000
0100
0000
0010
0000
1000
0000
,
0002
0000
0000
0003
0002
0000
0000
0000
0023
0000
0000
0000
0230
0000
0000
0300
,
2100
0000
3001
0000
1000
0100
1000
0001
,
0100
0000
0010
0000
1000
0001
0010
0100
,
2100
0000
3001
0000
0100
0010
1000
0001
,
0010
0000
0100
0000
0010
0001
1000
0010
,
0210
0000
0301
0000
1000
0100
1000
0001
,
0100
0000
0010
0000
1000
0001
0010
0001
,
2001
0000
3010
0000
0100
0001
1000
0100
,
0020
0000
0000
0030
0020
0000
0000
0000
0032
0000
0000
0000
2003
0000
0000
3000
,
2002
0000
0000
0000
,
3003
0000
0000
0000
;

//---------------dance-single - Feraligatr----------------
#NOTEDATA:;
#CHARTNAME:Feraligatr SE;
#STEPSTYPE:dance-single;
#DESCRIPTION:Feraligatr;
#CHARTSTYLE:;
#DIFFICULTY:Easy;
#METER:4;
#RADARVALUES:0.252588,0.290942,0.108696,0.079710,0.000000,244.000000,229.000000,15.000000,11.000000,0.000000,0.000000,1.000000,0.000000,0.000000,0.252588,0.290942,0.108696,0.079710,0.000000,244.000000,229.000000,15.000000,11.000000,0.000000,0.000000,1.000000,0.000000,0.000000;
#CREDIT:Feraligatr;
#DISPLAYBPM:128.000000;
#NOTES:
// measure 0
0000
0000
0000
0000
,  // measure 1
0000
0000
0000
0000
,  // measure 2
0000
0000
0000
0000
,  // measure 3
0000
0000
0000
0000
,  // measure 4
1000
0001
0100
0000
,  // measure 5
0010
1000
0001
0000
,  // measure 6
0010
0100
1000
0000
,  // measure 7
0001
0100
0010
1000
,  // measure 8
1001
1000
0001
0000
,  // measure 9
0000
0000
0100
0010
,  // measure 10
1000
1000
1000
0100
,  // measure 11
0010
0000
0001
0100
,  // measure 12
0010
1000
0001
0000
,  // measure 13
0000
0000
0010
0100
,  // measure 14
1000
1000
1000
0100
,  // measure 15
0010
0000
0001
1000
,  // measure 16
0010
0100
0001
1000
,  // measure 17
0100
0010
0100
1000
,  // measure 18
0001
0100
0010
1000
,  // measure 19
0001
0010
0100
1000
,  // measure 20
0001
0001
0100
0100
,  // measure 21
0010
0010
1000
1000
,  // measure 22
0400
0000
0000
0000
,  // measure 23
0310
0000
0000
0000
,  // measure 24
1001
0001
0100
0001
,  // measure 25
1000
0100
1000
0001
,  // measure 26
0000
1000
0100
1000
,  // measure 27
0001
0100
0001
1000
,  // measure 28
0100
0010
0001
0010
,  // measure 29
0100
1000
0100
0010
,  // measure 30
0000
0001
0100
0010
,  // measure 31
1000
1000
0100
0010
,  // measure 32
0011
0001
1000
0010
,  // measure 33
0100
0001
1000
0100
,  // measure 34
0020
0031
1000
0001
,  // measure 35
0100
0010
1000
0001
,  // measure 36
0020
0130
0010
0001
,  // measure 37
1000
0010
0100
0001
,  // measure 38
2000
3001
0010
0100
,  // measure 39
1000
1000
0001
0100
,  // measure 40
0120
1030
0001
0000
,  // measure 41
0010
0100
1000
0000
,  // measure 42
0002
0103
0010
0000
,  // measure 43
1000
0001
0010
0000
,  // measure 44
0200
1300
0001
0000
,  // measure 45
0100
0010
0100
0000
,  // measure 46
0001
1000
0100
0000
,  // measure 47
0010
0010
0001
1000
,  // measure 48
1010
0001
0100
0001
,  // measure 49
0000
1000
0010
1000
,  // measure 50
0100
0010
0100
0000
,  // measure 51
1000
0001
1000
0010
,  // measure 52
0100
0001
0010
0001
,  // measure 53
0000
1000
0100
1000
,  // measure 54
0010
0100
0010
0000
,  // measure 55
1000
1000
0100
0010
,  // measure 56
0011
1000
1001
0000
,  // measure 57
0001
0100
0110
0000
,  // measure 58
0010
1000
1001
0000
,  // measure 59
0001
0010
0110
0000
,  // measure 60
0100
1000
1001
0000
,  // measure 61
0001
0100
0110
0000
,  // measure 62
0010
0100
0101
0000
,  // measure 63
1000
1000
0001
0010
,  // measure 64
0120
0031
1000
0000
,  // measure 65
0001
0100
0010
0000
,  // measure 66
2000
3001
0010
0000
,  // measure 67
0100
1000
0001
0000
,  // measure 68
0200
0310
1000
0000
,  // measure 69
0001
0010
0001
0000
,  // measure 70
2000
3010
0100
0000
,  // measure 71
0001
0001
0010
0100
,  // measure 72
2001
0000
0000
0000
,  // measure 73
3000
0000
0000
0000
;

//---------------dance-single - Feraligatr----------------
#NOTEDATA:;
#CHARTNAME:Feraligatr SN;
#STEPSTYPE:dance-single;
#DESCRIPTION:Feraligatr;
#CHARTSTYLE:;
#DIFFICULTY:Beginner;
#METER:2;
#RADARVALUES:0.105590,0.185145,0.072464,0.007246,0.000000,102.000000,92.000000,10.000000,1.000000,0.000000,0.000000,0.000000,0.000000,0.000000,0.105590,0.185145,0.072464,0.007246,0.000000,102.000000,92.000000,10.000000,1.000000,0.000000,0.000000,0.000000,0.000000,0.000000;
#CREDIT:Feraligatr;
#DISPLAYBPM:128.000000;
#NOTES:
// measure 0
0000
0000
0000
0000
,  // measure 1
0000
0000
0000
0000
,  // measure 2
0000
0000
0000
0000
,  // measure 3
0000
0000
0000
0000
,  // measure 4
1000
0000
0000
0000
,  // measure 5
0001
0000
0000
0000
,  // measure 6
0100
0000
0000
0000
,  // measure 7
0010
0000
0000
0100
,  // measure 8
0110
0000
0000
0000
,  // measure 9
0000
0000
0000
0000
,  // measure 10
1000
1000
1000
0000
,  // measure 11
0000
0000
0000
0000
,  // measure 12
0001
0000
0000
0000
,  // measure 13
0000
0000
0000
0000
,  // measure 14
0010
0010
0010
0000
,  // measure 15
0000
0000
0000
0000
,  // measure 16
1001
0000
0000
0000
,  // measure 17
1000
0000
0000
0000
,  // measure 18
0001
0000
0000
0000
,  // measure 19
0100
0000
0000
0000
,  // measure 20
0010
0000
0010
0000
,  // measure 21
1000
0000
1000
0000
,  // measure 22
0001
0000
0001
0000
,  // measure 23
0010
0000
0000
0000
,  // measure 24
1001
0000
0000
0000
,  // measure 25
1000
0000
0000
0000
,  // measure 26
0010
0000
0000
0000
,  // measure 27
0100
0000
0000
0000
,  // measure 28
0001
0000
0000
0000
,  // measure 29
1000
0000
0000
0000
,  // measure 30
0100
0000
0000
0000
,  // measure 31
0010
0001
0010
0001
,  // measure 32
1000
0000
0000
0000
,  // measure 33
0001
0000
0000
0000
,  // measure 34
0100
0000
0000
0000
,  // measure 35
0010
0000
0000
0000
,  // measure 36
1000
0000
0000
0000
,  // measure 37
0001
0000
0000
0000
,  // measure 38
0010
0000
0000
0000
,  // measure 39
0100
1000
0100
1000
,  // measure 40
0001
0000
0000
0000
,  // measure 41
0100
0000
0000
0000
,  // measure 42
0010
0000
0000
0000
,  // measure 43
1000
0000
0000
0000
,  // measure 44
0001
0000
0000
0000
,  // measure 45
0010
0000
0000
0000
,  // measure 46
0100
0000
0000
0000
,  // measure 47
1000
0001
1000
0001
,  // measure 48
0100
0000
0000
0000
,  // measure 49
0010
0000
0000
0000
,  // measure 50
1000
0000
0000
0000
,  // measure 51
0001
0000
0000
0000
,  // measure 52
0010
0000
0000
0000
,  // measure 53
0100
0000
0000
0000
,  // measure 54
0010
0000
0000
0000
,  // measure 55
0001
0100
0001
0100
,  // measure 56
0010
0000
1001
0000
,  // measure 57
0000
0000
0110
0000
,  // measure 58
0000
0000
1001
0000
,  // measure 59
0000
0000
0110
0000
,  // measure 60
0000
0000
1001
0000
,  // measure 61
0000
0000
0110
0000
,  // measure 62
0000
0000
1001
0000
,  // measure 63
1000
0001
1000
0001
,  // measure 64
0010
0000
0000
0000
,  // measure 65
0100
0000
0000
0000
,  // measure 66
1000
0000
0000
0000
,  // measure 67
0001
0000
0000
0000
,  // measure 68
0100
0000
0000
0000
,  // measure 69
0010
0000
0000
0000
,  // measure 70
1000
0000
0000
0000
,  // measure 71
0001
1000
0001
1000
,  // measure 72
0200
0000
0000
0000
,  // measure 73
0300
0000
0000
0000
;
