#TITLE:LRAD;
#SUBTITLE:(Haus of Panda Remix);
#ARTIST:Knife Party;
#TITLETRANSLIT:;
#SUBTITLETRANSLIT:;
#ARTISTTRANSLIT:;
#GENRE:Psy;
#CREDIT:Feraligatr;
#BANNER:LRADRemix-bn.png;
#BACKGROUND:LRADRemix-bg-wide.png;
#LYRICSPATH:;
#CDTITLE:;
#MUSIC:KNIFE PARTY - LRAD (HAUS OF PANDA SPEED HOUSE REMIX).ogg;
#OFFSET:0.009000;
#SAMPLESTART:39.419998;
#SAMPLELENGTH:13.714000;
#SELECTABLE:YES;
#DISPLAYBPM:140.000000;
#BPMS:0.000000=140.000000
;
#STOPS:
;
#BGCHANGES:;
#KEYSOUNDS:;
#ATTACKS:;

//---------------dance-single - Feraligatr----------------
#NOTES:
     dance-single:
     Feraligatr:
     Challenge:
     12:
     0.871795,1.104274,0.692308,0.076923,1.119658,714.000000,633.000000,81.000000,9.000000,24.000000,0.000000,0.871795,1.104274,0.692308,0.076923,1.119658,714.000000,633.000000,81.000000,9.000000,24.000000,0.000000:
// measure 0
0000
0000
0000
0000
,  // measure 1
0000
0000
0000
0000
,  // measure 2
0000
0000
0000
0000
,  // measure 3
0000
0000
0000
0000
,  // measure 4
1001
1000
1010
0010
0110
0100
0101
0001
,  // measure 5
1001
1000
1100
0100
0110
0010
0011
0001
,  // measure 6
1001
1010
0110
0101
1001
1100
0110
0011
,  // measure 7
0001
1000
0001
0010
0100
1000
0001
1000
0010
0100
0001
0010
0001
0100
0010
1000
,  // measure 8
0100
0000
0000
0000
0010
0000
0000
0000
0100
0000
0000
1000
0000
0000
0010
0000
,  // measure 9
0000
0100
0000
0000
0001
0000
0000
0000
0001
0000
0000
0100
0000
0000
0010
0000
,  // measure 10
1000
0000
0000
0000
1000
0000
0000
0000
1000
0000
0000
0100
0000
0000
0010
0000
,  // measure 11
0000
0001
0000
0000
0001
0000
0000
0000
0001
0000
0000
0100
0000
0000
0010
0000
,  // measure 12
1000
0000
0000
0000
0100
0000
0000
0000
0010
0000
0000
0001
0000
0000
0100
0000
,  // measure 13
0000
0010
0000
0000
1000
0000
0000
0000
1000
0000
0000
0010
0000
0000
0100
0000
,  // measure 14
0001
0000
0000
0000
0001
0000
0000
0000
0001
0000
0000
0010
0000
0000
0100
0000
,  // measure 15
0000
1000
0000
0000
1000
0000
0000
0000
1000
0000
0000
0010
0000
0000
0100
0000
,  // measure 16
0001
0000
0000
0000
0001
0000
0000
0000
0010
0000
0000
0100
1000
0000
0001
0000
,  // measure 17
0100
0000
0000
0000
0100
0000
0000
0000
0010
0000
0000
1000
0001
0000
0010
0000
,  // measure 18
0100
0000
0000
0000
0100
0000
0000
0000
1000
0000
0000
0001
0100
0000
0010
0000
,  // measure 19
1000
0000
0000
0000
1000
0000
0000
0000
0001
0000
0000
0010
0100
1000
0010
0000
,  // measure 20
1000
0001
0010
0100
1000
0001
0100
0010
0100
0001
1000
0100
0010
0001
1000
0010
,  // measure 21
0100
0010
1000
0001
0010
0001
1000
0010
0100
0001
1000
0100
0002
0000
0000
0000
,  // measure 22
0103
0010
0001
1000
0001
0100
0010
0100
0001
1000
0001
0010
0100
1000
0001
0100
0001
1000
0100
1000
0001
0100
0010
1000
,  // measure 23
0100
0000
1000
0010
0100
0001
0010
0100
2000
0000
0000
0000
0000
0000
0000
3000
,  // measure 24
1100
0100
1000
0100
0000
0100
0001
0100
0000
0100
1000
0100
0000
0100
0001
0100
,  // measure 25
1000
0000
0000
00M0
0000
0000
1100
0000
0010
0000
0000
0000
1100
0000
0000
0000
0001
0000
0000
0000
1100
0000
0000
0000
0010
0000
0000
0000
1100
0000
0000
0000
,  // measure 26
0010
1000
0001
0100
0000
0100
1000
0100
0000
0100
0001
0100
0000
0100
1000
0100
,  // measure 27
0001
0000
0000
00M0
0000
0000
0101
0000
0010
0000
0000
0000
0101
0000
0000
0000
1000
0000
0000
0000
0101
0000
0000
0000
0010
0000
0000
0000
0100
0000
0000
0000
,  // measure 28
0011
0001
1000
0100
0000
0100
0001
0100
0000
0100
1000
0100
0000
0100
0001
0100
,  // measure 29
1000
0000
0000
00M0
0000
0000
1100
0000
0010
0000
0000
0000
1100
0000
0000
0000
0001
0000
0000
0000
1100
0000
0000
0000
0010
0000
0000
0000
1100
0000
0000
0000
,  // measure 30
0010
1000
0001
0100
0000
0100
1000
0100
0000
0100
0001
0100
0000
0100
1000
0100
,  // measure 31
0010
0000
0001
0100
0010
0000
1000
0001
1000
0100
0010
0000
0004
0000
0000
0003
,  // measure 32
0101
0100
0001
1100
0000
0100
1010
0100
0000
0100
0011
0100
0000
0100
1010
0100
,  // measure 33
0001
0000
0000
00M0
0000
0000
0101
0000
1000
0000
0000
0000
0101
0000
0000
0000
0010
0000
0000
0000
0101
0000
0000
0000
1000
0000
0000
0000
0010
0000
0000
0000
,  // measure 34
0100
0001
1000
0101
0000
0100
0011
0100
0000
0100
1010
0100
0000
0100
0011
0100
,  // measure 35
2000
0000
0000
0M00
3000
0000
1100
0000
0001
0000
0000
0000
1100
0000
0000
0000
0010
0000
0000
0000
1100
0000
0000
0000
0001
0000
0000
0000
1000
0000
0000
0000
,  // measure 36
1010
0010
1000
0011
0000
0010
0101
0010
0000
0010
1100
0010
0000
0010
0101
0010
,  // measure 37
1000
0000
0000
0M00
0000
0000
1010
0000
0001
0000
0000
0000
1010
0000
0000
0000
0100
0000
0000
0000
1010
0000
0000
0000
0001
0000
0000
0000
0100
0000
0000
0000
,  // measure 38
0010
1000
0001
0100
0000
0100
1000
0100
0000
0100
0001
0100
0000
0100
1000
0001
,  // measure 39
0100
0001
1000
0010
0100
0001
0010
0100
1000
0000
1000
0000
1000
0000
1000
0000
,  // measure 40
0011
0100
0100
0100
0000
0100
0100
0100
0000
0100
0100
0100
0000
0100
0100
0100
,  // measure 41
0000
0000
0000
0001
0000
0000
0001
0000
0000
0000
0001
0000
0001
0000
0010
0000
,  // measure 42
0001
0100
0100
0100
0010
0100
0100
0100
0001
0100
0100
0100
0010
0100
0100
0100
,  // measure 43
2000
0000
3100
0001
1000
0000
0001
0000
0100
0000
0001
0000
0020
0000
0230
0000
,  // measure 44
1300
0100
0100
0100
0010
0100
0100
0100
1000
0100
0100
0100
0010
0100
0100
0100
,  // measure 45
0001
0000
0100
1000
0001
0000
1000
0000
0100
0000
1000
0000
1000
0000
0000
0000
,  // measure 46
0001
0100
0100
0100
0010
0100
0100
0100
0001
0100
0100
0100
0010
0100
0100
0100
,  // measure 47
0001
0000
1000
0100
0010
0001
0100
0010
1000
0000
1000
0000
1000
0000
1000
0000
,  // measure 48
1010
0010
1000
0100
0000
0100
0001
0010
0000
0010
1000
0100
0000
0100
0001
0010
,  // measure 49
1000
0000
0000
0M00
0000
0000
1010
0000
0001
0000
0000
0000
1010
0000
0000
0000
0100
0000
0000
0000
1010
0000
0000
0000
0001
0000
0000
0000
1010
0000
0000
0000
,  // measure 50
0100
0010
0001
0100
0000
0100
1000
0010
0000
0010
0001
0100
0000
0100
1000
0010
,  // measure 51
0002
0000
0000
00M0
0003
0000
0011
0000
1000
0000
0000
0000
0011
0000
0000
0000
0100
0000
0000
0000
0011
0000
0000
0000
1000
0000
0000
0000
0100
0000
0000
0000
,  // measure 52
1100
0100
1000
0010
0000
0010
0001
0100
0000
0100
1000
0010
0000
0010
0001
0100
,  // measure 53
1000
0000
0000
0M00
0000
0000
1100
0000
0001
0000
0000
0000
1100
0000
0000
0000
0010
0000
0000
0000
1100
0000
0000
0000
0001
0000
0000
0000
1100
0000
0000
0000
,  // measure 54
0010
0100
0001
0010
0000
0010
1000
0100
0000
0100
0001
0010
0000
0010
1000
0100
,  // measure 55
0010
0000
0001
0100
0010
1000
0100
0010
0001
0000
0001
0000
0001
0000
0001
0000
,  // measure 56
1001
1000
0010
0001
0M00
0001
0100
1000
00M0
1000
0010
0001
0M00
0001
1000
0100
,  // measure 57
0001
0000
0000
00M0
0000
0000
0101
0000
1000
0000
0000
0000
0101
0000
0000
0000
0010
0000
0000
0000
0101
0000
0000
0000
1000
0000
0000
0000
0101
0000
0000
0000
,  // measure 58
1000
0001
0100
1000
00M0
1000
0010
0001
0M00
0001
0100
1000
00M0
1000
0001
0010
,  // measure 59
2000
0000
0000
0M00
3000
0000
1010
0000
0001
0000
0000
0000
1010
0000
0000
0000
0100
0000
0000
0000
1010
0000
0000
0000
0001
0000
0000
0000
0100
0000
0000
0000
,  // measure 60
1001
0001
0010
1000
0M00
1000
0100
0001
00M0
0001
0010
1000
0M00
1000
0001
0100
,  // measure 61
1000
0000
0000
00M0
0000
0000
1100
0000
0001
0000
0000
0000
1100
0000
0000
0000
0010
0000
0000
0000
1100
0000
0000
0000
0001
0000
0000
0000
1100
0000
0000
0000
,  // measure 62
0001
1000
0100
0001
00M0
0001
0010
1000
0M00
1000
0100
0001
00M0
0001
1000
0010
,  // measure 63
0100
0000
0001
0010
0100
1000
0010
0100
0001
0000
0001
0000
0001
0000
0001
0000
,  // measure 64
1001
1000
0100
0010
0100
1000
0001
0100
,  // measure 65
1000
0000
0100
0001
1000
0000
0100
0000
0010
0000
0001
0000
1000
0000
0000
0000
,  // measure 66
1040
0030
0100
0000
0001
0000
0010
0000
0100
0000
1000
0000
0010
0000
0100
0000
,  // measure 67
0002
0000
0000
0000
,  // measure 68
0003
0000
0000
0000
;

//---------------dance-single - ----------------
#NOTES:
     dance-single:
     :
     Beginner:
     2:
     0.146520,0.143162,0.008547,0.034188,0.000000,120.000000,119.000000,1.000000,4.000000,0.000000,0.000000,0.146520,0.143162,0.008547,0.034188,0.000000,120.000000,119.000000,1.000000,4.000000,0.000000,0.000000:
0000
0000
0000
0000
,
0000
0000
0000
0000
,
0000
0000
0000
0000
,
0000
0000
0000
0000
,
0001
0000
0001
0000
,
1000
0000
1000
0000
,
0001
0000
0001
0000
,
1000
0000
1000
0000
,
0100
0000
0010
0000
,
0001
0000
1000
0000
,
0010
0000
0100
0000
,
0001
0000
1000
0000
,
0100
0000
0010
0000
,
0001
0000
1000
0000
,
0010
0000
0100
0000
,
0001
0000
1000
0000
,
0001
0000
0001
0000
,
1000
0000
1000
0000
,
0001
0000
0001
0000
,
1000
0000
1000
0000
,
0100
0000
0100
0000
,
0010
0000
0010
0000
,
0001
0000
0001
0000
,
2000
0000
0000
0000
,
3001
0000
0001
0000
,
1000
0000
1000
0000
,
0001
0000
0001
0000
,
0100
0000
0100
0000
,
0001
0000
0001
0000
,
1000
0000
1000
0000
,
0001
0000
0001
0000
,
0010
0000
0010
0000
,
0001
0000
1000
0000
,
0001
0000
1000
0000
,
0100
0000
0010
0000
,
0100
0000
0010
0000
,
0001
0000
1000
0000
,
0001
0000
1000
0000
,
0010
0000
0100
0000
,
0010
0000
0100
0000
,
0001
0000
1000
0000
,
0001
0000
0010
0000
,
0001
0000
1000
0000
,
0001
0000
1000
0000
,
0100
0000
0010
0000
,
0100
0000
0010
0000
,
0001
0000
1000
0000
,
0001
0000
1000
0000
,
0010
0000
0100
0000
,
0010
0000
0000
0000
,
0100
0000
0010
0000
,
0100
0000
0000
0000
,
0001
0000
1000
0000
,
0001
0000
0000
0000
,
1000
0000
0001
0000
,
1000
0000
0000
0000
,
0001
0000
0100
0000
,
0001
0000
0100
0000
,
0010
0000
1000
0000
,
0010
0000
1000
0000
,
0001
0000
0010
0000
,
0001
0000
0010
0000
,
0100
0000
1000
0000
,
0100
0000
1000
0000
,
0002
0000
0000
0000
,
2003
0000
0000
0000
,
3002
0000
0000
0003
,
1001
0000
0000
0000
;

//---------------dance-single - ----------------
#NOTES:
     dance-single:
     :
     Easy:
     4:
     0.235653,0.261058,0.034188,0.094017,0.000000,193.000000,189.000000,4.000000,11.000000,0.000000,0.000000,0.235653,0.261058,0.034188,0.094017,0.000000,193.000000,189.000000,4.000000,11.000000,0.000000,0.000000:
0000
0000
0000
0000
,
0000
0000
0000
0000
,
0000
0000
0000
0000
,
0000
0000
0000
0000
,
0001
1000
0001
1000
,
0100
0010
0100
0010
,
0001
1000
0001
1000
,
0010
0100
0010
0100
,
0002
0000
1000
0000
,
2003
0000
0001
0000
,
3002
0000
0010
0000
,
0023
0000
0100
0000
,
0230
0000
1000
0000
,
2300
0000
0001
0000
,
3002
0000
0100
0000
,
0203
0000
0010
0000
,
0310
0000
1000
0000
,
0010
0000
1000
0000
,
0001
0000
0100
0000
,
0001
0000
0100
0000
,
0001
1000
0001
1000
,
0100
0010
0100
0020
,
0031
1000
0001
1000
,
0010
0000
0000
0000
,
1001
0001
1000
0001
,
0010
0000
0010
0000
,
0001
1000
0001
1000
,
0100
0000
0100
0000
,
1000
0001
1000
0001
,
0010
0000
0010
0000
,
0001
1000
0001
1000
,
0100
0100
0010
0001
,
1000
0010
1000
0010
,
0100
0000
0100
0000
,
0001
0010
0001
0010
,
0100
0000
0100
0000
,
1000
0010
1000
0010
,
0100
0000
0100
0000
,
0001
0010
0100
1000
,
0001
0000
1000
0000
,
0010
0100
0010
0100
,
0001
0000
1000
0000
,
1001
0001
0010
0001
,
1000
0000
0001
0000
,
1001
1000
0010
1000
,
0001
0000
1000
0000
,
1001
0001
0100
0001
,
2000
0000
0000
0000
,
3001
0010
0001
1000
,
0010
0000
0010
0000
,
1000
0010
1000
0001
,
0010
0000
0010
0000
,
0001
0100
0001
1000
,
0100
0000
0100
0000
,
1000
0100
1000
0001
,
0100
0100
0010
1000
,
0001
0010
0100
1000
,
0001
0000
1000
0000
,
0001
0100
0010
1000
,
0001
0000
1000
0000
,
0001
1000
0100
0010
,
0001
0000
1000
0000
,
0001
0100
0010
1000
,
0001
0001
0010
0100
,
1000
0001
0100
0010
,
1000
0000
0001
0000
,
1000
0100
0010
0001
,
2000
0000
0000
0000
0000
0000
0000
3000
;

//---------------dance-single - ----------------
#NOTES:
     dance-single:
     :
     Medium:
     7:
     0.415140,0.464103,0.111111,0.076923,0.089744,340.000000,327.000000,13.000000,9.000000,0.000000,0.000000,0.415140,0.464103,0.111111,0.076923,0.089744,340.000000,327.000000,13.000000,9.000000,0.000000,0.000000:
0000
0000
0000
0000
,
0000
0000
0000
0000
,
0000
0000
0000
0000
,
0000
0000
0000
0000
,
0001
1000
0001
1000
,
0100
0010
0100
0010
,
0001
1000
0001
1000
,
0001
0100
0010
1000
0004
0000
0000
0000
,
1003
0000
0000
0000
0100
0000
0000
0000
0010
0000
0000
0001
0000
0000
1000
0000
,
0000
0001
0000
0000
1000
0000
0000
0000
0001
0000
0000
0100
0000
0000
0010
0000
,
1000
0000
0000
0000
1000
0000
0000
0000
0001
0000
0000
0100
0000
0000
0001
0000
,
0000
0010
0000
0000
0010
0000
0000
0000
0001
0000
0000
1000
0000
0000
0010
0000
,
0100
0000
0000
0000
0001
0000
0000
0000
1000
0000
0000
0100
0000
0000
0010
0000
,
0000
0001
0000
0000
1000
0000
0000
0000
0001
0000
0000
1000
0000
0000
0010
0000
,
0100
0000
0000
0000
0100
0000
0000
0000
0001
0000
0000
1000
0000
0000
0100
0000
,
0000
0010
0000
0000
0010
0000
0000
0000
0001
0000
0000
1000
0000
0000
0010
0000
,
0100
0000
0000
0000
0001
0000
0000
0000
1000
0000
0000
0100
0000
0000
1000
0000
,
0001
0000
0000
0000
1000
0000
0000
0000
0001
0000
0000
0100
0000
0000
0001
0000
,
1000
0000
0000
0000
0001
0000
0000
0000
0010
0000
0000
0100
0000
0000
0010
0000
,
0001
1000
0010
0200
,
0301
1000
0001
0000
1000
0100
1000
0000
,
0001
0100
0001
0000
0010
0100
0020
0000
,
0031
0100
0010
1000
0001
0010
0100
1000
,
0001
0000
0000
0000
,
1001
0001
1000
0001
,
0010
0000
0000
0001
1000
0000
0001
0000
0100
0000
0001
0000
1000
0000
0001
0000
,
0100
0010
1000
0001
,
0010
0000
0000
0001
1000
0000
0010
0000
1000
0000
0001
0000
1000
0000
0010
0000
,
0100
0010
1000
0001
,
0010
0000
0000
0001
0100
0000
0001
0000
1000
0000
0001
0000
0100
0000
0001
0000
,
1000
0100
0010
0001
,
0101
0101
1010
1000
,
0001
1000
0100
0000
1000
0001
0100
0000
,
0010
0000
0000
0010
1000
0000
0001
0000
1000
0000
0001
0000
1000
0000
0000
0000
,
0001
1000
0100
0000
1000
0001
0100
0000
,
0010
0000
0000
0010
1000
0000
0001
0000
1000
0000
0001
0000
1000
0000
0000
0000
,
0001
1000
0010
0000
1000
0001
0010
0000
,
0100
0000
0000
0100
1000
0000
0001
0000
1000
0000
0001
0000
1000
0000
0000
0000
,
0002
0203
0320
2030
,
3001
0010
0000
0100
0000
1000
0000
0001
,
0200
0000
0000
0000
,
0300
0000
0000
0000
,
1001
0000
0001
0000
1000
0100
1000
0000
,
0001
0000
1000
0000
0001
0100
0001
0000
,
1001
0000
1000
0000
0100
0010
0001
0000
,
1000
0000
0001
0000
0100
0010
1000
0000
,
1001
0000
0001
0000
0010
0100
1000
0000
,
0002
0000
0000
0000
,
1003
0010
1000
0001
1000
0010
0100
0001
,
1000
0001
0010
0100
,
1000
0010
1000
0001
1000
0010
0100
0001
,
1000
0001
0010
0100
,
1000
0001
0100
0001
1000
0001
0100
0010
,
1000
0001
0010
0100
,
1000
0001
0100
0001
1000
0001
0100
0010
,
1010
1010
0101
0001
,
1000
0100
1000
0001
1000
0010
1000
0001
,
1000
0001
0100
0010
,
1000
0100
1000
0001
1000
0010
1000
0001
,
1000
0001
0100
0010
,
1000
0001
1000
0100
1000
0001
1000
0010
,
1000
0001
0100
0010
,
1000
0001
1000
0100
1000
0001
1000
0010
,
1010
1010
0101
0001
,
1000
0000
0001
0000
0010
0001
1000
0000
,
0010
0000
0100
0000
0001
1000
0100
0000
,
0010
0001
1000
0010
,
0200
0000
0000
0000
0000
0000
0000
0300
;

//---------------dance-single - Maxx----------------
#NOTES:
     dance-single:
     :
     Hard:
     10:
     0.733822,0.784615,0.273504,0.085470,0.854701,601.000000,569.000000,32.000000,10.000000,0.000000,0.000000,0.733822,0.784615,0.273504,0.085470,0.854701,601.000000,569.000000,32.000000,10.000000,0.000000,0.000000:
0000
0000
0000
0000
,
0000
0000
0000
0000
,
0000
0000
0000
0000
,
0000
0000
0000
0000
,
1000
0001
0100
0010
1000
0001
0010
0100
,
1000
0001
0100
0001
1000
0100
0010
0001
,
1000
0010
1000
0010
0100
0001
0100
0001
,
1000
0000
0100
0000
1000
0000
0100
0000
0010
0001
0010
0001
2000
0000
0000
0000
,
3001
0000
0000
0000
0100
0000
0000
0000
0010
0000
0000
1000
0000
0000
0010
0000
,
0000
0100
0000
0000
0001
0000
0000
0000
0001
0000
0000
0100
0000
0000
0010
0000
,
1000
0000
0000
0000
1000
0000
0000
0000
1000
0000
0000
0100
0000
0000
0010
0000
,
0000
0001
0000
0000
0001
0000
0000
0000
0001
0000
0000
0100
0000
0000
0010
0000
,
1000
0000
0000
0000
0100
0000
0000
0000
0010
0000
0000
0001
0000
0000
0100
0000
,
0000
0010
0000
0000
1000
0000
0000
0000
1000
0000
0000
0010
0000
0000
0100
0000
,
0001
0000
0000
0000
0001
0000
0000
0000
0001
0000
0000
0010
0000
0000
0100
0000
,
0000
1000
0000
0000
1000
0000
0000
0000
1000
0000
0000
0010
0000
0000
0100
0000
,
0001
0000
0000
0000
0001
0000
0000
0000
0010
0000
0000
0100
1000
0000
0001
0000
,
0100
0000
0000
0000
0100
0000
0000
0000
0010
0000
0000
1000
0001
0000
0010
0000
,
0100
0000
0000
0000
0100
0000
0000
0000
1000
0000
0000
0001
0100
0000
0010
0000
,
1000
0000
0000
0000
1000
0000
0000
0000
0001
0000
0000
0000
1000
0001
1000
0000
,
0001
0100
0010
1000
0001
0010
0001
1000
,
0010
0100
0001
1000
0100
1000
0002
0000
,
0403
0340
4030
3004
,
1003
0000
0000
0000
0002
0000
0000
0003
,
1001
0000
1000
0100
0000
1000
0001
1000
0000
0001
0100
0001
0000
1000
0001
1000
,
0010
0000
0000
1100
0010
0000
1100
0000
0001
0000
1100
0000
0010
0000
1100
0000
,
0001
1000
0001
0100
0000
0001
1000
0001
0000
1000
0100
1000
0000
0001
1000
0001
,
0010
0000
0000
0101
0010
0000
0101
0000
1000
0000
0101
0000
0010
0000
0100
0000
,
1000
0001
1000
0100
0000
1000
0001
1000
0000
0001
0100
0001
0000
1000
0001
1000
,
0010
0000
0000
1100
0010
0000
1100
0000
0001
0000
1100
0000
0010
0000
1100
0000
,
0001
1000
0001
0100
0000
0001
1000
0001
0000
1000
0100
1000
0000
0001
1000
0001
,
0020
0032
2003
3040
,
1030
0001
1000
0010
0000
1000
0001
1000
0000
0001
0100
0001
0000
1000
0001
1000
,
0100
0000
0000
1010
0001
0000
1010
0000
0100
0000
1010
0000
0001
0000
1000
0000
,
0001
1000
0001
0100
0000
0001
1000
0001
0000
1000
0100
1000
0000
0001
1000
0001
,
0010
0000
0000
0101
1000
0000
0101
0000
0010
0000
0101
0000
1000
0000
0001
0000
,
1000
0001
1000
0010
0000
1000
0001
1000
0000
0001
0100
0001
0000
1000
0001
1000
,
0100
0000
0000
1010
0001
0000
1010
0000
0100
0000
1010
0000
0001
0000
1000
0000
,
0001
0100
0010
1000
0001
0010
0100
1000
,
0001
0100
0010
1000
0001
0010
0100
1000
0001
0100
0001
1000
0100
0000
0010
0000
,
0001
1000
0001
0010
0000
0001
1000
0001
0000
1000
0010
1000
0000
0001
1000
0001
,
0000
0000
0000
1000
0000
0000
1000
0000
0000
0000
0001
0000
0001
0000
0010
0000
,
0001
1000
0001
0010
0000
0001
1000
0001
0000
1000
0010
1000
0000
0001
1000
0001
,
0020
0000
0130
1000
0001
0000
0001
0000
0100
0000
0001
0000
0020
0000
0230
0000
,
1300
0001
1000
0010
0000
1000
0001
1000
0000
0001
0100
0001
0000
1000
0001
1000
,
0100
0000
0010
0001
1000
0000
1000
0000
0010
0000
0100
0000
0100
0000
0000
0000
,
0001
1000
0001
0010
0000
0001
1000
0001
0000
1000
0100
1000
0000
0001
1000
0001
,
0100
0000
0001
0100
0010
1000
0001
0010
0100
0000
1000
0000
1000
0000
1000
0000
,
0001
1000
0001
0100
0000
0001
1000
0001
0000
1000
0100
1000
0000
0001
1000
0001
,
0010
0000
0000
0101
1000
0000
0101
0000
0010
0000
0101
0000
1000
0000
0001
0000
,
1000
0001
1000
0010
0000
1000
0001
1000
0000
0001
0100
0001
0000
1000
0001
1000
,
0010
0000
0000
1100
0001
0000
1100
0000
0010
0000
1100
0000
0001
0000
1000
0000
,
0001
1000
0001
0100
0000
0001
1000
0001
0000
1000
0100
1000
0000
0001
1000
0001
,
0010
0000
0000
0101
1000
0000
0101
0000
0010
0000
0101
0000
1000
0000
0001
0000
,
1000
0001
1000
0010
0000
1000
0001
1000
0000
0001
0100
0001
0000
1000
0001
1000
,
0100
0000
1000
0001
0100
0010
1000
0100
0010
0000
0001
0000
0001
0000
0001
0000
,
1000
0001
1000
0010
0000
1000
0001
1000
0000
0001
0100
0001
0000
1000
0001
1000
,
0100
0000
0010
0001
1000
0000
1000
0000
0010
0000
0100
0000
0100
0000
0100
0000
,
0001
1000
0001
0010
0000
0001
1000
0001
0000
1000
0100
1000
0000
0001
1000
0001
,
0100
0000
0010
1000
0001
0000
0001
0000
0010
0000
0100
0000
0100
0000
0100
0000
,
1000
0001
1000
0100
0000
1000
0001
1000
0000
0001
0100
0001
0000
1000
0001
1000
,
0010
0000
0100
0001
1000
0000
1000
0000
0100
0000
0010
0000
0010
0000
0010
0000
,
0001
1000
0001
0100
0000
0001
1000
0001
0000
1000
0100
1000
0000
0001
1000
0001
,
0010
0000
0001
1000
0100
0010
0001
1000
0001
0000
0001
0000
0001
0000
0001
0000
,
1001
1000
0100
0010
0100
1000
0001
0100
,
1000
0000
0100
0001
1000
0000
0100
0000
0010
0000
0001
0000
1000
0000
0000
0000
,
1040
0030
0100
0000
0001
0000
0010
0000
0100
0000
1000
0000
0010
0000
0100
0000
,
0002
0000
0000
0000
,
0003
0000
0000
0000
;
