#TITLE:LOL OK;
#SUBTITLE:(Habstrakt Remix);
#ARTIST:MUST DIE x Akeos x Skream;
#TITLETRANSLIT:;
#SUBTITLETRANSLIT:;
#ARTISTTRANSLIT:;
#GENRE:;
#CREDIT:;
#BANNER:LOL OK-bn.png;
#BACKGROUND:LOL OK-bg-wide.png;
#LYRICSPATH:;
#CDTITLE:;
#MUSIC:LOL OK - MUST DIE x Akeos x Skream (Habstrakt Remix).ogg;
#OFFSET:-0.001000;
#SAMPLESTART:21.121000;
#SAMPLELENGTH:15.360000;
#SELECTABLE:YES;
#BPMS:0.000000=124.999992
;
#STOPS:
;
#BGCHANGES:;
#KEYSOUNDS:;
#ATTACKS:;

//---------------dance-single - BU+, BR, DS, FS+, XO, SS-----------------
#NOTES:
     dance-single:
     :
     Challenge:
     11:
     0.821855,1.182072,0.366534,0.414343,1.027888,722.000000,676.000000,46.000000,52.000000,20.000000,0.000000,0.821855,1.182072,0.366534,0.414343,1.027888,722.000000,676.000000,46.000000,52.000000,20.000000,0.000000:
// measure 0
0000
0000
0000
0000
,  // measure 1
0000
0000
0000
0000
,  // measure 2
0000
0000
0000
0000
,  // measure 3
0000
0000
0000
0000
,  // measure 4
1000
0001
0100
0000
0110
0000
0010
0000
1000
0000
0001
0000
0011
0000
0010
0000
,  // measure 5
0100
1000
1001
0001
0100
0010
1010
1000
,  // measure 6
0001
0010
0110
0100
1000
0001
0101
0100
,  // measure 7
0010
1000
1100
0100
1000
0001
0101
0100
,  // measure 8
0040
4030
3004
0043
,  // measure 9
0430
4300
3004
0403
,  // measure 10
0310
0000
0000
1000
0000
0000
0001
0000
0000
1000
0000
0000
0100
0000
0000
0010
0000
0000
0001
0000
0000
1000
0000
0000
0010
0000
0100
0000
0001
0000
1000
0000
0100
0000
0010
0000
0001
0000
1000
0000
0001
0000
0100
0000
0010
0000
1000
0000
,  // measure 11
0001
0000
0000
0000
0010
0000
0100
0000
0000
1000
0000
0000
1000
0000
0000
1000
0000
0000
1000
0000
0000
0002
0000
0000
,  // measure 12
0103
0000
0010
1000
0000
0001
1010
0000
0000
0100
0000
0000
0020
0000
0000
0031
0000
0000
2001
0000
0000
0010
0000
0000
,  // measure 13
3002
0000
0000
0013
0000
0000
0120
0000
0000
0130
0000
0000
2000
0000
0000
3001
0000
0000
0100
000M
0100
1000
0000
0000
,  // measure 14
0001
0000
0000
0000
0000
0000
0000
0000
0000
0000
0000
0000
0000
0000
0000
0000
1000
0000
0000
0000
0000
0000
0000
0000
0001
0000
0000
0000
0000
0000
0000
0000
0000
0000
0000
0000
0000
0000
0000
0000
0010
0000
0000
0000
0000
0000
0000
0000
0102
0000
0000
0000
0000
0000
0000
0000
0000
0000
0000
0000
0000
0000
0000
0000
0000
0000
0000
0000
0000
0000
0000
0000
1003
0000
0000
0000
0000
0000
0000
0000
0000
0000
0000
0000
0000
0000
0000
0000
0000
0000
0000
0000
0000
0000
0000
0000
0002
0000
0000
0000
0000
0000
0000
0000
0000
0000
0000
0000
0000
0000
0000
0000
0000
0000
0000
0000
0000
0000
0000
0000
0103
0000
0000
0000
0000
0000
00M0
0000
0000
0000
0000
0000
0100
0000
0000
0000
0000
0000
0000
0000
0000
0000
0000
0000
1000
0000
0000
0000
0000
0000
0000
0000
0000
0000
0000
0000
0000
0000
0000
0000
0001
0000
0000
0000
0000
0000
0000
0000
0010
0000
0000
0000
0000
0000
0000
0000
0000
0000
0000
0000
0000
0000
0000
0000
0000
0000
0000
0000
0000
0000
0000
0000
,  // measure 15
0002
0000
0000
1003
0000
0010
1200
0000
0000
0301
0000
1000
0200
0000
0000
0310
0000
0001
1000
0000
0010
0100
0000
0001
,  // measure 16
1000
0000
0100
0010
0000
0001
2100
0000
0000
3010
0000
0000
0200
0000
0000
0301
0000
0000
2001
0000
0000
0100
0000
0000
,  // measure 17
3002
0000
0000
0000
0000
0000
0013
0000
0000
0000
0000
0000
0012
0000
0000
0000
0000
0000
0103
0000
0000
0000
0000
0000
0002
0000
0000
0000
0000
0000
0013
0000
0000
0000
0000
0000
0100
0000
00M0
0000
0100
0000
0010
0000
0000
1000
0000
0000
,  // measure 18
0001
0000
0000
0000
0000
0000
0000
0000
0000
0000
0000
0000
0100
0000
0000
0000
0000
0000
0000
0000
0000
0000
0000
0000
0001
0000
0000
0000
0000
0000
0000
0000
0000
0000
0000
0000
1000
0000
0000
0000
0000
0000
0000
0000
0000
0000
0000
0000
0100
0000
0000
0000
0000
0000
0000
0000
0000
0000
0000
0000
1000
0000
0000
0000
0000
0000
0000
0000
0000
0000
0000
0000
0001
0000
0000
0000
0000
0000
0000
0000
0000
0000
0000
0000
0100
0000
0000
0000
0000
0000
0000
0000
0000
0000
0000
0000
0010
0000
0000
0000
0000
0000
0000
0000
0000
0000
0000
0000
1000
0000
0000
0000
0000
0000
0000
0000
0000
0000
0000
0000
0100
0000
0000
0000
0000
0000
M000
0000
0000
0000
0000
0000
0100
0000
0000
0000
0000
0000
0000
0000
0000
0000
0000
0000
0001
0000
0000
0000
0000
0000
0000
0000
0000
0000
0000
0000
0000
0000
0000
0000
1000
0000
0000
0000
0000
0000
0000
0000
0100
0000
0000
0000
0000
0000
0000
0000
0000
0000
0000
0000
0010
0000
0000
0000
0000
0000
0000
0000
0000
0000
0000
0000
,  // measure 19
0001
1000
0010
0100
0001
1000
0001
0010
0100
1000
0001
0100
0010
1000
0001
0100
0001
1000
0100
0000
0000
0000
0000
0000
,  // measure 20
2100
0000
0000
0000
0000
0000
3001
0000
0000
0000
0100
0000
0020
0000
0000
0000
0000
0000
1030
0000
0000
0000
0000
0000
0200
0000
0000
0000
0000
0000
1300
0000
0000
0000
0000
0000
0011
0000
0000
0100
0000
0000
1000
0000
0000
0M00
0000
0000
,  // measure 21
2000
0000
0000
3001
0000
0000
0012
0000
0000
0013
0000
0000
0002
0000
0000
1003
0000
0000
0010
0000
0100
1000
0000
0100
,  // measure 22
0010
0000
0000
0000
0000
0000
0000
0000
0000
0000
0000
0000
0000
0000
0000
0000
1000
0000
0000
0000
0000
0000
0000
0000
0001
0000
0000
0000
0000
0000
0000
0000
0000
0000
0000
0000
0000
0000
0000
0000
0000
0000
0000
0000
0000
0000
0000
0000
0011
0000
0000
0000
0000
0000
0000
0000
0000
0000
0000
0000
0000
0000
0000
0000
0000
0000
0000
0000
0000
0000
0000
0000
0010
0000
0000
0000
0000
0000
0000
0000
0000
0000
0000
0000
0000
0000
0000
0000
0000
0000
0000
0000
0000
0000
0000
0000
0001
0000
0000
0000
0000
0000
0000
0000
0000
0000
0000
0000
0000
0000
0000
0000
0000
0000
0000
0000
0000
0000
0000
0000
0100
0000
0000
0000
0000
0000
000M
0000
0000
0000
0000
0000
0100
0000
0000
0000
0000
0000
0000
0000
0000
0000
0000
0000
1000
0000
0000
0000
0000
0000
0000
0000
0000
0000
0000
0000
0000
0000
0000
0000
0001
0000
0000
0000
0000
0000
0000
0000
0100
0000
0000
0000
0000
0000
0000
0000
0000
0000
0000
0000
0000
0000
0000
0000
0000
0000
0000
0000
0000
0000
0000
0000
,  // measure 23
0020
0000
0000
1030
0000
0001
0020
0000
0000
0130
0000
1000
0002
0000
0000
0103
0000
0010
1000
0000
0001
0010
0000
0100
,  // measure 24
1000
0000
0000
0000
0010
0000
0100
0000
0000
0000
0001
0000
1010
0000
0000
0000
0000
0000
0100
0000
0000
0000
0000
0000
1000
0000
0000
0000
0000
0000
0001
0000
0000
0000
0000
0000
1100
0000
0000
0010
0000
0000
0001
0000
0000
00M0
0000
0000
,  // measure 25
0002
0000
0000
1003
0000
0000
2100
0000
0000
3100
0000
0000
2000
0000
0000
3010
0000
0000
0100
0000
0010
1000
0000
0001
,  // measure 26
0010
0000
0000
0000
0000
0000
0000
0000
0000
0000
0000
0000
0100
0000
0000
0000
0000
0000
0000
0000
0000
0000
0000
0000
1000
0000
0000
0000
0000
0000
0000
0000
0000
0000
0000
0000
0001
0000
0000
0000
0000
0000
0000
0000
0000
0000
0000
0000
0100
0000
0000
0000
0000
0000
0000
0000
0000
0000
0000
0000
0010
0000
0000
0000
0000
0000
0000
0000
0000
0000
0000
0000
1000
0000
0000
0000
0000
0000
0000
0000
0000
0000
0000
0000
0100
0000
0000
0000
0000
0000
0000
0000
0000
0000
0000
0000
0010
0000
0000
0000
0000
0000
0000
0000
0000
0000
0000
0000
0001
0000
0000
0000
0000
0000
0000
0000
0000
0000
0000
0000
0100
0000
0000
0000
0000
0000
000M
0000
0000
0000
0000
0000
0100
0000
0000
0000
0000
0000
0000
0000
0000
0000
0000
0000
1000
0000
0000
0000
0000
0000
0000
0000
0000
0000
0000
0000
0000
0000
0000
0000
0001
0000
0000
0000
0000
0000
0000
0000
0200
0000
0000
0000
0000
0000
0000
0000
0000
0000
0000
0000
0000
0000
0000
0000
0000
0000
0000
0000
0000
0000
0000
0000
,  // measure 27
0320
0000
0000
1000
1000
1000
1030
0001
,  // measure 28
0011
0000
0000
0000
0000
0000
0000
0000
0000
0000
0000
0000
0000
0000
0000
0000
0000
0000
0000
0000
0000
0000
0000
0000
0010
0000
0000
0000
0000
0000
0000
0000
0000
0000
0000
0000
0000
0000
0000
0000
0001
0000
0000
0000
0000
0000
0000
0000
1000
0000
0000
0000
0000
0000
0000
0000
0000
0000
0000
0000
0000
0000
0000
0000
0100
0000
0000
0000
0000
0000
0000
0000
0000
0000
0000
0000
0000
0000
M000
0000
0000
0000
0000
0000
0000
0000
0000
0000
0100
0000
0000
0000
0000
0000
0000
0000
0001
0000
0000
0000
0000
0000
0000
0000
0000
0000
0000
0000
0000
0000
0000
0000
1000
0000
0000
0000
0000
0000
0000
0000
0010
0000
0000
0000
0000
0000
0000
0000
0000
0000
0000
0000
0000
0000
0000
0000
0000
0000
0000
0000
0000
0000
0000
0000
1000
0000
0000
0000
0000
0000
0000
0000
0000
0000
0000
0000
0000
0000
0000
0000
0100
0000
0000
0000
0000
0000
0000
0000
0000
0000
0000
0000
0000
0000
M000
0000
0000
0000
0000
0000
0000
0000
0000
0000
0100
0000
0000
0000
0000
0000
0000
0000
,  // measure 29
0001
0000
0000
0000
0000
0000
0000
0000
0000
0000
0000
0000
0000
0000
0000
0000
1000
0000
0000
0000
0000
0000
0000
0000
0010
0000
0000
0000
0000
0000
0000
0000
0000
0000
0000
0000
0000
0000
0000
0000
0000
0000
0000
0000
0000
0000
0000
0000
1000
0000
0000
0000
0000
0000
0000
0000
0000
0000
0000
0000
0000
0000
0000
0000
0100
0000
0000
0000
0000
0000
0000
0000
0000
0000
0000
0000
0000
0000
M000
0000
0000
0000
0000
0000
0000
0000
0000
0000
0100
0000
0000
0000
0000
0000
0000
0000
0001
0000
0000
0000
0000
0000
0000
0000
0000
0000
0000
0000
0000
0000
0000
0000
0010
0000
0000
0000
0000
0000
0000
0000
0000
0000
0000
0000
0000
0000
000M
0000
0000
0000
0000
0000
0000
0000
0000
0000
0010
0000
0000
0000
0000
0000
0000
0000
1000
0000
0000
0000
0000
0000
0000
0000
0000
0000
0000
0000
0000
0000
0000
0000
0001
0000
0000
0000
0000
0000
0000
0000
0010
0000
0000
0000
0000
0000
0000
0000
0000
0000
0000
0000
0100
0000
0000
0000
0000
0000
0000
0000
0000
0000
0000
0000
,  // measure 30
2000
0000
0000
0000
0000
0000
0000
0000
0000
0000
0000
0000
0000
0000
0000
0000
0000
0000
0000
0000
0000
0000
0000
0000
3001
0000
0000
0000
0000
0000
0000
0000
0000
0000
0000
0000
0000
0000
0000
0000
0000
0000
0000
0000
0000
0000
0000
0000
1000
0000
0000
0000
0000
0000
0000
0000
0000
0000
0000
0000
0000
0000
0000
0000
0100
0000
0000
0000
0000
0000
0000
0000
0000
0000
0000
0000
0000
0000
M000
0000
0000
0000
0000
0000
0000
0000
0000
0000
0100
0000
0000
0000
0000
0000
0000
0000
0001
0000
0000
0000
0000
0000
0000
0000
0000
0000
0000
0000
0000
0000
0000
0000
1000
0000
0000
0000
0000
0000
0000
0000
0020
0000
0000
0000
0000
0000
0000
0000
0000
0000
0000
0000
0000
0000
0000
0000
0000
0000
0000
0000
0000
0000
0000
0000
0230
0000
0000
0000
0000
0000
0000
0000
0000
0000
0000
0000
0000
0000
0000
0000
0000
0000
0000
0000
0000
0000
0000
0000
0302
0000
0000
0000
0000
0000
0000
0000
0000
0000
0000
0000
0000
0000
0000
0000
0000
0000
0000
0000
0000
0000
0000
0000
,  // measure 31
2003
0000
0000
3200
0000
0000
0310
0000
0001
1000
0000
0010
0100
0000
0000
0001
0000
1000
0100
0000
1000
0001
0000
0100
,  // measure 32
0020
0000
0000
0000
0000
0000
0000
0000
0000
0000
0000
0000
0000
0000
0000
0000
0000
0000
0000
0000
0000
0000
0000
0000
1030
0000
0000
0000
0000
0000
0000
0000
0000
0000
0000
0000
0000
0000
0000
0000
0000
0000
0000
0000
0000
0000
0000
0000
0001
0000
0000
0000
0000
0000
0000
0000
0000
0000
0000
0000
0000
0000
0000
0000
0100
0000
0000
0000
0000
0000
0000
0000
0000
0000
0000
0000
0000
0000
000M
0000
0000
0000
0000
0000
0000
0000
0000
0000
0100
0000
0000
0000
0000
0000
0000
0000
1000
0000
0000
0000
0000
0000
0000
0000
0000
0000
0000
0000
0000
0000
0000
0000
0000
0000
0000
0000
0000
0000
0000
0000
0001
0000
0000
0000
0000
0000
0000
0000
0000
0000
0000
0000
0000
0000
0000
0000
0000
0000
0000
0000
0000
0000
0000
0000
0101
0000
0000
0000
0000
0000
0000
0000
0000
0000
0000
0000
0000
0000
0000
0000
0000
0000
0000
0000
0000
0000
0000
0000
0100
0000
0000
0000
0000
0000
0000
0000
0000
0000
0000
0000
0010
0000
0000
0000
0000
0000
0000
0000
0000
0000
0000
0000
,  // measure 33
1000
0000
0000
0001
0000
0000
0010
0000
0000
0100
0000
0000
1000
0000
0000
0000
0001
0000
0100
0000
0000
0000
0010
0000
1000
0000
0000
0000
0001
0000
0010
0000
0000
0000
0100
0000
1000
0000
0000
0000
0001
0000
0100
0000
0000
0000
0010
0000
,  // measure 34
1000
0001
0010
0100
1000
0001
0100
0010
1000
0001
1000
0010
0100
0001
1000
0100
0010
0001
1000
0010
0100
0010
1000
0001
,  // measure 35
0010
0100
1000
0001
1000
0010
0100
0001
1000
0001
0100
0010
1000
0001
0010
0100
0000
0000
1001
0000
0000
0000
0000
0000
,  // measure 36
0001
0100
0010
0100
0001
1000
0100
1000
0001
0100
0010
1000
0010
0100
0001
1000
,  // measure 37
0100
0010
0001
1000
0010
0100
0001
1000
0001
0010
0100
1000
0010
0100
0001
1000
,  // measure 38
0100
1000
0001
0100
0010
1000
0001
1000
0010
0100
0001
1000
0100
0010
0001
1000
,  // measure 39
0010
0100
0010
1000
0001
0010
0100
1000
0001
1000
0010
0100
0001
1000
0100
0010
,  // measure 40
0004
0403
0340
4030
,  // measure 41
3400
0340
0034
0403
,  // measure 42
0310
0000
0000
1000
0000
0000
0001
0000
0000
1000
0000
0000
0100
0000
0000
0010
0000
0000
0001
0000
0000
1000
0000
0000
0010
0000
0100
0000
0001
0000
1000
0000
0100
0000
0010
0000
0001
0000
1000
0000
0001
0000
0100
0000
0010
0000
1000
0000
,  // measure 43
0001
0000
0000
0000
0010
0000
0100
0000
0000
1000
0000
0000
1000
0000
0000
1000
0000
0000
1000
0000
0000
0001
0000
0000
,  // measure 44
0101
0000
0100
0000
0100
0000
0110
0010
,  // measure 45
1000
0000
0000
1000
0000
0000
0001
0000
0000
0001
0000
0000
1000
0000
0000
1000
0000
0000
0100
0000
0010
0001
0000
0000
,  // measure 46
1000
0000
0000
0000
0000
0000
0000
0000
0000
0000
0000
0000
0000
0000
0000
0000
0010
0000
0000
0000
0000
0000
0000
0000
0100
0000
0000
0000
0000
0000
0000
0000
0000
0000
0000
0000
0000
0000
0000
0000
0001
0000
0000
0000
0000
0000
0000
0000
1100
0000
0000
0000
0000
0000
0000
0000
0000
0000
0000
0000
0000
0000
0000
0000
0000
0000
0000
0000
0000
0000
0000
0000
0010
0000
0000
0000
0000
0000
0000
0000
0000
0000
0000
0000
0000
0000
0000
0000
0000
0000
0000
0000
0000
0000
0000
0000
1000
0000
0000
0000
0000
0000
0000
0000
0000
0000
0000
0000
0000
0000
0000
0000
0000
0000
0000
0000
0000
0000
0000
0000
0100
0000
0000
0000
0000
0000
M000
0000
0000
0000
0000
0000
0100
0000
0000
0000
0000
0000
0000
0000
0000
0000
0000
0000
0001
0000
0000
0000
0000
0000
0000
0000
0000
0000
0000
0000
0000
0000
0000
0000
0010
0000
0000
0000
0000
0000
0000
0000
0100
0000
0000
0000
0000
0000
0000
0000
0000
0000
0000
0000
1000
0000
0000
0000
0000
0000
0000
0000
0000
0000
0000
0000
,  // measure 47
0002
0000
0000
0103
0000
0001
2010
0000
0000
3100
0000
0010
0002
0000
0000
0103
0000
0010
1000
0000
0001
0010
0000
0100
,  // measure 48
1000
0000
0001
0100
0000
0010
1100
0000
0000
0001
0000
0000
0020
0000
0000
0031
0000
0000
1002
0000
0000
1003
0000
0000
,  // measure 49
0010
0000
0000
0010
0000
0000
0110
0000
0000
0100
0000
0000
0001
0000
0000
0001
0000
0000
1000
0000
0100
0001
0000
0100
,  // measure 50
1000
0001
1000
0010
0100
0001
1000
0100
1000
0001
0100
0001
1000
0100
0010
0001
,  // measure 51
0100
0010
1000
0001
0010
0100
1000
0001
1000
0010
0100
0001
1000
0100
0010
0001
1000
0010
0100
0000
0000
0000
0000
0000
,  // measure 52
0120
0000
0000
0000
0000
0000
0000
0000
0000
0000
0000
0000
0000
0000
0000
0000
0000
0000
0000
0000
0000
0000
0000
0000
1030
0000
0000
0000
0000
0000
0000
0000
0000
0000
0000
0000
0000
0000
0000
0000
0001
0000
0000
0000
0000
0000
0000
0000
0010
0000
0000
0000
0000
0000
0000
0000
0000
0000
0000
0000
0000
0000
0000
0000
0000
0000
0000
0000
0000
0000
0000
0000
0100
0000
0000
0000
0000
0000
0000
0000
0000
0000
0000
0000
0000
0000
0000
0000
0000
0000
0000
0000
0000
0000
0000
0000
1000
0000
0000
0000
0000
0000
0000
0000
0000
0000
0000
0000
0000
0000
0000
0000
0000
0000
0000
0000
0000
0000
0000
0000
0001
0000
0000
0000
0000
0000
0000
0000
0000
0000
0000
0000
0000
0000
0000
0000
0000
0000
0000
0000
0000
0000
0000
0000
1100
0000
0000
0000
0000
0000
0000
0000
0000
0000
0000
0000
0010
0000
0000
0000
0000
0000
0000
0000
0000
0000
0000
0000
0001
0000
0000
0000
0000
0000
00M0
0000
0000
0000
0000
0000
0000
0000
0000
0000
0001
0000
0000
0000
0000
0000
0000
0000
,  // measure 53
1000
0000
0000
1000
0000
0000
1100
0000
0000
0100
0000
0000
0010
0000
0000
0010
0000
0000
0001
0000
0100
0010
0000
1000
,  // measure 54
0001
0000
0000
0000
0000
0000
0000
0000
0000
0000
0000
0000
0000
0000
0000
0000
0010
0000
0000
0000
0000
0000
0000
0000
0100
0000
0000
0000
0000
0000
0000
0000
0000
0000
0000
0000
0000
0000
0000
0000
0000
0000
0000
0000
0000
0000
0000
0000
2000
0000
0000
0000
0000
0000
0000
0000
0000
0000
0000
0000
0000
0000
0000
0000
0000
0000
0000
0000
0000
0000
0000
0000
3001
0000
0000
0000
0000
0000
0000
0000
0000
0000
0000
0000
0000
0000
0000
0000
0000
0000
0000
0000
0000
0000
0000
0000
0021
0000
0000
0000
0000
0000
0000
0000
0000
0000
0000
0000
0000
0000
0000
0000
0000
0000
0000
0000
0000
0000
0000
0000
0130
0000
0000
0000
0000
0000
M000
0000
0000
0000
0000
0000
0100
0000
0000
0000
0000
0000
0000
0000
0000
0000
0000
0000
0001
0000
0000
0000
0000
0000
0000
0000
0000
0000
0000
0000
0000
0000
0000
0000
1000
0000
0000
0000
0000
0000
0000
0000
0010
0000
0000
0000
0000
0000
0000
0000
0000
0000
0000
0000
0000
0000
0000
0000
0100
0000
0000
0000
0000
0000
0000
0000
,  // measure 55
0001
0000
0000
0000
0000
0000
0000
0000
0000
0000
0000
0000
0000
0000
0000
0000
0000
0000
0000
0000
0000
0000
0000
0000
0001
0000
0000
0000
0000
0000
0000
0000
0000
0000
0000
0000
0000
0000
0000
0000
0000
0000
0000
0000
0000
0000
0000
0000
0011
0000
0000
0000
0000
0000
0000
0000
0000
0000
0000
0000
0000
0000
0000
0000
0000
0000
0000
0000
0000
0000
0000
0000
0010
0000
0000
0000
0000
0000
0000
0000
0000
0000
0000
0000
0000
0000
0000
0000
0000
0000
0000
0000
0000
0000
0000
0000
0001
0000
0000
0000
0000
0000
0000
0000
0000
0000
0000
0000
0000
0000
0000
0000
0100
0000
0000
0000
0000
0000
0000
0000
0000
0000
000M
0000
0000
0000
0000
0000
0000
0000
0000
0000
0000
0000
0000
0000
0100
0000
0000
0000
0000
0000
0000
0000
1000
0000
0000
0000
0000
0000
0000
0000
0000
0000
0000
0000
0000
0000
0000
0000
0010
0000
0000
0000
0000
0000
0000
0000
0100
0000
0000
0000
0000
0000
0000
0000
0000
0000
0000
0000
0000
0000
0000
0000
0001
0000
0000
0000
0000
0000
0000
0000
,  // measure 56
1000
0000
0000
0000
0100
0000
0010
0000
0000
0000
0001
0000
2100
0000
0000
0000
0000
0000
3010
0000
0000
0000
0000
0000
2000
0000
0000
0000
0000
0000
3001
0000
0000
0000
0000
0000
1010
0000
0000
0100
0000
0000
0001
0000
0M00
0000
0001
0000
,  // measure 57
1000
0000
0000
1000
0000
0000
1010
0000
0000
0010
0000
0000
0100
0000
0000
0100
0000
0000
0001
0000
0010
0100
0000
1000
,  // measure 58
0001
0000
0000
0000
0000
0000
0000
0000
0000
0000
0000
0000
0000
0000
0000
0000
0100
0000
0000
0000
0000
0000
0000
0000
0010
0000
0000
0000
0000
0000
0000
0000
0000
0000
0000
0000
0000
0000
0000
0000
0000
0000
0000
0000
0000
0000
0000
0000
2010
0000
0000
0000
0000
0000
0000
0000
0000
0000
0000
0000
0000
0000
0000
0000
0000
0000
0000
0000
0000
0000
0000
0000
3001
0000
0000
0000
0000
0000
0000
0000
0000
0000
0000
0000
0000
0000
0000
0000
0000
0000
0000
0000
0000
0000
0000
0000
0020
0000
0000
0000
0000
0000
0000
0000
0000
0000
0000
0000
0000
0000
0000
0000
0000
0000
0000
0000
0000
0000
0000
0000
0130
0000
0000
0000
0000
0000
M000
0000
0000
0000
0000
0000
0100
0000
0000
0000
0000
0000
0000
0000
0000
0000
0000
0000
0001
0000
0000
0000
0000
0000
0000
0000
0000
0000
0000
0000
0000
0000
0000
0000
1000
0000
0000
0000
0000
0000
0000
0000
0010
0000
0000
0000
0000
0000
0000
0000
0000
0000
0000
0000
0000
0000
0000
0000
0000
0000
0000
0000
0000
0000
0000
0000
,  // measure 59
2010
0000
0000
0001
0001
0001
3001
0100
,  // measure 60
0010
1000
1001
0001
0010
0100
1100
1000
,  // measure 61
0001
0000
0000
0100
0000
0000
0110
0000
0000
0010
0000
0000
1000
0000
0001
0010
0000
0001
1000
0000
0010
0100
0000
0001
,  // measure 62
4000
3400
0340
0034
,  // measure 63
0403
0340
4030
3004
,  // measure 64
0023
0000
0030
0000
;

//---------------dance-single - FS, DS-----------------
#NOTES:
     dance-single:
     :
     Hard:
     9:
     0.575982,0.662948,0.191235,0.605578,0.262948,506.000000,482.000000,24.000000,76.000000,6.000000,0.000000,0.575982,0.662948,0.191235,0.605578,0.262948,506.000000,482.000000,24.000000,76.000000,6.000000,0.000000:
// measure 0
0000
0000
0000
0000
,  // measure 1
0000
0000
0000
0000
,  // measure 2
0000
0000
0000
0000
,  // measure 3
0000
0000
0000
0000
,  // measure 4
1000
0001
0100
0001
1000
0100
0010
0001
,  // measure 5
0100
0010
1000
0001
0010
0100
1000
0010
,  // measure 6
0100
0001
1000
0100
0010
0001
0100
0010
,  // measure 7
1000
0001
0010
0100
1000
0010
0100
0001
,  // measure 8
1000
0100
1000
0001
0100
0010
1000
0001
,  // measure 9
0010
0001
1000
0010
0100
0001
1000
0100
,  // measure 10
0010
0001
0010
0001
1000
0010
1000
0010
0400
0000
0000
0000
0000
0000
0000
0000
,  // measure 11
0301
0000
0000
0000
0000
0000
0000
0000
1000
0000
0000
0000
0200
0000
0000
0000
0000
0000
0310
0000
0000
0001
0000
0000
0010
0000
0000
0001
0000
0000
0010
0000
0000
0001
0000
0000
1000
0000
0000
0000
0000
0000
0010
0000
0000
0000
0000
0000
,  // measure 12
0200
0301
0020
0031
0200
0301
0012
0100
,  // measure 13
2003
0000
0000
3010
0000
0000
2000
0000
0000
3100
0000
0000
2000
0000
0000
3010
0000
0000
0100
0000
0001
1000
0000
0000
,  // measure 14
0200
0000
0000
0000
0000
0000
0000
0000
0000
0000
0000
0000
0000
0000
0000
0000
0000
0000
0000
0000
0000
0000
0000
0000
0310
0000
0000
0000
0000
0000
0000
0000
0000
0000
0000
0000
0000
0000
0000
0000
0000
0000
0000
0000
0000
0000
0000
0000
0002
0000
0000
0000
0000
0000
0000
0000
0000
0000
0000
0000
0000
0000
0000
0000
0000
0000
0000
0000
0000
0000
0000
0000
0103
0000
0000
0000
0000
0000
0000
0000
0000
0000
0000
0000
0000
0000
0000
0000
0000
0000
0000
0000
0000
0000
0000
0000
0002
0000
0000
0000
0000
0000
0000
0000
0000
0000
0000
0000
0000
0000
0000
0000
0000
0000
0000
0000
0000
0000
0000
0000
0013
0000
0000
0000
0000
0000
0M00
0000
0000
0000
0000
0000
0010
0000
0000
0000
0000
0000
0000
0000
0000
0000
0000
0000
1000
0000
0000
0000
0000
0000
0000
0000
0000
0000
0000
0000
0000
0000
0000
0000
0001
0000
0000
0000
0000
0000
0000
0000
0100
0000
0000
0000
0000
0000
0000
0000
0000
0000
0000
0000
0000
0000
0000
0000
0000
0000
0000
0000
0000
0000
0000
0000
,  // measure 15
0020
0000
0000
0000
0000
0000
1030
0000
0000
0000
0000
0000
0200
0000
0000
0000
0000
0000
1300
0000
0000
0000
0000
0000
0020
0000
0000
0000
0000
0000
1030
0000
0000
0001
0000
0000
0010
0000
0000
0000
0100
0000
1000
0000
0000
0000
0001
0000
,  // measure 16
0200
0310
2000
3100
2000
3010
2010
0100
,  // measure 17
3002
0000
0000
0013
0000
0000
0002
0000
0000
0103
0000
0000
0002
0000
0000
0013
0000
0000
0100
0000
1000
0001
0000
0000
,  // measure 18
0100
0010
0100
0010
1000
0001
1000
0001
0010
0100
0010
0100
1000
0001
1000
0001
,  // measure 19
0400
0340
4030
3001
,  // measure 20
2002
0000
0000
3003
0000
0000
2000
0000
0000
3100
0000
0000
2000
0000
0000
3010
0000
0000
0100
0000
0001
1000
0000
0000
,  // measure 21
0200
0310
0002
0103
0002
0013
0100
1000
,  // measure 22
0020
0000
0000
0000
0000
0000
0000
0000
0000
0000
0000
0000
0000
0000
0000
0000
0000
0000
0000
0000
0000
0000
0000
0000
0130
0000
0000
0000
0000
0000
0000
0000
0000
0000
0000
0000
0000
0000
0000
0000
0000
0000
0000
0000
0000
0000
0000
0000
0002
0000
0000
0000
0000
0000
0000
0000
0000
0000
0000
0000
0000
0000
0000
0000
0000
0000
0000
0000
0000
0000
0000
0000
0013
0000
0000
0000
0000
0000
0000
0000
0000
0000
0000
0000
0000
0000
0000
0000
0000
0000
0000
0000
0000
0000
0000
0000
0002
0000
0000
0000
0000
0000
0000
0000
0000
0000
0000
0000
0000
0000
0000
0000
0000
0000
0000
0000
0000
0000
0000
0000
0103
0000
0000
0000
0000
0000
00M0
0000
0000
0000
0000
0000
0100
0000
0000
0000
0000
0000
0000
0000
0000
0000
0000
0000
1000
0000
0000
0000
0000
0000
0000
0000
0000
0000
0000
0000
0000
0000
0000
0000
0001
0000
0000
0000
0000
0000
0000
0000
0010
0000
0000
0000
0000
0000
0000
0000
0000
0000
0000
0000
0000
0000
0000
0000
0000
0000
0000
0000
0000
0000
0000
0000
,  // measure 23
0200
1300
0020
1030
0200
1300
1001
0001
,  // measure 24
0200
0000
0310
0000
2000
0000
3100
0000
2000
0000
3010
0000
0100
0001
1000
0000
,  // measure 25
0200
0310
0002
0103
0002
0013
0100
1000
,  // measure 26
0020
0000
0000
0000
0000
0000
0000
0000
0000
0000
0000
0000
0000
0000
0000
0000
0000
0000
0000
0000
0000
0000
0000
0000
0130
0000
0000
0000
0000
0000
0000
0000
0000
0000
0000
0000
0000
0000
0000
0000
0000
0000
0000
0000
0000
0000
0000
0000
0002
0000
0000
0000
0000
0000
0000
0000
0000
0000
0000
0000
0000
0000
0000
0000
0000
0000
0000
0000
0000
0000
0000
0000
0013
0000
0000
0000
0000
0000
0000
0000
0000
0000
0000
0000
0000
0000
0000
0000
0000
0000
0000
0000
0000
0000
0000
0000
0002
0000
0000
0000
0000
0000
0000
0000
0000
0000
0000
0000
0000
0000
0000
0000
0000
0000
0000
0000
0000
0000
0000
0000
0103
0000
0000
0000
0000
0000
00M0
0000
0000
0000
0000
0000
0100
0000
0000
0000
0000
0000
0000
0000
0000
0000
0000
0000
1000
0000
0000
0000
0000
0000
0000
0000
0000
0000
0000
0000
0000
0000
0000
0000
0001
0000
0000
0000
0000
0000
0000
0000
0010
0000
0000
0000
0000
0000
0000
0000
0000
0000
0000
0000
0000
0000
0000
0000
0000
0000
0000
0000
0000
0000
0000
0000
,  // measure 27
0011
0000
0001
0000
2000
0000
3010
0100
0010
0100
0010
0100
0001
0000
0010
0000
,  // measure 28
0210
1300
1001
0001
0000
1000
1010
0010
,  // measure 29
0000
0000
0100
0000
0101
0000
0001
0000
0000
0000
1000
0000
1100
0000
0100
1000
,  // measure 30
0001
0010
0011
0001
0000
1000
1001
0001
,  // measure 31
0000
0000
0000
0100
0000
0000
0110
0000
0000
0010
0000
0000
0000
0000
0000
1000
0000
0000
0001
0000
0010
0100
0000
1000
,  // measure 32
0002
0103
0110
0010
1000
0001
0011
0010
,  // measure 33
0100
0000
1000
0000
1001
0000
0001
0000
0100
0000
0010
0000
1010
0000
1000
0001
,  // measure 34
0040
0430
4300
3004
,  // measure 35
0403
0340
4030
3001
,  // measure 36
0020
0000
0001
0000
0001
0000
0031
1000
,  // measure 37
0020
0000
0100
0000
0100
0000
0130
0001
,  // measure 38
2000
0000
0100
0000
0100
0000
3100
0010
,  // measure 39
0002
0000
1000
0000
1000
0000
1003
0010
,  // measure 40
0100
0001
1000
0001
0010
0100
1000
0001
,  // measure 41
0100
0010
1000
0100
0010
0001
0100
0010
,  // measure 42
1000
0001
1000
0001
0010
0100
0010
0100
4000
0000
0000
0000
3004
0000
0000
0000
,  // measure 43
0103
0000
0000
0000
0000
0000
0000
0000
0010
0000
0000
0000
2000
0000
0000
0000
0000
0000
3001
0000
0000
0010
0000
0000
0001
0000
0000
0010
0000
0000
0001
0000
0000
0010
0000
0000
0100
0000
0000
0000
0000
0000
1000
0000
0000
0000
0000
0000
,  // measure 44
1001
0000
0001
0000
0001
0000
0101
0100
,  // measure 45
0010
0000
0000
0010
0000
0000
1000
0000
0000
1000
0000
0000
0001
0000
0000
0001
0000
0000
0010
0000
0100
1000
0000
0000
,  // measure 46
0002
0000
0000
0000
0000
0000
0000
0000
0000
0000
0000
0000
0000
0000
0000
0000
0000
0000
0000
0000
0000
0000
0000
0000
0103
0000
0000
0000
0000
0000
0000
0000
0000
0000
0000
0000
0000
0000
0000
0000
0000
0000
0000
0000
0000
0000
0000
0000
0002
0000
0000
0000
0000
0000
0000
0000
0000
0000
0000
0000
0000
0000
0000
0000
0000
0000
0000
0000
0000
0000
0000
0000
0013
0000
0000
0000
0000
0000
0000
0000
0000
0000
0000
0000
0000
0000
0000
0000
0000
0000
0000
0000
0000
0000
0000
0000
0002
0000
0000
0000
0000
0000
0000
0000
0000
0000
0000
0000
0000
0000
0000
0000
0000
0000
0000
0000
0000
0000
0000
0000
0103
0000
0000
0000
0000
0000
00M0
0000
0000
0000
0000
0000
0100
0000
0000
0000
0000
0000
0000
0000
0000
0000
0000
0000
1000
0000
0000
0000
0000
0000
0000
0000
0000
0000
0000
0000
0000
0000
0000
0000
0001
0000
0000
0000
0000
0000
0000
0000
0100
0000
0000
0000
0000
0000
0000
0000
0000
0000
0000
0000
0010
0000
0000
0000
0000
0000
0000
0000
0000
0000
0000
0000
,  // measure 47
1000
1000
0001
0001
0010
0000
0110
0000
,  // measure 48
0200
1300
0020
1030
0200
1300
2100
0010
,  // measure 49
3001
0000
0000
0001
0000
0000
0100
0000
0000
0100
0000
0000
0010
0000
0000
0010
0000
0000
1000
0000
0001
0010
0000
0000
,  // measure 50
0100
1000
0010
0100
0001
1000
0100
0010
,  // measure 51
0004
0403
0340
1030
,  // measure 52
2002
0000
3003
0000
0002
0000
0013
0000
0002
0000
0103
0000
0010
1000
0002
0000
,  // measure 53
0013
0000
0000
0010
0000
0000
0100
0000
0000
0100
0000
0000
1000
0000
0000
1000
0000
0000
0001
0000
0100
0010
0000
0000
,  // measure 54
2000
0000
0000
0000
0000
0000
0000
0000
0000
0000
0000
0000
0000
0000
0000
0000
0000
0000
0000
0000
0000
0000
0000
0000
3100
0000
0000
0000
0000
0000
0000
0000
0000
0000
0000
0000
0000
0000
0000
0000
0000
0000
0000
0000
0000
0000
0000
0000
2000
0000
0000
0000
0000
0000
0000
0000
0000
0000
0000
0000
0000
0000
0000
0000
0000
0000
0000
0000
0000
0000
0000
0000
3010
0000
0000
0000
0000
0000
0000
0000
0000
0000
0000
0000
0000
0000
0000
0000
0000
0000
0000
0000
0000
0000
0000
0000
2000
0000
0000
0000
0000
0000
0000
0000
0000
0000
0000
0000
0000
0000
0000
0000
0000
0000
0000
0000
0000
0000
0000
0000
3100
0000
0000
0000
0000
0000
00M0
0000
0000
0000
0000
0000
0100
0000
0000
0000
0000
0000
0000
0000
0000
0000
0000
0000
0001
0000
0000
0000
0000
0000
0000
0000
0000
0000
0000
0000
0000
0000
0000
0000
1000
0000
0000
0000
0000
0000
0000
0000
0010
0000
0000
0000
0000
0000
0000
0000
0000
0000
0000
0000
0100
0000
0000
0000
0000
0000
0000
0000
0000
0000
0000
0000
,  // measure 55
0001
0001
1000
1000
0100
0000
0110
0010
,  // measure 56
0022
0000
0033
0000
0002
0000
0103
0000
0002
0000
0013
0000
0100
1000
0002
0000
,  // measure 57
0103
0100
0010
0010
1000
1000
0001
0010
,  // measure 58
0200
0000
0000
0000
0000
0000
0000
0000
0000
0000
0000
0000
0000
0000
0000
0000
0000
0000
0000
0000
0000
0000
0000
0000
1300
0000
0000
0000
0000
0000
0000
0000
0000
0000
0000
0000
0000
0000
0000
0000
0000
0000
0000
0000
0000
0000
0000
0000
0020
0000
0000
0000
0000
0000
0000
0000
0000
0000
0000
0000
0000
0000
0000
0000
0000
0000
0000
0000
0000
0000
0000
0000
1030
0000
0000
0000
0000
0000
0000
0000
0000
0000
0000
0000
0000
0000
0000
0000
0000
0000
0000
0000
0000
0000
0000
0000
0200
0000
0000
0000
0000
0000
0000
0000
0000
0000
0000
0000
0000
0000
0000
0000
0000
0000
0000
0000
0000
0000
0000
0000
0310
0000
0000
0000
0000
0000
000M
0000
0000
0000
0000
0000
0010
0000
0000
0000
0000
0000
0000
0000
0000
0000
0000
0000
1000
0000
0000
0000
0000
0000
0000
0000
0000
0000
0000
0000
0000
0000
0000
0000
0001
0000
0000
0000
0000
0000
0000
0000
0010
0000
0000
0000
0000
0000
0000
0000
0000
0000
0000
0000
0000
0000
0000
0000
0000
0000
0000
0000
0000
0000
0000
0000
,  // measure 59
0100
0000
1000
0000
0002
0000
0103
0010
0100
0010
0100
0010
1000
0000
0001
0000
,  // measure 60
0010
0001
1000
0010
0100
0001
1000
0001
,  // measure 61
0010
0100
1000
0001
0100
0010
1000
0001
,  // measure 62
0040
0430
4300
3004
,  // measure 63
0403
0340
4030
3002
,  // measure 64
0003
0000
0000
0000
;

//---------------dance-single - DS, JA, BU----------------
#NOTES:
     dance-single:
     :
     Medium:
     7:
     0.432555,0.436853,0.175299,0.247012,0.015936,380.000000,358.000000,22.000000,31.000000,0.000000,0.000000,0.432555,0.436853,0.175299,0.247012,0.015936,380.000000,358.000000,22.000000,31.000000,0.000000,0.000000:
// measure 0
0000
0000
0000
0000
,  // measure 1
0000
0000
0000
0000
,  // measure 2
0000
0000
0000
0000
,  // measure 3
0000
0000
0000
0000
,  // measure 4
1000
0001
0100
0001
0000
1000
0100
1000
,  // measure 5
0000
0001
0100
0001
0000
1000
0010
1000
,  // measure 6
0001
0010
0100
1000
0000
0001
1000
0001
,  // measure 7
0000
0100
0010
0100
0000
0001
0010
0001
,  // measure 8
1000
0100
1000
0001
0100
0010
1000
0001
,  // measure 9
0010
0100
1000
0010
0100
0001
1000
0100
,  // measure 10
0020
0032
2003
3020
,  // measure 11
0130
0000
0001
1000
1000
1000
1000
0020
,  // measure 12
0130
0000
0110
0000
0010
0000
2000
0100
,  // measure 13
3001
0000
0011
0000
0010
0000
0001
0001
,  // measure 14
1000
0000
1010
0000
0010
1000
0001
1000
,  // measure 15
0100
0000
0110
0000
0010
0000
0001
0001
,  // measure 16
1000
0000
1001
0000
0001
0000
2000
0010
,  // measure 17
3001
0000
0011
0000
0010
0000
0100
1000
,  // measure 18
0001
0100
0010
0100
0001
1000
0100
0010
,  // measure 19
0002
1000
0000
1003
,  // measure 20
0010
0000
0000
0000
0110
0000
0000
0000
0100
0000
0000
0000
0001
1000
0001
0000
,  // measure 21
0010
0000
0110
0000
0100
0000
1000
0001
,  // measure 22
0100
0000
0101
0000
0100
0001
1000
0001
,  // measure 23
0010
0000
0110
0000
0100
0000
1000
1000
,  // measure 24
0001
0000
0000
0000
1001
0000
0000
0000
1000
0000
0000
0000
0010
0100
0010
0000
,  // measure 25
1000
0000
1010
0000
0010
0000
1000
0001
,  // measure 26
0010
0100
1000
0001
1000
0010
0100
0001
,  // measure 27
1000
0000
0100
1000
1000
1000
1000
0001
,  // measure 28
1001
1000
0010
1000
0000
0001
0100
0001
,  // measure 29
0000
1000
0100
1000
0000
0001
0010
0001
,  // measure 30
1000
0010
0100
0010
0000
1000
0001
1000
,  // measure 31
0000
0100
0010
0100
0000
1000
0001
0100
,  // measure 32
0010
1000
0001
0010
0000
0100
1000
0100
,  // measure 33
0000
0010
0001
1000
0000
0010
0100
0001
,  // measure 34
2000
3200
0320
0032
,  // measure 35
0203
0320
2030
3001
,  // measure 36
0010
0000
0010
0000
0010
0000
0001
1000
,  // measure 37
0010
0000
0010
0000
0010
0000
0100
0001
,  // measure 38
1000
0000
1000
0000
1000
0000
0100
0010
,  // measure 39
0001
0000
0001
0000
0001
0000
0100
0010
,  // measure 40
2000
3002
0023
0230
,  // measure 41
2300
3020
0230
0302
,  // measure 42
1003
0100
1000
0001
0100
0010
1000
0001
,  // measure 43
0010
0000
0001
1000
1000
1000
1000
0010
,  // measure 44
1010
0000
1000
0000
0001
0000
2000
0100
,  // measure 45
3001
0010
0001
1000
0001
0010
0100
1000
,  // measure 46
0001
0000
0101
0000
0100
0001
1000
0001
,  // measure 47
0010
0100
0010
0001
1000
0000
1010
0000
,  // measure 48
0010
0000
0110
0000
0100
0000
0002
0010
,  // measure 49
1003
0100
1000
0001
1000
0100
0010
0001
,  // measure 50
0100
0010
1000
0001
0010
0100
1000
0001
,  // measure 51
0200
0320
2030
3001
,  // measure 52
0010
0000
0000
0000
0110
0000
0000
0000
0100
0000
0000
0000
1000
0001
1000
0000
,  // measure 53
0010
0100
0001
0100
0010
0100
0001
1000
,  // measure 54
0100
0000
0110
0000
0010
0001
1000
0001
,  // measure 55
0100
0010
1000
0001
0010
0000
0110
0000
,  // measure 56
0100
0000
0000
0000
1100
0000
0000
0000
1000
0000
0000
0000
0001
0100
0001
0000
,  // measure 57
1000
0100
1000
0001
1000
0100
0010
0001
,  // measure 58
0100
0000
0110
0000
0010
1000
0001
1000
,  // measure 59
0100
0000
0010
0001
0001
0001
0001
1000
,  // measure 60
0010
0100
0001
1000
0000
0100
0010
0100
,  // measure 61
0000
1000
0001
1000
0000
0010
0100
0001
,  // measure 62
0000
1000
0100
1000
0000
0001
0100
0001
,  // measure 63
2000
0000
3002
0000
,  // measure 64
0023
0000
0030
0000
;

//---------------dance-single - ----------------
#NOTES:
     dance-single:
     :
     Beginner:
     1:
     0.073990,0.101992,0.039841,0.000000,0.000000,65.000000,60.000000,5.000000,0.000000,0.000000,0.000000,0.073990,0.101992,0.039841,0.000000,0.000000,65.000000,60.000000,5.000000,0.000000,0.000000,0.000000:
0000
0000
0000
0000
,
0000
0000
0000
0000
,
0000
0000
0000
0000
,
0000
0000
0000
0000
,
1000
0000
0000
0000
,
0001
0000
0000
0000
,
1000
0000
0000
0000
,
0001
0000
0000
0000
,
0100
0000
0000
0000
,
0010
0000
0000
0000
,
0000
0000
0000
0000
,
0100
0000
0000
0000
,
0110
0000
0000
0000
,
0010
0000
0000
0000
,
1000
0000
0000
0000
,
0001
0000
0000
0000
,
1000
0000
0000
0000
,
0100
0000
0000
0000
,
0010
0000
0000
0000
,
0001
0000
0000
0000
,
1001
0000
0000
0000
,
1000
0000
0000
0000
,
0001
0000
0000
0000
,
0100
0000
0000
0000
,
0001
0000
0000
0000
,
1000
0000
0000
0000
,
0100
0000
0000
0000
,
0010
0000
0000
0000
,
0001
0000
0000
0000
,
1000
0000
0000
0000
,
0010
0000
0000
0000
,
0010
0000
0000
0000
,
0100
0000
0000
0000
,
0100
0000
0000
0000
,
0001
0000
0000
0000
,
1000
0000
0000
0000
,
1001
0000
0000
0000
,
0001
0000
0000
0000
,
1000
0000
0000
0000
,
0001
0000
0000
0000
,
0010
0000
0000
0000
,
0010
0000
0000
0000
,
0100
0000
0000
0000
,
0100
0000
0000
0000
,
1000
0000
0000
0000
,
0001
0000
0000
0000
,
1000
0000
0000
0000
,
1000
0000
0000
0000
,
0010
0000
0000
0000
,
0010
0000
0000
0000
,
0100
0000
0000
0000
,
0001
0000
0000
0000
,
1001
0000
0000
0000
,
1000
0000
0000
0000
,
0100
0000
0000
0000
,
0100
0000
0000
0000
,
0010
0000
0000
0000
,
0001
0000
0000
0000
,
1000
0000
0000
0000
,
0001
0000
0000
0000
,
1000
0000
0000
0000
,
0001
0000
0000
0000
,
0100
0000
0000
0000
,
0010
0000
0000
0000
,
0110
0000
0000
0000
;

//---------------dance-single - DS, JA, BU----------------
#NOTES:
     dance-single:
     :
     Easy:
     5:
     0.310757,0.305976,0.031873,0.239044,0.000000,273.000000,269.000000,4.000000,30.000000,0.000000,0.000000,0.310757,0.305976,0.031873,0.239044,0.000000,273.000000,269.000000,4.000000,30.000000,0.000000,0.000000:
// measure 0
0000
0000
0000
0000
,  // measure 1
0000
0000
0000
0000
,  // measure 2
0000
0000
0000
0000
,  // measure 3
0000
0000
0000
0000
,  // measure 4
1000
0001
0000
0001
,  // measure 5
0000
0001
0000
0001
,  // measure 6
0010
0100
0000
0100
,  // measure 7
0000
0100
0000
0100
,  // measure 8
1000
0001
0100
0010
,  // measure 9
1000
0001
0010
0100
,  // measure 10
2000
3002
0203
0320
,  // measure 11
1030
0000
0002
0000
0013
0000
0001
1000
,  // measure 12
0010
0000
0100
0000
0010
0000
1000
0001
,  // measure 13
0010
0000
0100
0000
0010
0000
0001
1000
,  // measure 14
0010
0000
0100
0000
0010
0000
1000
0001
,  // measure 15
0010
0000
0100
0000
0010
0000
0001
0001
,  // measure 16
1000
0000
0010
0000
0100
0000
0010
1000
,  // measure 17
0001
0000
0010
0000
0001
0000
0100
0010
,  // measure 18
1000
0001
1000
0010
,  // measure 19
0100
0001
1000
0001
,  // measure 20
0101
0000
0100
0000
0010
0000
1000
0001
,  // measure 21
0010
0000
0100
0000
0010
0000
0001
1000
,  // measure 22
0010
0000
0100
0000
0010
0000
1000
0001
,  // measure 23
0010
0000
0100
0000
1000
0000
0001
0001
,  // measure 24
0100
0000
0010
0000
0100
0000
0001
1000
,  // measure 25
0001
0000
0010
0000
0001
0000
1000
0001
,  // measure 26
0100
0000
0010
0000
1000
0000
0001
0010
,  // measure 27
0100
2000
3001
0100
,  // measure 28
0110
0010
1000
0001
,  // measure 29
0010
0000
0001
0000
1000
0000
0010
0100
,  // measure 30
0001
1000
0001
0010
,  // measure 31
0100
1000
0001
0100
,  // measure 32
0110
0010
1000
0001
,  // measure 33
0010
0000
0100
0000
1000
0000
0001
1000
,  // measure 34
0020
0230
0302
2003
,  // measure 35
3200
0320
0032
1003
,  // measure 36
0100
0000
0100
0000
0100
0000
1000
0001
,  // measure 37
0100
0000
0100
0000
0100
0000
0010
1000
,  // measure 38
0001
0000
0001
0000
0001
0000
0010
0100
,  // measure 39
1000
0000
1000
0000
1000
0000
0010
0100
,  // measure 40
0002
2003
3002
0023
,  // measure 41
0230
2300
3020
0230
,  // measure 42
0301
1000
0001
0010
,  // measure 43
0100
2000
3001
0100
,  // measure 44
0110
0000
0010
0000
1000
0000
0001
0010
,  // measure 45
0100
0000
1000
0000
0001
0000
0100
0010
,  // measure 46
1000
0000
0001
0000
0010
0000
0001
1000
,  // measure 47
0010
0000
0100
0000
0010
0000
1000
1000
,  // measure 48
0001
0000
0010
0000
0001
0000
0100
0010
,  // measure 49
1000
0000
0001
0000
1000
0000
0100
0010
,  // measure 50
0001
0000
0100
0000
0010
0000
1000
0001
,  // measure 51
0020
0230
2300
3001
,  // measure 52
0100
0000
0010
0000
0100
0000
0001
1000
,  // measure 53
0100
0000
0010
0000
0100
0000
1000
0001
,  // measure 54
0100
0000
0010
0000
1000
0000
0001
0010
,  // measure 55
0001
0000
1000
0000
0010
0000
0100
0100
,  // measure 56
0001
0000
1000
0000
0001
0000
0010
0100
,  // measure 57
1000
0000
0010
0000
0100
0000
0001
1000
,  // measure 58
0001
0000
0010
0000
0100
0000
1000
0010
,  // measure 59
0100
0002
1003
0100
,  // measure 60
1000
0001
0100
0010
,  // measure 61
0010
1000
0001
0010
,  // measure 62
0010
0100
1000
0001
,  // measure 63
0002
2003
3020
0230
,  // measure 64
0301
0000
0000
0000
;
