#TITLE:High Noon;
#SUBTITLE:;
#ARTIST:The Brig;
#TITLETRANSLIT:;
#SUBTITLETRANSLIT:;
#ARTISTTRANSLIT:;
#GENRE:Complextro;
#CREDIT:CopperPuppy & Feraligatr;
#BANNER:;
#BACKGROUND:highnoon-bg.png;
#LYRICSPATH:;
#CDTITLE:;
#MUSIC:The Brig - High Noon.ogg;
#OFFSET:0.009000;
#SAMPLESTART:44.151001;
#SAMPLELENGTH:15.360000;
#SELECTABLE:YES;
#DISPLAYBPM:125.000000;
#BPMS:0.000000=124.999992
;
#STOPS:
;
#BGCHANGES:;
#KEYSOUNDS:;
#ATTACKS:;

//---------------dance-single - CopperPuppy & Feraligatr----------------
#NOTES:
     dance-single:
     CopperPuppy & Feraligatr:
     Challenge:
     11:
     0.854875,1.061607,0.198413,0.285714,1.250000,754.000000,727.000000,25.000000,36.000000,33.000000,3.000000,0.854875,1.061607,0.198413,0.285714,1.250000,754.000000,727.000000,25.000000,36.000000,33.000000,3.000000:
// measure 0
0000
0000
0000
0000
,  // measure 1
0000
0000
0000
0000
,  // measure 2
0000
0000
0000
0000
,  // measure 3
0000
0000
0000
0000
,  // measure 4
2000
0000
0000
0000
0000
0000
0001
0000
0000
0000
0000
0000
3100
0000
0000
0000
0000
0000
0010
0000
0000
0000
0000
0000
0001
0000
0000
0000
1000
0000
0010
0000
0000
0100
0000
0000
0000
0000
0000
0100
0000
0000
0001
0000
0000
0000
0000
0000
,  // measure 5
1000
0000
1000
0000
1000
0000
1000
0000
0000
0100
0000
0000
0010
0000
0001
1000
0000
0000
0010
0000
0000
0100
0000
0000
,  // measure 6
0002
0000
0000
0000
0000
0000
1000
0000
0000
0000
0000
0000
0013
0000
0000
0000
0000
0000
0001
0000
0000
0001
0000
0000
1000
0000
0000
0000
0100
0000
0010
0000
0000
0000
0000
0000
0001
0000
0000
0001
0000
0000
1000
0000
0000
0000
0000
0000
,  // measure 7
0010
0000
0000
0000
0000
0000
1000
0000
0000
1000
0000
0000
0001
0000
0000
0000
0000
0000
0010
0000
0000
0000
0000
0000
0100
0000
0000
0000
1000
0000
0001
0000
0000
0000
0000
0000
0100
0000
0000
0000
0000
0000
0010
0000
0000
1000
0000
0000
,  // measure 8
0200
0000
0000
0000
0000
0000
0010
0000
0000
0000
0000
0000
1300
0000
0000
0000
0000
0000
0001
0000
0000
0000
0000
0000
0100
0000
0000
0000
0010
0000
1000
0000
0000
0001
0000
0000
0000
0000
0000
0001
0000
0000
0010
0000
0000
0000
0000
0000
,  // measure 9
0100
0000
0100
0000
0100
0000
0100
0000
0000
1000
0000
0000
0001
0000
0100
0010
0000
0000
0100
0000
0000
0001
0000
0000
,  // measure 10
2000
0000
0000
0000
0000
0000
0100
0000
0000
0000
0000
0000
3001
0000
0000
0000
0000
0000
1000
0000
0000
0200
0000
0000
0000
0000
0000
0000
1300
0000
0002
0000
0000
0000
0000
0000
0203
0000
0000
0000
0000
0000
0320
0000
0000
0000
0000
0000
,  // measure 11
1030
0000
0000
0000
0000
0000
0100
0000
0000
0000
0000
0000
0010
0000
0000
0000
0000
0000
0100
0000
0000
0000
0000
0000
1000
0000
0000
0000
0001
0000
0100
0000
0000
0000
0000
0000
0010
0000
0000
0000
0000
0000
1000
0000
0000
0001
0000
0000
,  // measure 12
0020
0000
0000
0000
0000
0000
0001
0000
0000
0000
0000
0000
0130
0000
0000
0000
0000
0000
1000
0000
0000
0000
0000
0000
0001
0000
0000
0000
0100
0000
0010
0000
0000
1000
0000
0000
0000
0000
0000
1000
0000
0000
0001
0000
0000
0000
0000
0000
,  // measure 13
0010
0000
0010
0000
0010
0000
0010
0000
0000
0001
0000
0000
1000
0000
0010
0100
0000
0000
0001
0000
0000
1000
0000
0000
,  // measure 14
0200
0000
0000
0000
0000
0000
0010
0000
0000
0000
0000
0000
1300
0000
0000
0000
0000
0000
0100
0000
0000
0100
0000
0000
0010
0000
0000
0000
0001
0000
1000
0000
0000
0000
0000
0000
0010
0000
0000
0010
0000
0000
0100
0000
0000
0000
0000
0000
,  // measure 15
0001
0000
1000
1000
0100
0000
0010
0000
0001
0000
1000
0000
0010
0000
0100
0000
,  // measure 16
0101
0000
0100
0000
0010
1000
0001
0001
0010
0000
0100
0000
1000
1000
0001
0000
,  // measure 17
0100
0000
0010
0010
1000
0001
0010
0000
0100
0100
0010
0000
0001
1000
0010
0010
,  // measure 18
0100
0000
0001
0000
1000
1000
0100
0000
0010
0000
0001
0001
1000
0010
0100
0000
,  // measure 19
0001
0001
1000
0000
0100
0010
0001
0000
1000
0000
0010
0000
0100
0010
1000
0000
,  // measure 20
0001
0010
0100
1000
0001
0100
0001
1000
0010
0100
0001
1000
0100
1000
0001
0100
,  // measure 21
0010
1000
0001
0010
0001
1000
0010
0100
0001
1000
0100
1000
0001
0100
0001
1000
,  // measure 22
0100
0010
0001
1000
0010
0100
0001
1000
0100
1000
0001
0100
0010
1000
0001
0010
0100
0010
0001
1000
0010
0100
0001
1000
,  // measure 23
0200
0000
0000
0000
0000
0000
0000
0000
0000
0000
0310
0000
0100
0000
0001
00M0
,  // measure 24
0012
0000
0000
0000
1003
0000
0001
1000
0010
0000
0001
0000
0010
1000
0001
0000
,  // measure 25
0012
0000
0023
0000
0130
0000
1000
0001
0100
0000
1000
0000
0001
0000
0010
0000
,  // measure 26
1020
0000
0130
0000
0001
0000
1000
0001
0010
0000
1000
0000
0010
0001
1000
0000
,  // measure 27
0100
0000
0000
0000
0000
0000
0000
0000
0000
0000
0000
0000
0000
0000
0000
0M00
0000
0000
0000
0000
0000
0000
0000
0000
0001
0000
0000
0000
0000
0000
0000
0000
0000
0000
0000
0000
0000
0000
0000
000M
0000
0000
0000
0000
0000
0000
0000
0000
0010
0000
0000
0000
0000
0000
0000
0000
0000
0000
0000
0000
0000
0000
0000
0000
0000
0000
0000
0000
0000
0000
0000
0000
0100
0000
0000
0000
0000
0000
0000
0000
0000
0000
0000
0000
0001
0000
0000
0000
0000
0000
0000
0000
0000
0000
0000
0000
1000
0000
0000
0000
0000
0000
0000
0000
0000
0000
0000
0000
0000
0000
0000
0000
0100
0000
0000
0000
0000
0000
0000
0000
0010
0000
0000
0000
0000
0000
0000
0000
0000
0000
0000
0000
0000
0000
0000
0000
0000
0000
0000
0000
0000
0000
0000
0000
0002
0000
0000
0000
0000
0000
0000
0000
0000
0000
0000
0000
0000
0000
0000
0000
0000
0000
0000
0000
0000
0000
0000
0000
0000
0000
0000
0000
0000
0000
0000
0000
0000
0000
0000
0000
0003
0000
0000
0000
0000
0000
0000
0000
0000
0000
0000
0000
,  // measure 28
2001
0000
0000
0000
3001
0000
0100
0000
0001
0000
1000
0000
0100
0000
1000
0000
0001
0000
0010
0M00
0010
0000
1000
0000
0100
00M0
0100
0000
0001
0000
0000
0000
,  // measure 29
0101
0000
0000
0000
1000
0000
0010
0000
1000
0000
0001
0000
0010
0000
0001
0000
1000
0000
0100
00M0
0100
0000
0001
0000
0010
0000
0000
0000
0100
0000
0000
0000
,  // measure 30
1100
0000
0000
0000
0001
0000
0100
0000
0001
0000
1000
0000
0100
0000
1000
0000
0001
0000
0100
00M0
0100
0000
1000
0000
0010
0M00
0010
0000
0001
0000
0000
0000
,  // measure 31
4001
0000
0000
0000
0000
0000
0000
0000
3001
0000
0010
0000
0100
0000
1000
0000
0001
0000
0100
00M0
0100
0000
1000
0000
0010
0000
0000
0000
0100
0000
0000
0000
,  // measure 32
0001
0001
1000
0010
0100
0001
1000
0001
0010
0100
1000
0000
0001
1000
0010
1000
,  // measure 33
0001
0010
0000
0100
1000
0001
0100
0001
1000
0100
1000
0000
0020
0000
0000
0030
,  // measure 34
0112
0000
0000
0000
0000
0000
0103
0000
0010
1000
0001
0000
0010
0000
0000
0000
1000
0000
0000
0000
0010
0000
0001
0000
0100
0000
0010
0000
2000
0000
0000
0000
,  // measure 35
3201
0000
0000
0000
0000
0000
0000
0000
0310
0001
1000
0000
0010
0000
0000
0000
0100
0000
0100
0000
0000
0000
0001
0000
0100
0000
0010
0000
0001
0000
0010
0000
,  // measure 36
2000
0000
0000
0000
3001
0000
0010
0000
0001
0000
1000
0000
0010
0000
1000
0000
0001
0000
0100
00M0
0100
0000
1000
0000
0010
0M00
0010
0000
0001
0000
0000
0000
,  // measure 37
0101
0000
0000
0000
1000
0000
0100
0000
1000
0000
0001
0000
0100
0000
0001
0000
1000
0000
0010
0M00
0010
0000
0001
0000
0100
00M0
0100
0000
0010
0000
0000
0000
,  // measure 38
1100
0000
0000
0000
1000
0000
0100
0000
1000
0000
0001
0000
0100
0000
0001
0000
1000
0000
0100
00M0
0100
0000
0001
0000
0010
0000
0000
0000
0100
0000
0000
0000
,  // measure 39
4001
0000
0000
0000
0010
0000
0000
0000
3001
0000
0100
0000
0010
0000
1000
0000
0001
0000
0100
00M0
0100
0000
1000
0000
0010
0000
0000
0000
0100
0001
0100
0000
,  // measure 40
0020
0000
0000
0000
0130
0001
1000
1000
0100
0000
0010
0000
0001
0001
1000
0000
,  // measure 41
0010
0000
0100
0100
0001
1000
0100
0000
0010
0010
0001
0000
1000
0001
0100
0100
,  // measure 42
0010
0000
1000
0000
0001
0010
0100
0000
1000
0000
0001
0000
1000
0010
0100
0000
,  // measure 43
0002
0000
0013
0000
0100
1000
0001
0000
0200
0000
0310
0000
1000
0001
0010
0000
,  // measure 44
0100
1000
0001
0100
0010
1000
0001
0010
0001
1000
0010
0100
0010
1000
0001
0010
,  // measure 45
0100
1000
0001
0100
0001
1000
0100
1000
0001
0100
0010
1000
0001
0010
0001
1000
,  // measure 46
0010
0100
0001
1000
0100
1000
0001
0100
0010
1000
0001
0010
0100
0010
0001
1000
0010
1000
0001
0100
0001
1000
0100
0010
,  // measure 47
0002
0000
0000
0000
0000
0000
0000
0000
0000
0000
0103
0000
0010
0000
0001
0M00
,  // measure 48
0201
0000
0000
0000
0000
0000
0000
0000
0310
0000
0100
0000
1000
00M0
1000
0000
0010
0000
0100
0000
1000
00M0
1000
0000
0010
0000
0100
0000
1000
00M0
1000
0000
,  // measure 49
0002
0000
0000
0000
0000
0000
0000
0000
0013
0000
0100
0000
0001
00M0
0001
0000
0010
0000
0100
0000
0001
00M0
0001
0000
1000
0000
0000
0000
0010
0000
0000
0000
,  // measure 50
0140
0000
0000
0000
0000
0000
0000
0000
0130
0000
0010
0000
0001
0M00
0001
0000
0100
0000
0010
0000
0001
0M00
0001
0000
0100
0000
0010
0000
0001
0M00
0001
0000
,  // measure 51
0100
0000
0000
0000
0000
0000
0000
0000
0000
0000
0000
0000
0000
0000
0000
0M00
0000
0000
0000
0000
0000
0000
0000
0000
1000
0000
0000
0000
0000
0000
0000
0000
0000
0000
0000
0000
0000
0000
0000
M000
0000
0000
0000
0000
0000
0000
0000
0000
0010
0000
0000
0000
0000
0000
0000
0000
0000
0000
0000
0000
0100
0000
0000
0000
0000
0000
0000
0000
0000
0000
0000
0000
0001
0000
0000
0000
0000
0000
00M0
0000
0000
0000
0000
0000
0001
0000
0000
0000
0000
0000
0000
0000
0000
0000
0000
0000
1000
0000
0000
0000
0000
0000
0000
0000
0000
0000
0000
0000
0000
0000
0000
0000
0010
0000
0000
0000
0000
0000
0000
0000
0100
0000
0000
0000
0000
0000
0000
0000
0000
0000
0000
0000
0000
0000
0000
0000
0000
0000
0000
0000
0000
0000
0000
0000
0002
0000
0000
0000
0000
0000
0000
0000
0000
0000
0000
0000
0000
0000
0000
0000
0000
0000
0000
0000
0000
0000
0000
0000
0000
0000
0000
0000
0000
0000
0000
0000
0000
0000
0000
0000
0003
0000
0000
0000
0000
0000
0000
0000
0000
0000
0000
0000
,  // measure 52
1001
0000
0000
0000
1000
0000
0100
0000
1000
0000
0001
0000
0100
0000
0001
0000
1000
0000
0010
0M00
0010
0000
0001
0000
1000
0000
1000
0000
0100
0000
0100
0000
,  // measure 53
0010
0000
0000
0000
0001
0000
0010
0000
0001
0000
1000
0000
0010
0000
1000
0000
0001
0000
0100
00M0
0100
0000
1000
0000
0010
0000
0000
0000
0100
0000
0000
0000
,  // measure 54
0101
0000
0000
0000
1000
0000
0100
0000
1000
0000
0001
0000
0100
0000
0001
0000
1000
0000
0010
0M00
0010
0000
0001
0000
1000
0000
1000
0000
0001
0000
0001
0000
,  // measure 55
0040
0000
0100
0000
0031
1000
0010
0100
0010
1000
0001
0010
1000
0000
0010
0000
,  // measure 56
0001
0000
0000
0000
0100
0000
0000
0000
0010
0000
0000
0000
1000
0000
0000
0100
0000
0000
0010
0000
0000
0001
0000
0000
1000
0000
0000
0010
0000
0000
0100
0000
0000
0000
0000
0000
0001
0000
0000
1000
0000
0000
0100
0000
0000
1000
0000
0000
,  // measure 57
0001
0010
0000
0100
1000
0001
0100
0001
1000
0100
1000
0000
0020
0000
0000
0030
,  // measure 58
2110
0000
0000
0000
0000
0000
0000
0000
0000
0000
0000
0000
0000
0000
0000
0000
0000
0000
0000
0000
0000
0000
0000
0000
0000
0000
0000
0000
0000
0000
0000
0000
0000
0000
0000
0000
3001
0000
0000
0000
0000
0000
0000
0000
0000
0000
0000
0000
1000
0000
0000
0000
0000
0000
0100
0000
0000
0000
0000
0000
0010
0000
0000
0000
0000
0000
0000
0000
0000
0000
0000
0000
0201
0000
0000
0000
0000
0000
0000
0000
0000
0000
0000
0000
0000
0000
0000
0000
0000
0000
0000
0000
0000
0000
0000
0000
0000
0000
0000
0000
0000
0000
0000
0000
0000
0000
0000
0000
0300
0000
0000
0000
0000
0000
0000
0000
0000
0000
0000
0000
0010
0000
0000
0000
0000
0000
0000
0000
0000
0000
0000
0000
0000
0000
0000
0000
0001
0000
0000
0000
0000
0000
0000
0000
1000
0000
0000
0000
0000
0000
0000
0000
0000
0000
0000
0000
0001
0000
0000
0000
0000
0000
0000
0000
0000
0000
0000
0000
0010
0000
0000
0000
0000
0000
0000
0000
0000
0000
0000
0000
0000
0000
0000
0000
0000
0000
0000
0000
0000
0000
0000
0000
,  // measure 59
0201
0000
0000
0000
0000
0000
0000
0000
0310
0001
1000
0000
0021
0000
0000
0000
0000
0000
0030
0000
0100
0000
0001
0000
0100
0000
0010
0000
0001
0000
0010
0000
,  // measure 60
1000
0001
0010
0001
1000
0010
1000
0001
0010
0100
0010
0001
1000
0010
0100
0000
,  // measure 61
0101
0000
0000
0000
1000
0000
0100
0000
1000
0000
0001
0000
0100
0000
0001
0000
1000
0000
0010
0M00
0010
0000
0001
0000
0100
00M0
0100
0000
0010
0000
0000
0000
,  // measure 62
0011
0000
1000
0010
1000
0001
0010
0100
1000
0001
0100
0001
0020
0000
0000
0030
,  // measure 63
0410
0000
0000
0000
0010
0000
0000
0000
1300
0000
0001
0000
0100
0000
0010
0000
1000
0000
0001
0000
0100
00M0
0100
0000
0010
0000
0000
0000
0001
0000
0000
0000
,  // measure 64
2001
0000
0000
0000
,  // measure 65
0000
3000
0000
0000
;

//---------------dance-single - ----------------
#NOTES:
     dance-single:
     :
     Hard:
     9:
     0.570295,0.595536,0.095238,0.507937,0.305556,503.000000,491.000000,12.000000,64.000000,2.000000,0.000000,0.570295,0.595536,0.095238,0.507937,0.305556,503.000000,491.000000,12.000000,64.000000,2.000000,0.000000:
// measure 0
0000
0000
0000
0000
,  // measure 1
0000
0000
0000
0000
,  // measure 2
0000
0000
0000
0000
,  // measure 3
0000
0000
0000
0000
,  // measure 4
0001
0000
0100
0000
0010
0000
1000
0000
0001
0000
0010
0100
0000
0100
0000
0000
,  // measure 5
1000
0000
0001
0000
1000
0000
0001
0000
0000
0100
0000
0000
0010
0000
0000
1000
0000
0000
0002
0000
0000
0000
0000
0000
,  // measure 6
2003
3100
0010
0002
1003
0010
0200
0301
,  // measure 7
1000
0200
0310
0100
1000
0001
0100
0000
,  // measure 8
0010
0000
1000
0000
0100
0000
0010
0000
0001
0000
1000
0010
0000
0010
0000
0000
,  // measure 9
0100
0000
0001
0000
0100
0000
0001
0000
0000
1000
0000
0000
0001
0000
0000
0010
0000
0000
0100
0000
0000
1000
0000
0000
,  // measure 10
0020
0000
0130
0000
0001
0000
1000
0200
0000
0000
2300
0000
3020
0000
0230
0000
,  // measure 11
0301
0000
1000
0000
0100
0000
0010
0000
0100
0000
1000
0000
0001
0000
0100
0010
,  // measure 12
1000
0000
0001
0000
0010
0000
0100
0000
0010
0000
0001
1000
0000
1000
0000
0000
,  // measure 13
0100
0000
0010
0000
0100
0000
0010
0000
0000
0001
0000
0000
1000
0000
0000
0010
0000
0000
0100
0000
0000
0001
0000
0000
,  // measure 14
0200
0310
1000
0002
0013
0001
2000
3010
,  // measure 15
0100
0002
1003
0100
0010
0100
1000
0001
,  // measure 16
0101
0000
0100
0000
0010
1000
0002
0000
0013
0000
0001
0000
0200
0000
0310
0000
,  // measure 17
0100
0000
0002
0000
1003
0001
0010
0000
0200
0000
0310
0000
0001
1000
0020
0000
,  // measure 18
0130
0000
0001
0000
2000
0000
3100
0000
0010
0000
0002
0000
1003
0010
0100
0000
,  // measure 19
0002
0000
1003
0000
0100
0010
0001
0000
1000
0000
0010
0000
0100
0010
1000
0000
,  // measure 20
0001
0010
0001
0000
1000
0000
0010
0000
0100
0001
0100
0000
0010
0000
1000
0000
,  // measure 21
0001
0010
0001
0000
1000
0000
0100
0000
1000
0001
1000
0000
0010
0000
0100
0000
,  // measure 22
0004
0000
0000
0000
,  // measure 23
1003
0000
0000
0000
0000
0001
0010
0100
,  // measure 24
1100
0000
0000
0000
1000
0000
0001
1000
0010
0000
0100
0000
0010
1000
0001
0000
,  // measure 25
2001
0000
3002
0000
0103
0000
0010
1000
0001
0000
0100
0000
1000
0000
0100
0000
,  // measure 26
0002
0000
1003
0000
0100
0000
0010
0001
1000
0000
0010
0000
0100
0001
1000
0000
,  // measure 27
0100
00M0
0100
0000
0001
0000
1000
0100
1000
0001
0100
0000
0020
0000
0030
0000
,  // measure 28
2000
0000
3001
0010
0001
0000
1000
0000
0010
0000
0010
0000
0010
0000
1000
0000
,  // measure 29
0002
0000
1003
0010
1000
0000
0001
0000
0010
0000
0010
0000
0001
0000
0001
0000
,  // measure 30
2000
0000
3001
0100
0001
0000
1000
0001
0000
0000
0100
0000
0100
0000
0010
0000
,  // measure 31
2000
0000
3001
0010
0100
0100
1000
0001
,  // measure 32
2000
0000
3001
0100
0010
0100
0001
1000
,  // measure 33
0100
0000
0010
0000
0001
0000
1000
0000
0010
0000
1000
0000
0002
0000
0000
0003
,  // measure 34
0012
0000
0000
1003
0010
0100
0001
0000
1000
0000
0100
0010
0000
0001
1000
0000
,  // measure 35
2010
0000
0000
0000
3010
0100
0001
0000
1000
0100
0000
1000
0000
0000
0001
0000
,  // measure 36
0200
0000
0310
1000
0010
0000
1000
0000
0001
0000
0001
0000
0001
0000
0010
0000
,  // measure 37
0200
0000
1300
0001
1000
0000
0010
0000
0100
0000
0100
0000
0100
0000
0001
0000
,  // measure 38
2000
0000
3100
0010
0100
0000
1000
0001
0000
0000
1000
0000
0010
0000
0100
0000
,  // measure 39
0002
0000
0000
0000
1003
0010
1000
0000
0001
0000
0001
0000
0100
0000
0000
0000
,  // measure 40
0020
0000
1030
0002
0013
0100
2000
3001
,  // measure 41
0100
0020
1030
0001
0020
0130
0010
0002
,  // measure 42
1003
0000
0010
0000
0100
0001
1000
0000
0100
0000
0010
0000
0100
1000
0001
0000
,  // measure 43
0100
0010
1000
0001
1000
0100
0010
0001
,  // measure 44
0100
0010
0100
0000
0001
0000
1000
0000
0100
0010
0100
0000
1000
0000
0001
0000
,  // measure 45
0100
0010
1000
0000
0100
0010
0001
0000
1000
0010
0100
0000
0001
0010
0100
0000
,  // measure 46
4000
0000
0000
0000
,  // measure 47
3010
0000
0000
0000
0000
0001
0010
1000
,  // measure 48
0002
0000
0000
0000
1003
0100
1000
0000
0001
0100
0001
0000
1000
0100
1000
0000
,  // measure 49
0002
0000
0000
0000
1003
0010
1000
0000
0001
0010
0001
0000
1000
0000
1000
0000
,  // measure 50
0002
0000
0000
0000
1003
0100
1000
0000
0001
0100
0001
0000
1000
0100
1000
0000
,  // measure 51
0010
0M00
0010
0000
0001
0100
0001
0000
1001
0000
0000
0000
2010
0000
0000
0000
,  // measure 52
3002
0000
1003
0100
1000
0000
0001
0000
0100
0000
0100
0000
0010
1000
0001
0000
,  // measure 53
0020
0000
0031
1000
0001
0000
0100
0000
0001
0000
0001
0000
1000
0000
1000
0000
,  // measure 54
0200
0000
0310
0001
0010
0000
0100
0000
1000
0000
1000
0000
0001
0100
0010
0000
,  // measure 55
2000
0000
0000
0000
3001
0100
0001
0000
1000
0000
0100
0000
0001
0000
0100
0000
,  // measure 56
2000
0000
3001
0100
0010
0100
0001
1000
,  // measure 57
0100
0000
1000
0000
0010
0000
0100
0000
0001
0000
1000
0000
0200
0000
0000
0300
,  // measure 58
2100
0000
3000
2001
0000
3001
0100
0010
,  // measure 59
2010
0000
3000
0102
0000
1003
0100
0010
,  // measure 60
0002
0000
1003
0010
1000
0000
0001
0000
0010
0000
0100
0000
1000
0001
1000
0000
,  // measure 61
0020
0000
0130
0001
0100
0000
0001
0000
1000
0000
1000
0000
0001
0000
0001
0000
,  // measure 62
0200
0000
0310
1000
0010
0000
1000
0000
0001
0000
0010
0000
0200
0000
0000
0300
,  // measure 63
2000
0000
0000
0000
3001
0100
0001
0000
1000
0000
0100
0000
0010
0000
0001
0000
,  // measure 64
0012
0000
0000
0000
,  // measure 65
0000
0003
0000
0000
;

//---------------dance-single - ----------------
#NOTES:
     dance-single:
     :
     Medium:
     6:
     0.346939,0.362500,0.023810,0.357143,0.003968,306.000000,303.000000,3.000000,45.000000,0.000000,0.000000,0.346939,0.362500,0.023810,0.357143,0.003968,306.000000,303.000000,3.000000,45.000000,0.000000,0.000000:
// measure 0
0000
0000
0000
0000
,  // measure 1
0000
0000
0000
0000
,  // measure 2
0000
0000
0000
0000
,  // measure 3
0000
0000
0000
0000
,  // measure 4
0001
0100
0010
0000
1000
0100
0010
0000
,  // measure 5
0001
0001
0001
0000
1000
0010
0100
0000
,  // measure 6
0002
1003
0100
1000
1000
0000
0001
0001
,  // measure 7
0000
0000
0100
0000
0100
0000
0000
0000
0020
0000
0000
0000
0000
0030
0000
0000
,  // measure 8
1000
0100
0010
0000
0001
0100
0010
0000
,  // measure 9
1000
1000
1000
0000
0001
0010
0001
0000
,  // measure 10
2000
3010
0100
0000
0002
2003
3200
0320
,  // measure 11
0031
0000
1000
0000
0010
0000
0000
0000
0200
0000
0000
0000
0000
0300
0000
0000
,  // measure 12
0001
0010
0100
0000
0010
0001
1000
0000
,  // measure 13
0010
0010
0010
0000
0100
0001
1000
0000
,  // measure 14
0200
0310
0001
1000
1000
0000
0010
0010
,  // measure 15
0000
0100
0100
0000
0001
0000
1000
0000
,  // measure 16
1001
1000
0100
0010
0010
0000
0001
0001
,  // measure 17
0000
1000
1000
0000
0010
0010
0000
1000
,  // measure 18
1000
0000
0001
0001
0000
0010
0010
0000
,  // measure 19
0100
0100
0000
1000
1000
0000
0001
0001
,  // measure 20
0100
0010
1000
0000
0001
0010
0100
0000
,  // measure 21
1000
0010
0100
0000
0001
1000
0100
0000
,  // measure 22
2000
0000
0000
0000
,  // measure 23
3001
0000
0000
0000
0000
1000
0010
0100
,  // measure 24
0101
0000
0001
0000
1000
0100
1000
0000
,  // measure 25
0002
0000
0103
0000
0010
1000
0001
0000
,  // measure 26
2000
0000
3100
0000
0010
0001
1000
0000
,  // measure 27
0010
0100
0001
0000
1000
0000
0001
0000
,  // measure 28
0200
0300
0010
0000
1000
0001
1000
0000
,  // measure 29
0200
0300
0010
0000
0001
1000
0001
0000
,  // measure 30
0200
0300
0010
0000
1000
0001
1000
0000
,  // measure 31
0200
0300
0010
0000
0001
1000
0010
0000
,  // measure 32
0200
0301
1000
0100
,  // measure 33
0010
0001
1000
0020
,  // measure 34
2030
0000
0000
0000
3001
0000
0000
0000
1000
0000
0000
0001
0000
0000
0010
0000
,  // measure 35
0200
0000
1300
0000
0010
0010
0100
0001
,  // measure 36
2000
3000
0001
0000
0100
0010
0100
0000
,  // measure 37
0002
0003
1000
0000
0100
0010
0100
0000
,  // measure 38
2000
3000
0001
0000
0100
0000
0010
1000
,  // measure 39
0002
0000
1003
0000
0100
0010
0001
0000
,  // measure 40
2000
0000
3001
0100
0100
0000
0010
0010
,  // measure 41
0000
1000
1000
0000
0001
0001
0000
0010
,  // measure 42
0010
0000
0100
0100
0000
1000
1000
0000
,  // measure 43
0001
0100
0010
0000
1000
0100
0010
0000
,  // measure 44
0001
1000
0001
0000
0100
0010
1000
0000
,  // measure 45
0100
0010
0001
0000
1000
0010
1000
0000
,  // measure 46
0002
0000
0000
0000
,  // measure 47
1003
0000
0000
0000
0000
0001
0010
0001
,  // measure 48
2000
3001
0100
0010
,  // measure 49
2000
0000
3001
0000
0010
0000
0100
0100
,  // measure 50
2000
3001
0100
0010
,  // measure 51
0100
0100
0001
0000
1000
0000
0002
0000
,  // measure 52
0023
0030
0001
0000
1000
0010
1000
1000
,  // measure 53
0002
0003
0010
0000
0100
1000
0100
0100
,  // measure 54
2000
3000
0001
0000
0100
0010
0100
0100
,  // measure 55
0002
0003
1000
0000
0100
0010
0001
1000
,  // measure 56
0002
1003
0010
0100
,  // measure 57
0001
1000
0100
0020
,  // measure 58
0032
0000
0003
0200
0000
0300
0010
0000
,  // measure 59
2000
0000
3000
0002
0000
0003
1000
0000
,  // measure 60
0200
0300
0010
0000
0001
1000
0001
0000
,  // measure 61
0200
0300
0010
0000
1000
0001
1000
0000
,  // measure 62
0200
0300
0010
0000
0001
1000
0001
0000
,  // measure 63
2000
0000
3001
0000
0010
0100
1000
0000
,  // measure 64
2100
0000
0000
0000
,  // measure 65
0000
3000
0000
0000
;

//---------------dance-single - ----------------
#NOTES:
     dance-single:
     :
     Easy:
     4:
     0.239229,0.258929,0.023810,0.158730,0.000000,211.000000,208.000000,3.000000,20.000000,0.000000,0.000000,0.239229,0.258929,0.023810,0.158730,0.000000,211.000000,208.000000,3.000000,20.000000,0.000000,0.000000:
// measure 0
0000
0000
0000
0000
,  // measure 1
0000
0000
0000
0000
,  // measure 2
0000
0000
0000
0000
,  // measure 3
0000
0000
0000
0000
,  // measure 4
0001
0010
0100
1000
,  // measure 5
0001
0001
0100
0010
,  // measure 6
2000
3000
0001
0000
0000
0000
0010
0000
,  // measure 7
0000
0100
0010
0001
,  // measure 8
1000
0010
0100
0001
,  // measure 9
1000
1000
0001
0010
,  // measure 10
0200
0300
0000
0000
1000
0000
0001
0000
,  // measure 11
1000
0000
0000
0000
0010
0000
0000
0000
0200
0000
0000
0000
0000
0300
0000
0000
,  // measure 12
0001
1000
0100
0010
,  // measure 13
0001
0001
1000
0010
,  // measure 14
0200
0300
0001
0000
0000
0000
1000
0000
,  // measure 15
0000
0100
0010
0100
,  // measure 16
1000
0001
0100
0010
,  // measure 17
1000
0001
0010
0001
,  // measure 18
1000
0010
0100
0001
,  // measure 19
1000
0100
1000
0001
,  // measure 20
0100
0000
0010
0000
,  // measure 21
1000
0000
0001
0000
,  // measure 22
0020
0000
0000
0000
,  // measure 23
0031
0000
0000
1000
,  // measure 24
1001
0001
1000
0010
,  // measure 25
0100
0001
1000
0100
,  // measure 26
0010
0100
1000
0001
,  // measure 27
0100
0010
1000
0002
,  // measure 28
1003
0010
0100
0100
,  // measure 29
0001
1000
0100
0100
,  // measure 30
0010
0001
1000
0010
,  // measure 31
0100
0010
1000
0001
,  // measure 32
0010
0001
0000
1000
,  // measure 33
0000
0010
0000
1000
,  // measure 34
0002
1003
0010
0100
,  // measure 35
0002
1003
0100
0010
,  // measure 36
0001
1000
0010
0010
,  // measure 37
0100
0001
1000
1000
,  // measure 38
0100
0010
0001
1000
,  // measure 39
0010
1000
0001
0010
,  // measure 40
0200
1300
0000
0001
,  // measure 41
0000
0100
0000
0010
,  // measure 42
1000
0001
0010
0100
,  // measure 43
1000
0001
0100
0010
,  // measure 44
1000
0000
0001
0000
,  // measure 45
1000
0000
0100
0000
,  // measure 46
0020
0000
0000
0000
,  // measure 47
0031
0000
0000
1000
,  // measure 48
1001
0001
0100
0010
,  // measure 49
2000
3001
0010
0100
,  // measure 50
2000
3001
0100
0010
,  // measure 51
0100
0001
1000
0002
,  // measure 52
0013
0001
1000
1000
,  // measure 53
0010
0100
0001
0001
,  // measure 54
1000
0100
0010
0010
,  // measure 55
0001
1000
0010
0100
,  // measure 56
0002
1003
0010
0100
,  // measure 57
0001
1000
0100
0020
,  // measure 58
0032
0000
0003
0200
0000
0300
0000
0000
,  // measure 59
0002
0000
0003
2000
0000
3000
0100
0000
,  // measure 60
0010
0001
1000
1000
,  // measure 61
0010
0100
0001
0001
,  // measure 62
1000
0100
0010
0010
,  // measure 63
0001
1000
0010
0100
,  // measure 64
0201
0000
0000
0000
,  // measure 65
0000
0300
0000
0000
;

//---------------dance-single - ----------------
#NOTES:
     dance-single:
     :
     Beginner:
     1:
     0.069161,0.077679,0.000000,0.007937,0.000000,61.000000,61.000000,0.000000,1.000000,0.000000,0.000000,0.069161,0.077679,0.000000,0.007937,0.000000,61.000000,61.000000,0.000000,1.000000,0.000000,0.000000:
// measure 0
0000
0000
0000
0000
,  // measure 1
0000
0000
0000
0000
,  // measure 2
0000
0000
0000
0000
,  // measure 3
0000
0000
0000
0000
,  // measure 4
0001
0000
0000
0000
,  // measure 5
1000
0000
0000
0000
,  // measure 6
0100
0000
0000
0000
,  // measure 7
0010
0000
0000
0000
,  // measure 8
0001
0000
0000
0000
,  // measure 9
1000
0000
0000
0000
,  // measure 10
0010
0000
0000
0000
,  // measure 11
0100
0000
0000
0000
,  // measure 12
0001
0000
0000
0000
,  // measure 13
1000
0000
0000
0000
,  // measure 14
0100
0000
0000
0000
,  // measure 15
1000
0000
0000
0000
,  // measure 16
0001
0000
0000
0000
,  // measure 17
0100
0000
0000
0000
,  // measure 18
0010
0000
0000
0000
,  // measure 19
1000
0000
0000
0000
,  // measure 20
0001
0000
0000
0000
,  // measure 21
0010
0000
0000
0000
,  // measure 22
0100
0000
0000
0000
,  // measure 23
0010
0000
0000
0000
,  // measure 24
0001
0000
0000
0000
,  // measure 25
1000
0000
0000
0000
,  // measure 26
0010
0000
0000
0000
,  // measure 27
0100
0000
0000
0000
,  // measure 28
0010
0000
0000
0000
,  // measure 29
1000
0000
0000
0000
,  // measure 30
0001
0000
0000
0000
,  // measure 31
0010
0000
0000
0000
,  // measure 32
0100
0000
0000
0000
,  // measure 33
1000
0000
0000
0000
,  // measure 34
0010
0000
0000
0000
,  // measure 35
0100
0000
0000
0000
,  // measure 36
0001
0000
0000
0000
,  // measure 37
1000
0000
0000
0000
,  // measure 38
0100
0000
0000
0000
,  // measure 39
1000
0000
0000
0000
,  // measure 40
0001
0000
0000
0000
,  // measure 41
0100
0000
0000
0000
,  // measure 42
0001
0000
0000
0000
,  // measure 43
1000
0000
0000
0000
,  // measure 44
0010
0000
0000
0000
,  // measure 45
0100
0000
0000
0000
,  // measure 46
0001
0000
0000
0000
,  // measure 47
1000
0000
0000
0000
,  // measure 48
0100
0000
0000
0000
,  // measure 49
0010
0000
0000
0000
,  // measure 50
0001
0000
0000
0000
,  // measure 51
1000
0000
0000
0000
,  // measure 52
0001
0000
0000
0000
,  // measure 53
0100
0000
0000
0000
,  // measure 54
0001
0000
0000
0000
,  // measure 55
1000
0000
0000
0000
,  // measure 56
0100
0000
0000
0000
,  // measure 57
0010
0000
0000
0000
,  // measure 58
0001
0000
0000
0000
,  // measure 59
1000
0000
0000
0000
,  // measure 60
0010
0000
0000
0000
,  // measure 61
0100
0000
0000
0000
,  // measure 62
0010
0000
0000
0000
,  // measure 63
1000
0000
0000
0000
,  // measure 64
0002
0000
0000
0000
,  // measure 65
0000
0003
0000
0000
;
