#VERSION:0.83;
#TITLE:HITTA;
#SUBTITLE:(Feat. Juicy J);
#ARTIST:Marshmello & Eptic;
#TITLETRANSLIT:;
#SUBTITLETRANSLIT:;
#ARTISTTRANSLIT:;
#GENRE:;
#ORIGIN:;
#CREDIT:;
#BANNER:hitta-bn.png;
#BACKGROUND:hitta-bg.png;
#PREVIEWVID:;
#JACKET:hitta-jacket.png;
#CDIMAGE:;
#DISCIMAGE:;
#LYRICSPATH:;
#CDTITLE:;
#MUSIC:HITTA - Marshmello x Eptic (Feat. Juicy J).ogg;
#OFFSET:0.005000;
#SAMPLESTART:26.464001;
#SAMPLELENGTH:12.000000;
#SELECTABLE:YES;
#BPMS:0.000=145.002;
#STOPS:;
#DELAYS:;
#WARPS:;
#TIMESIGNATURES:0.000=4=4;
#TICKCOUNTS:0.000=4;
#COMBOS:0.000=1;
#SPEEDS:0.000=1.000=0.000=0;
#SCROLLS:0.000=1.000;
#FAKES:;
#LABELS:0.000=Song Start;
#BGCHANGES:;
#KEYSOUNDS:;
#ATTACKS:
;

//---------------dance-single - sangyule----------------
#NOTEDATA:;
#CHARTNAME:sangyule;
#STEPSTYPE:dance-single;
#DESCRIPTION:sangyule;
#CHARTSTYLE:;
#DIFFICULTY:Beginner;
#METER:1;
#RADARVALUES:0.105638,0.149968,0.030182,0.000000,0.000000,98.000000,94.000000,4.000000,0.000000,0.000000,0.000000,0.000000,0.000000,0.000000,0.105638,0.149968,0.030182,0.000000,0.000000,98.000000,94.000000,4.000000,0.000000,0.000000,0.000000,0.000000,0.000000,0.000000;
#CREDIT:sangyule;
#NOTES:
0000
0000
0000
0000
,
0000
0000
0000
0000
,
0000
0000
0000
0000
,
0000
0000
0000
0000
,
0000
0000
0000
0000
,
0000
0000
0000
0000
,
0000
0000
0000
0000
,
0000
0000
0000
0000
,
1000
0000
0000
0000
,
1000
0000
1000
0000
,
0001
0000
0000
0000
,
0001
0000
0001
0000
,
0100
0000
0100
0000
,
0010
0000
0010
0000
,
1000
0000
1000
0000
,
0000
0000
0000
0000
,
1001
0000
0001
0000
,
0000
0010
0000
0010
,
0000
0010
0000
0010
,
0000
0000
0000
0000
,
0100
0000
1000
0000
,
0000
0010
0000
0010
,
0000
0010
0000
0010
,
0000
0000
0100
0000
,
0001
0000
1000
0000
,
0000
0100
0000
0100
,
0000
0100
0000
0100
,
0000
0000
0000
0000
,
1000
0000
0001
0000
,
0000
0100
0000
0100
,
0000
0100
0000
0100
,
0000
0000
0010
0000
,
1000
0000
0000
0000
,
0000
0000
0000
0000
,
0000
0000
0000
0000
,
0000
0000
0000
0000
,
0000
0000
0000
0000
,
0000
0000
0000
0000
,
0000
0000
0000
0000
,
0000
0000
0000
0000
,
1001
0000
0000
0000
,
0001
0000
0000
0000
,
0010
0000
0000
0000
,
0100
0000
0000
0000
,
1000
0000
0000
0000
,
0001
0000
0000
0000
,
0100
0000
0000
0000
,
0010
0000
0000
0000
,
1000
0000
0000
0000
,
0001
0000
0000
0000
,
0010
0000
0000
0000
,
0100
0000
0000
0000
,
1000
0000
0000
0000
,
0001
0000
0000
0000
,
0100
0000
0100
0000
,
0010
0000
0000
0000
,
1001
0000
0000
0000
,
1000
0000
1000
0000
,
0001
0000
0000
0000
,
0001
0000
0001
0000
,
0010
0000
0010
0000
,
0100
0000
0100
0000
,
1000
0000
1000
0000
,
0001
0000
0000
0000
,
1001
0000
1000
0000
,
0000
0000
0010
0000
,
0100
0000
0100
0000
,
0000
0000
0001
0000
,
1000
0000
0001
0000
,
0000
0000
0010
0000
,
0100
0000
1000
0000
,
0000
0000
0001
0000
,
1000
0000
0001
0000
,
0000
0000
0100
0000
,
0010
0000
0010
0000
,
0000
0000
1000
0000
,
0001
0000
1000
0000
,
0000
0000
0100
0000
,
0010
0000
0001
0000
,
1000
0000
0010
0000
;

//---------------dance-single - sangyule----------------
#NOTEDATA:;
#CHARTNAME:;
#STEPSTYPE:dance-single;
#DESCRIPTION:sangyule;
#CHARTSTYLE:;
#DIFFICULTY:Easy;
#METER:4;
#RADARVALUES:0.265173,0.361056,0.241458,0.060365,0.000000,246.000000,214.000000,32.000000,8.000000,0.000000,0.000000,0.000000,0.000000,0.000000,0.265173,0.361056,0.241458,0.060365,0.000000,246.000000,214.000000,32.000000,8.000000,0.000000,0.000000,0.000000,0.000000,0.000000;
#CREDIT:sangyule;
#NOTES:
0000
0000
0000
0000
,
0000
0000
0000
0000
,
0000
0000
0000
0000
,
0000
0000
0000
0000
,
0000
0000
0000
0000
,
0000
0000
0000
0000
,
0000
0000
0000
0000
,
0000
0000
0000
0000
,
1000
1000
0001
0000
,
1000
1000
0001
0001
,
0010
0010
0100
0000
,
0010
0010
0001
0001
,
1000
1000
0010
0010
,
0100
0100
0001
0001
,
1000
0100
0010
0001
,
0100
0000
0000
0000
,
1001
0001
0010
0000
,
0100
1100
0000
0101
,
0000
0011
0000
1010
,
0000
0010
0100
0001
,
1000
0001
0010
0000
,
0001
0101
0000
1100
,
0000
1010
0000
0011
,
0001
0100
0010
0000
,
1001
1000
0100
0000
,
0010
0011
0000
0101
,
0000
1010
0000
1100
,
0100
1000
0010
0100
,
0001
1000
0010
0000
,
0100
0101
0000
0011
,
0000
1100
0000
1010
,
0010
0100
0001
1000
,
0100
0000
0000
0000
,
0000
0000
0000
0000
,
0000
0000
0000
0000
,
0000
0000
0000
0000
,
1000
0000
0000
1000
0000
0000
0010
0000
,
0100
0000
0000
0100
0000
0000
0000
0000
,
0001
0000
0000
0001
0000
0000
1000
0000
,
0100
0100
0020
0031
,
1000
0000
0100
1000
,
0000
1000
0001
0000
,
0100
0000
0010
1000
,
0000
1000
0001
0020
,
0130
0000
0010
0001
,
0000
0001
1000
0000
,
0010
0000
0110
0110
,
1000
1000
0001
0002
,
0013
0000
0100
1000
,
0000
1000
0010
0000
,
0100
0000
0001
1000
,
0000
1000
0100
0020
,
0031
0000
1000
0010
,
0000
0010
0100
0000
,
0002
0000
1003
1000
,
0000
0000
0000
0000
,
0001
0001
1000
0000
,
0001
0001
1000
1000
,
0010
0010
0100
0000
,
0010
0010
1000
1000
,
0001
0001
0010
0010
,
0100
0100
1000
1000
,
0001
0100
0010
1000
,
0100
0000
0000
0000
,
1001
0001
0100
1010
,
0000
1100
0000
0011
,
0001
0001
0100
0101
,
0000
1010
1000
0002
,
0013
0010
0100
1000
,
0001
0100
0100
0010
,
1000
0001
0001
0010
,
0200
1300
0001
0100
,
0010
0010
1000
1100
,
0000
0011
0001
1001
,
1000
1000
0010
0110
,
0000
0101
0001
1000
,
1100
0100
0010
0010
,
0001
1000
0001
0100
,
0010
1000
1000
0001
,
0020
0130
1000
0001
;

//---------------dance-single - sangyule----------------
#NOTEDATA:;
#CHARTNAME:;
#STEPSTYPE:dance-single;
#DESCRIPTION:sangyule;
#CHARTSTYLE:;
#DIFFICULTY:Medium;
#METER:7;
#RADARVALUES:0.393448,0.452027,0.120729,0.158457,0.083001,365.000000,349.000000,16.000000,21.000000,22.000000,0.000000,0.000000,0.000000,0.000000,0.393448,0.452027,0.120729,0.158457,0.083001,365.000000,349.000000,16.000000,21.000000,22.000000,0.000000,0.000000,0.000000,0.000000;
#CREDIT:sangyule;
#NOTES:
// measure 0
0000
0000
0000
0000
,  // measure 1
0000
0000
0000
0000
,  // measure 2
0000
0000
0000
0000
,  // measure 3
0000
0000
0000
0000
,  // measure 4
0000
0000
0000
0000
,  // measure 5
0000
0000
0000
0000
,  // measure 6
0000
0000
0000
0000
,  // measure 7
0000
0000
0000
0000
,  // measure 8
1000
0000
1000
0000
0010
0100
0000
0100
,  // measure 9
0001
0001
1000
1000
,  // measure 10
0100
0000
0100
0000
0010
0001
0000
0001
,  // measure 11
1000
0000
1000
0000
0010
0000
0100
0001
,  // measure 12
1000
0100
0010
0001
,  // measure 13
1000
0001
0100
0010
,  // measure 14
1000
0001
0100
0001
1000
0100
1000
0100
,  // measure 15
0020
0030
0000
0000
,  // measure 16
1001
0011
2000
0000
,  // measure 17
3001
0000
0100
0100
1000
0000
0100
0100
,  // measure 18
0001
0000
0100
0100
1000
0000
0100
0100
,  // measure 19
0001
1000
0002
0000
0103
0010
1000
0000
,  // measure 20
1010
1001
0002
0000
,  // measure 21
1003
0000
0000
0000
0100
00M0
0100
0000
0001
0000
0000
0000
0100
00M0
0100
0000
,  // measure 22
1000
0000
0000
0000
0100
00M0
0100
0000
0001
0000
0000
0000
0100
00M0
0100
0000
,  // measure 23
2000
0000
3001
0000
0100
0010
1000
0000
,  // measure 24
1001
1100
0200
0000
,  // measure 25
1300
0000
0000
0000
0010
0M00
0010
0000
0001
0000
0000
0000
0010
0M00
0010
0000
,  // measure 26
1000
0000
0000
0000
0010
0M00
0010
0000
0001
0000
0000
0000
0010
0M00
0010
0000
,  // measure 27
1000
0001
1000
0000
0100
0010
0001
0000
,  // measure 28
0011
1010
2000
0000
,  // measure 29
3001
0000
0000
0000
0010
0M00
0010
0000
1000
0000
0000
0000
0010
0M00
0010
0000
,  // measure 30
0001
0000
0000
0000
0010
0M00
0010
0000
1000
0000
0000
0000
0010
0M00
0010
0000
,  // measure 31
0001
1000
0001
0000
0100
0010
1000
0000
,  // measure 32
0001
0010
0100
0010
,  // measure 33
0001
1000
0020
0000
,  // measure 34
0130
0001
1000
0001
,  // measure 35
0010
0100
2000
3000
,  // measure 36
0001
1000
0100
0010
,  // measure 37
0001
0100
0001
0010
,  // measure 38
0100
0100
1000
1000
,  // measure 39
0001
0100
0001
0100
0001
0100
0010
0000
,  // measure 40
1000
0001
0010
0100
,  // measure 41
1000
0000
0001
0000
0100
0001
0100
0000
,  // measure 42
0010
0000
1000
0000
0001
1000
0001
0000
,  // measure 43
0010
0000
0100
0000
1000
0001
0100
0000
,  // measure 44
0010
1000
0002
0013
,  // measure 45
0001
0000
0100
0000
0010
1000
0010
0000
,  // measure 46
0100
0000
0000
0001
0100
0000
0001
0000
,  // measure 47
1000
0001
1000
0001
2000
0000
3100
0000
,  // measure 48
0010
0001
1000
0001
,  // measure 49
0010
0000
0100
0000
1000
0001
1000
0000
,  // measure 50
0001
0010
0100
1000
,  // measure 51
0010
0000
0100
0000
0001
0100
0010
0000
,  // measure 52
1000
0001
0010
0001
,  // measure 53
1000
0000
0001
0000
0100
0010
0100
0000
,  // measure 54
0001
0001
1000
1000
,  // measure 55
0000
0000
0000
0000
,  // measure 56
0001
0000
0001
0000
0100
0010
0000
0010
,  // measure 57
1000
1000
0001
0001
,  // measure 58
0010
0000
0010
0000
0100
1000
0000
1000
,  // measure 59
0001
0000
0001
0000
0100
0000
0010
1000
,  // measure 60
0001
0100
0010
1000
,  // measure 61
0001
0010
0100
1000
,  // measure 62
0001
0100
0001
1000
0100
0010
0100
0010
,  // measure 63
0002
0003
0000
0000
,  // measure 64
1001
0000
0000
0000
1001
0000
0000
0000
2000
0000
0000
0000
3100
00M0
0100
0000
,  // measure 65
0001
0000
0000
0000
0100
00M0
0100
0000
1000
0000
0000
0000
0100
00M0
0100
0000
,  // measure 66
0010
0000
0000
0000
0110
0000
0000
0000
0001
0000
0000
0000
0100
00M0
0100
0000
,  // measure 67
1000
0000
0000
0000
0100
00M0
0100
0000
0001
0000
0000
0000
1000
0000
0100
0000
,  // measure 68
0020
0000
0031
0001
1000
0010
0200
0000
,  // measure 69
0301
0001
1000
0100
0020
0000
0031
1000
,  // measure 70
0001
0000
0100
0100
0010
1000
0020
0000
,  // measure 71
0130
0000
0101
0000
0001
1000
0100
0000
,  // measure 72
0110
0000
0000
0000
0110
0000
0000
0000
0001
0000
0000
0000
0010
0M00
0010
0000
,  // measure 73
1000
0000
0000
0000
0010
0M00
0010
0000
0001
0000
0000
0000
0010
0M00
0010
0000
,  // measure 74
0100
0000
0000
0000
0110
0000
0000
0000
1000
0000
0000
0000
0010
0M00
0010
0000
,  // measure 75
0001
0000
0000
0000
0010
0M00
0010
0000
1000
0000
0000
0000
0001
0000
0001
0000
,  // measure 76
0010
0000
0100
0100
1000
0001
2000
0000
,  // measure 77
3010
0010
0100
0001
0200
0000
0301
0001
,  // measure 78
1000
0000
0100
0100
0010
0001
0020
0000
,  // measure 79
0031
0000
0101
0000
1000
1000
0020
0030
;

//---------------dance-single - sangyule----------------
#NOTEDATA:;
#CHARTNAME:;
#STEPSTYPE:dance-single;
#DESCRIPTION:sangyule;
#CHARTSTYLE:;
#DIFFICULTY:Hard;
#METER:8;
#RADARVALUES:0.552983,0.572568,0.233913,0.249004,0.120729,513.000000,482.000000,31.000000,33.000000,16.000000,0.000000,0.000000,0.000000,0.000000,0.552983,0.572568,0.233913,0.249004,0.120729,513.000000,482.000000,31.000000,33.000000,16.000000,0.000000,0.000000,0.000000,0.000000;
#CREDIT:sangyule;
#NOTES:
0000
0000
0000
0000
,
0000
0000
0000
0000
,
0000
0000
0000
0000
,
0000
0000
0000
0000
,
0000
0000
0000
0000
,
0000
0000
0000
0000
,
0000
0000
0000
0000
,
0000
0000
0000
0000
0000
1000
0001
1000
,
0100
0000
0100
1000
0020
0130
0000
0100
,
0001
0000
0001
1000
1100
0000
0101
0001
,
0100
0000
0100
0010
1000
0100
0000
0100
,
1000
0000
1000
0001
0011
0000
1000
1000
,
0020
0130
0020
0130
0001
1000
0100
1000
,
0001
0100
0010
0100
0001
1000
0001
0010
,
0100
1000
0010
0100
0001
0010
0001
0100
,
M120
000M
M030
0000
000M
0000
0M00
0000
,
1001
0000
0000
0000
0101
0000
0000
0000
0100
0010
0000
1000
0000
0001
0010
0000
,
0100
0000
0001
0100
1000
0100
0001
0100
,
1000
0010
0001
0010
1000
0010
0001
0010
,
2000
3001
1001
0000
1100
1000
0010
0000
,
1010
0000
0000
0000
0011
0000
0000
0000
0001
0100
0000
0010
0000
1000
0100
0000
,
0010
0000
1000
0010
0001
0010
1000
0010
,
0001
0100
1000
0100
0001
0100
1000
0100
,
0020
0000
1030
0000
1100
0100
0020
0000
,
0031
0000
0000
0000
1100
0000
0000
0000
0100
1000
0000
0010
0000
1000
0001
0000
,
0010
0000
1000
0010
0001
0010
1000
0010
,
0001
0100
1000
0100
0001
0100
1000
0100
,
0020
1030
1010
0000
0110
0100
0001
0000
,
1001
0000
0000
0000
1100
0000
0000
0000
1000
0001
0000
0010
0000
0001
1000
0000
,
0100
0000
0001
0100
1000
0100
0001
0100
,
1000
0000
0010
0000
0001
0000
0010
0000
1000
0001
1000
0002
0000
0000
0000
0000
,
0013
0100
1000
0000
0001
0001
0100
0000
,
0001
1000
0010
1000
0100
1000
0010
0000
,
0100
0001
1000
0001
0010
0100
1000
0000
,
0001
0010
0001
0100
0010
1000
0001
1000
,
0100
0010
0100
0010
0001
1000
0020
0000
,
0130
0001
1000
0010
0100
0001
0020
0000
,
0130
1000
0100
1000
0001
0100
0020
0000
,
1030
0000
1000
0000
0001
0010
0001
0000
,
1000
1000
0001
0001
0100
0001
0010
0000
,
0100
1000
0100
0010
0001
1000
0001
0100
,
0010
1000
0010
0100
0001
1000
0100
0000
,
0010
0001
0010
0001
1000
0010
0200
0000
,
0301
1000
0001
0000
1000
0000
0010
0000
0100
0000
0001
0000
2000
0000
0000
0000
,
3001
0000
1000
0001
1000
0000
0100
0000
0020
0000
0000
0000
0031
1000
0000
0000
,
0001
0000
0100
0000
0010
0100
0010
0000
1000
0000
0001
0000
0010
0100
0000
0000
,
1100
0000
0000
1000
1001
0000
1001
0000
,
0001
0001
0001
0100
,
0110
0010
1000
0001
2000
0000
3200
0000
,
0310
0001
0010
0100
1000
0001
0200
0000
,
0310
1000
0010
1000
0001
0010
0100
0010
,
0001
1000
0001
0100
0010
1000
0200
0000
,
1300
0001
0100
0001
1000
0100
0010
0000
,
0001
1000
0001
0000
0100
0000
0010
0000
1000
0000
0001
0000
0100
0000
0000
0000
,
0010
0000
0000
0000
1000
0000
0000
0000
0010
0000
0000
0000
0100
0000
0000
0000
0000
0000
0000
0000
0000
0000
0000
0000
0001
0000
0000
1000
0000
0000
0000
0000
0000
0000
0000
0000
0100
0000
0000
1000
0000
0000
0000
0000
0000
0000
0000
0000
,
000M
0000
00M0
0000
000M
0000
M000
0000
0000
M000
0000
0000
0000
0000
0000
0001
0000
0000
1000
0000
0000
0001
0000
0000
,
0100
0000
0100
0001
0020
0130
0000
0100
,
1000
0000
1000
0001
0101
0000
1100
1000
,
0100
0000
0100
0010
0001
0100
0000
0100
,
0001
0000
0001
1000
1010
0000
0001
0001
,
0020
0130
0020
0130
1000
0001
0100
0001
,
1000
0100
0010
0100
1000
0001
1000
0010
,
0100
0001
0010
0100
1000
0010
1000
0100
,
012M
M000
003M
0000
M000
0000
0M00
0000
,
1001
0000
0011
0000
0010
0000
1000
0010
,
0001
0010
1000
0010
0001
0100
1000
0100
,
0001
0000
1100
0000
0100
0000
0001
0100
,
1000
0100
0001
0100
1000
0001
0200
0310
,
1010
0000
0001
0001
0010
0010
0200
0000
,
1300
0001
1000
0000
0010
0000
0010
0000
0200
0000
0000
0000
0301
1000
0001
0000
,
0010
0000
0000
0000
0100
1000
0100
0000
1000
0000
1000
0000
0002
0000
0000
0000
,
0103
0000
0010
0000
1000
1000
0002
0000
,
1003
0000
0101
0000
0100
0000
1000
0100
,
0001
0100
1000
0100
0001
0010
1000
0010
,
0001
0000
0011
0000
0010
0000
1000
0010
,
0001
0010
1000
0010
0001
0010
0100
0100
,
1000
0000
0001
0001
0100
0100
0020
0000
,
1030
0001
1000
0000
0001
0000
0001
0000
0020
0000
0000
0000
0130
1000
0100
0000
,
1000
0000
0000
0000
0010
1000
0010
0000
0100
0000
0100
0000
0002
0000
0000
0000
,
2003
0000
3100
0000
0011
0001
M200
0300
;

//---------------dance-single - Tony S.----------------
#NOTEDATA:;
#CHARTNAME:;
#STEPSTYPE:dance-single;
#DESCRIPTION:Tony S.;
#CHARTSTYLE:;
#DIFFICULTY:Challenge;
#METER:12;
#RADARVALUES:0.801987,1.085714,0.565918,0.347096,0.652692,744.000000,667.000000,75.000000,46.000000,13.000000,5.000000,3.000000,0.000000,0.000000,0.801987,1.085714,0.565918,0.347096,0.652692,744.000000,667.000000,75.000000,46.000000,13.000000,5.000000,3.000000,0.000000,0.000000;
#CREDIT:Tony S.;
#NOTES:
0000
0000
0000
0000
,
0000
0000
0000
0000
,
0000
0000
0000
0000
,
0000
0000
0000
0000
,
0000
0000
0000
0000
,
0000
0000
0000
0000
,
0000
0000
0000
0000
,
0000
0000
0000
0000
0000
1000
0001
1000
,
0020
0000
0130
0100
0001
0001
0000
1000
,
0200
0000
1300
1000
0010
0010
0000
0100
,
0002
0000
1003
1000
0100
0100
0000
1000
,
0020
0000
0130
0100
0001
0001
1000
0100
,
1000
0010
0100
0010
1000
0001
0010
0001
,
0100
0010
0100
0001
1000
0100
1000
0010
,
0100
0001
1000
0100
0010
0001
0100
0010
1000
0001
0010
0100
1000
0001
0100
0010
,
1000
0001
0010
0000
0100
0000
1000
0000
,
1001
0000
0001
1000
0011
0000
1000
0001
1010
0001
0000
0100
000M
0100
1000
0000
,
0002
0003
0000
0000
M1M0
0100
0100
0100
1010
0100
0100
0100
0100
0100
0100
0100
,
1000
0100
0100
0100
0100
0100
0100
0100
1010
0100
0100
0100
0100
0100
0100
0100
,
2000
3000
0002
0003
0100
0000
0000
0000
0110
0000
0010
0000
1010
0000
0000
0000
,
1001
0000
1000
0001
1010
0000
0001
1000
0011
1000
0000
0100
M000
0100
0001
0000
,
2000
3000
0000
0000
M1M0
0100
0100
0100
0011
0100
0100
0100
0100
0100
0100
0100
,
0001
0100
0100
0100
0100
0100
0100
0100
0011
0100
0100
0100
0100
0100
0100
0100
,
0002
0003
1001
0000
0101
0100
0004
0000
,
1013
0000
0001
1000
0011
0000
1000
0001
1010
0001
0000
0100
000M
0100
1000
0000
,
0002
0003
0000
0000
M1M0
0100
0100
0100
1010
0100
0100
0100
0100
0100
0100
0100
,
1000
0100
0100
0100
0100
0100
0100
0100
1010
0100
0100
0100
0100
0100
0100
0100
,
2000
3000
0002
0003
0100
0000
0000
0000
0110
0000
0010
0000
1010
0000
0000
0000
,
1001
0000
1000
0001
1010
0000
0001
1000
0011
1000
0000
0100
M000
0100
0001
0000
,
2000
3000
0000
0000
M1M0
0100
0100
0100
0011
0100
0100
0100
0100
0100
0100
0100
,
0001
0100
0100
0100
0100
0100
0100
0100
0011
0100
0100
0100
0100
0100
0100
0100
,
0002
0003
2000
3000
0100
0000
0000
0000
1100
0000
1000
0000
1001
0000
0000
0000
,
0001
0001
0100
0010
1000
1000
0100
0000
,
1000
0010
0100
0100
0001
0010
0100
0000
,
1000
0001
0010
0001
0100
0100
0010
1000
,
0001
1000
0100
0010
0001
0001
1000
0000
,
1010
0000
0010
0000
0100
0000
0100
0000
0001
0000
0010
0000
2000
3000
0000
0000
,
0010
0000
0010
0000
0001
0000
1000
0000
0010
0000
0100
0000
2000
3000
0000
0000
,
0200
0000
0000
0300
0002
0000
0000
0003
1000
0000
1000
0000
0200
0000
0000
0300
,
1010
0001
1100
0001
1010
0001
1000
0000
,
1011
0001
1000
0100
1100
1000
0001
0100
,
0010
0010
1000
0001
0101
0100
0010
0000
,
1000
1000
0001
0010
0011
0001
0200
0300
,
0010
1000
0001
0000
0010
0100
1000
0000
1001
0000
0001
0000
0200
0000
0300
0000
,
0110
0000
0010
1000
0001
0000
0010
0000
0012
0000
0000
0000
1003
0010
0000
0000
,
0100
0000
0100
0000
0010
1000
0001
0000
1001
0000
1000
0000
0100
1000
0000
0000
,
1100
1000
0001
0101
1001
0000
1010
0000
,
0020
0230
0320
0230
0320
0230
0301
0000
,
1101
1000
0100
0100
1010
0000
0001
0000
,
1000
1000
0001
0001
1100
0010
1000
0000
,
0001
0010
0100
0100
1000
1000
0001
0100
,
0010
0010
1000
1000
0101
1000
0001
0000
,
0101
0100
0010
0010
1100
0001
0010
00M0
,
1000
0000
0100
0000
0010
0000
0001
0000
0000
0100
0000
0000
0010
0000
0000
0010
0000
0000
1000
0000
0000
0000
0000
0000
,
0001
0000
0000
0000
0010
0000
0000
0000
0001
0000
0000
0000
2000
0000
0000
0000
0000
0000
0000
0000
0000
0000
0000
0000
3010
0000
0000
0100
0000
0000
0000
0000
0000
0000
0000
0000
0001
0000
0000
1000
0000
0000
0000
0000
0000
0000
0000
0000
,
0100
0000
0010
0000
0001
0000
1000
0000
0000
1000
0000
0000
0010
0000
0000
0010
0000
0000
0100
0000
0000
0100
0000
0000
,
0102
0000
1003
1000
0100
0100
0000
1000
,
0020
0000
0130
0100
0001
0001
0000
0010
,
0002
0000
0103
0100
0010
0010
0000
1000
,
0200
0000
1300
1000
0001
0001
0100
0010
,
1000
0100
1000
0010
0100
0001
0100
0010
,
1000
0001
0010
0001
0100
0010
1000
0001
,
0010
0001
1000
0010
0100
0001
1000
0100
0010
0001
0100
0010
1000
0001
0010
0100
,
1000
1000
0001
0000
0100
0000
0040
0000
,
1130
0000
0001
1000
0011
0000
1000
0001
1010
0100
0100
0100
0100
0100
0100
0100
,
0100
0100
0100
0100
1000
0100
0100
0100
1010
0100
0100
0100
0100
0100
0100
0100
,
1010
0000
0001
1000
0011
0000
1000
0001
1010
0100
0100
0100
0100
0100
0100
0100
,
0100
0100
0100
0100
1000
0100
0100
0100
1010
0100
0100
0100
2000
3000
0002
0003
,
0101
0000
0000
0000
0100
0100
1000
0000
0001
0000
0001
0000
0002
0000
0000
0000
,
0103
0100
1000
0000
0100
0100
0001
0000
2000
0000
0000
0000
3100
0100
0001
0000
,
1010
0100
1000
0001
0100
0100
2000
0000
3100
0100
0001
0000
0002
0000
0000
0000
,
1003
0000
1010
0000
1001
0001
4000
0000
,
3101
0000
1000
0001
1010
0000
0001
1000
0011
0100
0100
0100
0100
0100
0100
0100
,
0100
0100
0100
0100
0001
0100
0100
0100
0011
0100
0100
0100
0100
0100
0100
0100
,
0011
0000
1000
0001
1010
0000
0001
1000
0011
0100
0100
0100
0100
0100
0100
0100
,
0100
0100
0100
0100
0001
0100
0100
0100
0011
0100
0100
0100
0002
0003
2000
3000
,
1100
0000
0000
0000
0100
0100
0001
0000
1000
0000
1000
0000
2000
0000
0000
0000
,
3100
0100
0001
0000
0100
0100
1000
0000
0002
0000
0000
0000
0103
0100
1000
0000
,
1010
0000
0010
1000
0100
0100
0001
0000
0100
0100
1000
0000
2000
0000
0000
0000
,
3001
0000
0000
0000
0101
0000
0000
0000
0110
0000
0010
0000
2000
0000
0000
3000
;
