#TITLE:HAPPEE;
#SUBTITLE:(feat. RUNN);
#ARTIST:Party Favor;
#TITLETRANSLIT:;
#SUBTITLETRANSLIT:;
#ARTISTTRANSLIT:;
#GENRE:;
#CREDIT:;
#BANNER:happee-bn.png;
#BACKGROUND:happee-bg.png;
#LYRICSPATH:;
#CDTITLE:feraligatr-maxx-cdtitle.png;
#MUSIC:HAPPEE.ogg;
#OFFSET:0.008001;
#SAMPLESTART:29.535999;
#SAMPLELENGTH:17.455000;
#SELECTABLE:YES;
#DISPLAYBPM:130.000000;
#BPMS:0.000000=130.000000
;
#STOPS:
;
#BGCHANGES:;
#KEYSOUNDS:;
#ATTACKS:;

//---------------dance-single - Feraligatr & Maxx----------------
#NOTES:
     dance-single:
     Feraligatr & Maxx:
     Challenge:
     11:
     0.734990,0.937613,0.782609,0.398551,0.572464,710.000000,595.000000,108.000000,55.000000,7.000000,11.000000,0.734990,0.937613,0.782609,0.398551,0.572464,710.000000,595.000000,108.000000,55.000000,7.000000,11.000000:
0000
0000
0000
0000
,
0000
0000
0000
0000
,
0000
0000
0000
0000
,
0000
0000
0000
0000
,
0000
0000
0000
0000
,
0000
0000
0000
0000
,
0000
0000
0000
0000
,
0000
0000
0000
0000
,
1000
0000
0002
0000
0000
0013
0100
1000
,
0001
0000
0200
0000
0000
0310
1000
0001
,
0020
0000
0230
0300
1000
0000
0001
1000
,
0020
0230
0302
0023
,
0031
1000
0100
0010
0001
1000
0010
0100
,
0001
0010
0100
1000
0001
0100
0010
1000
,
0001
1000
0001
0010
0100
1000
0001
0100
0010
1000
0001
1000
0100
0010
0001
1000
,
0020
0000
0000
0000
0230
0000
0000
0000
0302
0000
0000
0000
2003
0000
0000
3000
,
1011
1000
0000
0010
1110
0001
0000
1000
,
1101
0001
0000
1000
0111
0001
0001
1000
,
0101
1010
0000
1010
0001
0000
1100
0010
0010
0001
1000
0001
0100
0000
0010
0000
,
1100
0011
0000
0011
1000
0000
0101
1000
0100
0010
1000
0010
0001
0000
0100
0000
,
0011
1100
0000
1100
0001
0000
1010
0100
0100
0001
1000
0001
0010
0000
0200
0000
,
0301
0100
1000
0010
0100
0001
0010
0001
0100
0010
0001
0010
1000
0100
0010
0001
,
1100
0011
0000
0011
1000
0000
0101
0010
0010
1000
0001
1000
0100
0000
0010
0000
,
0101
1010
0000
1010
0001
0000
1100
0001
0100
0010
0001
0010
1000
0000
0100
0000
,
1010
0101
0000
0101
1000
0000
0011
0100
0100
1000
0001
1000
0010
0000
0100
0000
,
0001
0000
1000
0001
0010
0000
0001
0000
0100
0000
0100
0000
0100
0000
0010
0000
,
1100
0011
0000
0011
1000
0000
0101
0010
0010
0100
0001
1000
0100
0000
0010
0000
,
0101
1000
0001
1100
0010
0000
1100
0001
0100
0010
0001
0010
1000
0000
0100
0000
,
1010
0101
0000
0101
1000
0000
0011
0100
0100
0010
0001
1000
0010
0000
0200
0000
,
1300
0100
0001
0010
0100
1000
0010
1000
0100
0010
1000
0010
0001
0100
0010
1000
,
0101
1010
0000
1010
0001
0000
1100
0010
0010
0100
1000
0001
0100
0000
0010
0000
,
1100
0001
1000
0101
0010
0000
0101
1000
0100
0010
1000
0010
0001
0000
0100
0000
,
0011
1100
0000
1100
0001
0000
1010
0100
0100
0010
1000
0001
0010
0000
0100
0000
,
1000
0000
0000
0000
0001
0000
0000
0000
0100
0000
0000
0000
0010
0000
1000
0001
,
0100
0001
1000
0100
0010
0001
2000
0010
,
3001
0000
0000
0000
1000
0000
0000
0000
0010
0000
0000
0000
0100
0000
0000
0000
0001
0000
0000
0000
1000
0000
0000
0000
0100
0000
0000
0000
0010
0M00
0010
0000
,
1000
0100
0010
0001
1000
0010
0200
0001
,
0310
0000
1000
0000
0001
0000
0010
0000
0100
0000
1000
0000
0001
1100
0011
1100
,
0011
1000
1000
0101
0010
0101
2000
0010
,
3001
0000
0000
0000
1000
0000
0000
0000
0010
0000
0000
0000
1100
0000
0000
0000
0001
0000
0000
0000
1100
0000
0000
0000
0010
0000
0000
0000
0100
00M0
0100
0000
,
1010
0001
0001
1100
0010
1100
0002
0010
,
1003
0000
0100
0000
0010
0000
0001
0000
1000
0000
1000
0000
0001
0000
1000
0001
,
1100
0000
0001
0000
1000
0000
0101
0000
1000
0000
0101
0000
0010
0000
0001
1000
,
0200
0000
0000
0000
0000
0000
0320
0000
0000
0000
0000
0000
0131
0000
0000
0000
2000
0000
0000
0000
3101
0000
2000
0000
0000
0000
0000
0000
3100
00M0
0100
0000
,
0011
0000
1000
0000
1000
0000
0011
0000
0100
0000
0011
0000
1000
0000
0001
1000
,
0200
0000
0000
0000
0000
0000
0000
0000
0000
0320
0000
0000
0000
0000
0000
0000
0000
0000
0131
0000
0000
0000
0000
0000
2000
0000
0000
0000
0000
0000
3001
0000
0000
0000
0000
0000
1000
0000
0001
0000
1000
0000
0010
0000
0100
0000
0001
0000
,
1000
0000
0000
0000
0001
0000
0000
0000
0001
0000
0000
0000
1010
0000
0000
0000
0100
0000
0000
0000
1010
0000
0000
0000
0001
0000
0000
0000
0100
00M0
0100
0000
,
2000
0000
0000
3020
0000
0000
1130
0000
0002
0000
0000
0023
0000
0031
1000
0001
,
1100
0000
0000
0000
0001
0000
0000
0000
1000
0000
0000
0000
0101
0000
0000
0000
0010
0000
0000
0000
0101
0000
0000
0000
2000
0000
3000
0000
0010
0M00
0010
0000
,
0001
0100
0001
1000
0200
0000
0320
0000
,
0031
0100
0010
1000
0200
0000
0310
0001
,
0100
0001
0010
0100
2000
0000
3001
0000
,
1000
0010
0100
0001
0020
0000
0130
1000
,
0010
1000
0100
0010
0002
0000
1003
0000
,
0001
0000
0100
0010
2000
0000
3001
0010
,
0200
0000
2300
0000
3001
0100
0010
1000
,
0001
0010
0001
0010
0100
1000
0100
1000
,
0002
0000
0000
0000
0203
0000
0000
0000
0320
0000
0000
0000
2030
0000
0000
3000
,
1011
0000
0000
0000
0000
0000
0011
0000
1000
0000
0000
0000
0010
0M00
0010
0000
0001
0000
0000
0000
0100
0000
0000
0000
0111
0000
0000
0000
1000
0000
0000
0000
,
0000
0000
0000
0000
0011
0000
0011
1000
0010
0000
0001
0010
0000
0000
1000
0000
,
1101
0000
0000
0000
0000
0000
1000
0000
0001
0000
0000
0000
0010
0M00
0010
0000
1000
0000
0000
0000
0100
0000
0000
0000
1100
0000
0000
0000
0200
0000
0000
0000
,
0301
0100
1000
0001
0100
0010
0001
0010
1000
0001
0010
0100
1000
0010
0100
0001
,
1010
0101
0000
0101
1000
0000
0011
0100
0100
1000
0001
1000
0010
0000
0100
0000
,
0011
1100
0000
1100
0001
0000
1010
0001
0010
0100
0001
0100
1000
0000
0010
0000
,
1100
0011
0000
0011
1000
0000
0101
0010
0010
1000
0001
1000
0100
0000
0010
0000
,
0101
1010
0000
1010
0000
1010
0101
0000
1000
0000
1000
0000
1000
0000
0010
0000
,
1200
0000
0000
1000
0001
0000
1000
0000
0010
0000
0000
0000
1000
0000
0010
0000
,
0000
0000
0310
1000
0201
0000
1000
0000
0310
0001
1000
0000
0000
0000
0001
0010
,
0201
0000
0000
0001
1000
0000
0001
0000
0010
0000
0000
0000
0001
0000
0010
0000
,
0000
0000
1300
0000
0102
0000
0010
0000
2003
0000
0000
0000
3010
0000
1000
0001
,
1200
0000
0000
1000
0001
0000
1000
0000
0010
0000
0000
0000
1000
0000
0001
0000
,
0000
0000
0301
1000
0201
0000
0010
0000
1300
0001
0100
0000
0000
0000
0001
0100
,
0021
0000
0000
0001
1000
0000
0001
0000
0100
0000
0000
0000
0001
0000
1000
0000
,
0000
0000
1030
0000
0102
0000
0010
0000
2003
0000
0000
0000
3200
0000
0310
0001
;

//---------------dance-single - ----------------
#NOTES:
     dance-single:
     :
     Beginner:
     1:
     0.102484,0.134058,0.014493,0.057971,0.000000,99.000000,97.000000,2.000000,8.000000,0.000000,0.000000,0.102484,0.134058,0.014493,0.057971,0.000000,99.000000,97.000000,2.000000,8.000000,0.000000,0.000000:
// measure 0
0000
0000
0000
0000
,  // measure 1
0000
0000
0000
0000
,  // measure 2
0000
0000
0000
0000
,  // measure 3
0000
0000
0000
0000
,  // measure 4
0000
0000
0000
0000
,  // measure 5
0000
0000
0000
0000
,  // measure 6
0000
0000
0000
0000
,  // measure 7
0000
0000
0000
0000
,  // measure 8
1000
0000
0001
0000
,  // measure 9
1000
0000
0001
0000
,  // measure 10
0100
0000
0010
0000
,  // measure 11
0100
0000
0010
0000
,  // measure 12
1000
0000
0001
0000
,  // measure 13
1000
0000
0001
0000
,  // measure 14
0010
0000
0100
0000
,  // measure 15
1000
0000
0000
0000
,  // measure 16
1001
0000
0000
0000
,  // measure 17
0110
0000
0000
0000
,  // measure 18
1000
0000
1000
0000
,  // measure 19
0001
0000
0001
0000
,  // measure 20
0010
0000
0010
0000
,  // measure 21
0200
0000
0000
0000
,  // measure 22
1300
0000
1000
0000
,  // measure 23
0001
0000
0001
0000
,  // measure 24
0100
0000
0100
0000
,  // measure 25
0020
0000
0000
0000
,  // measure 26
1030
0000
1000
0000
,  // measure 27
0001
0000
0001
0000
,  // measure 28
0010
0000
0010
0000
,  // measure 29
0200
0000
0000
0000
,  // measure 30
1300
0000
1000
0000
,  // measure 31
0001
0000
0001
0000
,  // measure 32
0100
0000
0100
0000
,  // measure 33
0001
0000
0000
0000
,  // measure 34
1000
0000
0000
0000
,  // measure 35
0001
0000
0000
0000
,  // measure 36
1000
0000
0000
0000
,  // measure 37
0001
0000
0000
0000
,  // measure 38
0100
0000
0000
0000
,  // measure 39
0010
0000
0000
0000
,  // measure 40
0100
0000
0000
0000
,  // measure 41
0010
0000
0000
0000
,  // measure 42
1000
0000
0000
0000
,  // measure 43
1000
0000
0000
0000
,  // measure 44
0001
0000
0000
0000
,  // measure 45
0001
0000
0000
0000
,  // measure 46
0010
0000
0000
0000
,  // measure 47
0010
0000
0000
0000
,  // measure 48
0100
0000
0000
0000
,  // measure 49
0100
0000
0000
0000
,  // measure 50
2000
0000
0000
0000
,  // measure 51
0000
0000
0000
0000
,  // measure 52
3002
0000
0000
0000
,  // measure 53
0000
0000
0000
0000
,  // measure 54
0203
0000
0000
0000
,  // measure 55
0000
0000
0000
0000
,  // measure 56
0320
0000
0000
0000
,  // measure 57
0030
0000
0000
0000
,  // measure 58
1000
0000
1000
0000
,  // measure 59
0001
0000
0001
0000
,  // measure 60
1000
0000
1000
0000
,  // measure 61
0001
0000
0001
0000
,  // measure 62
0010
0000
0100
0000
,  // measure 63
0010
0000
0100
0000
,  // measure 64
1000
0000
0001
0000
,  // measure 65
1000
0000
0001
0000
,  // measure 66
0100
0000
0010
0000
,  // measure 67
1000
0000
0001
0000
,  // measure 68
1000
0000
0001
0000
,  // measure 69
0010
0000
0001
0000
,  // measure 70
1000
0000
0001
0000
,  // measure 71
0100
0000
0010
0000
,  // measure 72
1000
0000
0001
0000
,  // measure 73
0010
0000
0200
0000
,  // measure 74
0300
0000
0000
0000
;

//---------------dance-single - ----------------
#NOTES:
     dance-single:
     :
     Easy:
     3:
     0.226708,0.294928,0.065217,0.036232,0.000000,219.000000,210.000000,9.000000,5.000000,0.000000,0.000000,0.226708,0.294928,0.065217,0.036232,0.000000,219.000000,210.000000,9.000000,5.000000,0.000000,0.000000:
0000
0000
0000
0000
,
0000
0000
0000
0000
,
0000
0000
0000
0000
,
0000
0000
0000
0000
,
0000
0000
0000
0000
,
0000
0000
0000
0000
,
0000
0000
0000
0000
,
0000
0000
0000
0000
,
1000
0001
1000
0001
,
0100
0010
0100
0010
,
1000
0001
1000
0001
,
0010
0100
0010
0100
,
1000
0001
1000
0001
,
0100
0010
0100
0010
,
1000
0001
1000
0001
,
1000
0000
0000
0000
,
0011
0000
1100
0000
,
0101
0000
1010
0000
,
1001
1000
0001
1000
,
0100
0010
0100
0010
,
0001
1000
0001
1000
,
0010
0100
0001
1000
,
0100
0010
0100
0010
,
0001
1000
0001
1000
,
0010
0100
0010
0100
,
0001
1000
0100
0000
,
1000
0001
0100
0001
,
1000
0100
1000
0001
,
0100
0010
1000
0001
,
0010
0100
1000
0001
,
0100
0001
1000
0001
,
1000
0100
1000
0001
,
0100
0010
1000
0001
,
1000
0000
0000
0000
,
1001
0000
0001
0000
,
0100
0000
0001
0000
,
1000
0000
0100
0000
,
1000
0000
0001
0000
,
0010
0000
0001
0000
,
1000
0000
0010
0000
,
1000
0000
0001
0000
,
0010
0000
0100
0000
,
1000
0001
1000
0001
,
0100
0000
0100
0000
,
0001
1000
0001
1000
,
0100
0000
0100
0000
,
1000
0001
1000
0001
,
0010
0000
0010
0000
,
0001
1000
0001
1000
,
0010
0000
1000
0001
,
0100
0001
0100
0010
,
1000
0010
1000
0000
,
0001
0010
0001
0010
,
0100
1000
0100
1000
,
0001
0100
0001
1000
,
0100
0010
0001
1000
,
0002
0000
2003
0000
,
3001
0000
0000
0000
,
0101
0001
1000
0100
,
0010
0100
1000
0001
,
1001
0001
0100
0010
,
1000
0001
0010
0100
,
1100
1000
0100
1000
,
0001
0100
0001
0100
,
0010
1000
0010
1000
,
0001
0010
0100
1000
,
0001
0000
0100
0000
,
0010
0000
2000
0000
,
3001
0000
0010
0000
,
0100
0000
2000
0000
,
3001
0000
0100
0000
,
0010
0000
2000
0000
,
3100
0000
0010
0000
,
0001
0000
1000
0001
,
1000
0000
0000
0000
;

//---------------dance-single - ----------------
#NOTES:
     dance-single:
     :
     Medium:
     6:
     0.321946,0.402174,0.036232,0.021739,0.021739,311.000000,306.000000,5.000000,3.000000,0.000000,0.000000,0.321946,0.402174,0.036232,0.021739,0.021739,311.000000,306.000000,5.000000,3.000000,0.000000,0.000000:
0000
0000
0000
0000
,
0000
0000
0000
0000
,
0000
0000
0000
0000
,
0000
0000
0000
0000
,
0000
0000
0000
0000
,
0000
0000
0000
0000
,
0000
0000
0000
0000
,
0000
0000
0000
0000
,
1000
0000
0001
0000
0100
0010
1000
0000
,
0001
0000
1000
0000
0001
0010
0100
0000
,
1000
0000
0001
0000
1000
0010
0100
0000
,
0001
0000
1000
0000
0001
0010
0100
0000
,
1000
0000
0001
0000
1000
0001
1000
0000
,
0010
0000
0100
0000
0010
0100
0010
0000
,
1000
0001
0010
0100
,
1000
0000
0000
0000
,
1001
0000
1010
0000
,
1001
0000
0011
0000
,
0001
0000
1000
0000
0001
0100
0010
0000
,
1000
0000
0001
0000
1000
0100
0010
0000
,
0001
0000
1000
0000
0010
0100
0010
0000
,
1000
0100
1000
0100
0010
0001
0010
0001
,
1000
0000
0010
0000
0100
0001
1000
0000
,
0001
0000
0010
0000
0100
1000
0001
0000
,
0100
0000
0010
0000
1000
0001
1000
0000
,
0100
0000
0010
0000
0001
1000
0001
0000
,
1000
0000
0010
0000
0100
0001
1000
0000
,
0001
0000
0010
0000
0100
1000
0001
0000
,
0100
0000
0010
0000
1000
0001
1000
0000
,
0001
0010
0001
0010
0100
1000
0100
1000
,
0001
0000
0100
0000
0010
1000
0001
0000
,
1000
0000
0100
0000
0010
0001
1000
0000
,
0001
0000
0100
0000
0010
1000
0001
0000
,
2000
0000
3002
0000
,
1003
0000
0100
0000
0010
0001
1000
0000
,
0001
0000
0100
0000
0010
1000
0001
0010
,
0100
0000
1000
0000
0001
0100
0010
0000
,
1000
0000
0001
0000
0100
0010
1000
0001
,
0010
0000
0100
0000
1000
0010
1000
0000
,
0001
0000
0100
0000
0001
1000
0001
1000
,
0100
0000
0010
0000
0001
1000
0001
0000
,
0100
0000
0010
0000
1000
0001
1000
0001
,
0100
0000
0010
0000
,
1000
0000
0000
0001
0000
0000
0010
0000
0100
0000
0000
1000
0000
0000
0001
0000
,
0000
0000
1000
0000
,
0010
0000
0000
0100
0000
0000
0001
0000
1000
0000
0000
0100
0000
0000
0010
0000
,
0000
0000
0001
0000
,
1000
0000
0000
0010
0000
0000
1000
0000
0001
0000
0000
0100
0000
0000
0001
0000
,
0000
0000
1000
0000
,
0100
0000
0010
0001
,
1000
0001
1000
0000
0001
0000
0100
0000
,
0001
0100
0010
0000
1000
0000
0000
0000
,
0010
1000
0001
0000
1000
0000
0001
0000
,
1000
0100
0010
0000
0001
0000
0000
0000
,
1000
0100
0010
0001
,
1000
0010
0100
0001
,
1000
0001
1000
0001
0100
0010
0100
0010
,
1000
1000
0001
0001
,
0110
0000
1000
0000
0100
0000
1000
0001
,
0000
0000
0100
0010
0000
1000
0000
0001
,
1000
0000
0100
0000
0010
0000
0001
1000
,
0010
0100
0010
0100
0001
1000
0001
1000
,
0100
0000
1000
0000
0001
0100
0010
0000
,
1000
0000
0001
0000
1000
0100
0010
0000
,
0001
0000
1000
0000
0010
0100
0001
0000
,
1000
0001
0010
0100
,
1000
0001
0100
0010
,
1000
0000
0001
0000
1000
0001
1000
0000
,
0100
0010
0001
1000
,
0010
0100
0002
0000
,
1003
0100
0010
0001
,
1000
0000
0010
0000
0100
0001
1000
0000
,
0100
0010
0001
1000
,
0010
0000
0100
0000
0001
0000
1000
0001
,
1000
0000
0000
0000
;

//---------------dance-single - Maxx----------------
#NOTES:
     dance-single:
     :
     Hard:
     9:
     0.560041,0.669724,0.152174,0.391304,0.329710,541.000000,520.000000,21.000000,54.000000,0.000000,0.000000,0.560041,0.669724,0.152174,0.391304,0.329710,541.000000,520.000000,21.000000,54.000000,0.000000,0.000000:
0000
0000
0000
0000
,
0000
0000
0000
0000
,
0000
0000
0000
0000
,
0000
0000
0000
0000
,
0000
0000
0000
0000
,
0000
0000
0000
0000
,
0000
0000
0000
0000
,
0000
0000
0000
0000
,
1000
0000
0002
0000
0000
0013
0100
2000
,
3001
0000
0200
0000
0000
0310
1000
0001
,
0020
0000
0230
0300
1000
0000
0001
1000
,
0020
0230
0302
0023
,
0031
1000
0010
0100
0001
0010
0100
1000
,
0001
1000
0100
0010
0001
0100
0010
1000
,
0001
0010
0100
1000
0010
0100
0001
1000
0001
0010
0100
1000
0001
0010
0001
1000
,
0020
0000
0000
0000
0230
0000
0000
0000
0302
0000
0000
0000
2003
0000
0000
3000
,
1001
1000
0000
0010
1010
0010
0000
1000
,
1001
0001
0000
0001
0011
0001
0001
1000
,
0001
1000
0000
1000
0001
0000
1000
0000
0010
0100
0010
0000
1000
0000
0001
0000
,
1000
0001
0000
0001
1000
0000
0400
0000
0000
0000
0320
0000
0000
0000
0031
0000
,
1000
0001
0000
0001
1000
0000
0001
0000
0100
0010
0100
0000
0001
0000
1000
0000
,
0001
1000
0001
0000
1000
0000
0100
0000
0010
0001
0010
0000
0100
0000
1000
0000
,
0001
1000
0000
1000
0001
0000
0100
0000
0010
0100
0010
0000
1000
0000
0001
0000
,
1000
0001
0000
0001
1000
0000
0040
0000
0000
0000
0230
0000
0000
0000
0301
0000
,
1000
0001
0000
0001
1000
0000
0001
0000
0100
0010
0100
0000
0001
0000
1000
0000
,
0100
0000
1000
0001
1000
0000
0010
0000
0100
0000
0100
0000
0100
0000
0001
0000
,
1000
0010
0000
0010
1000
0000
0001
0000
1000
0100
1000
0000
0001
0000
0100
0000
,
0001
0100
0000
0100
0001
0000
4000
0000
0000
0000
3002
0000
0000
0000
0013
0000
,
0100
1000
0000
1000
0100
0000
0010
0000
0001
0100
0001
0000
1000
0000
0100
0000
,
0010
0001
0010
0000
0100
0000
1000
0000
0001
1000
0001
0000
0100
0000
0010
0000
,
1000
0001
0000
0001
1000
0000
0001
0000
0010
0100
0010
0000
0001
0000
1000
0000
,
0001
1000
0000
1000
0001
0000
0400
0000
0000
0000
0320
0000
0000
0000
1030
0000
,
0001
1000
0000
1000
0001
0000
1000
0000
0100
0010
0100
0000
1000
0000
0001
0000
,
0100
0000
0000
0000
0001
0000
0000
0000
0010
0000
0000
0000
0100
0000
1000
0001
,
1000
0001
1000
0001
0010
0100
2000
0001
,
3100
0000
1000
0000
0010
0000
1000
0000
0100
0000
0010
0000
0001
0000
1000
1000
,
0010
0100
0010
1000
0100
0010
0002
0010
,
1003
0000
0001
0000
0100
0000
0001
0000
0010
0000
0100
0000
1000
0001
1000
0001
,
0100
0001
0010
0101
0010
0101
2000
0010
,
3001
0000
1000
0000
0010
0000
1100
0000
0001
0000
1100
0000
0010
0000
1000
1000
,
0001
0010
0100
1010
0001
1010
0002
0010
,
1003
0000
0001
0000
0100
0000
0001
0000
0010
0000
0010
0000
0100
0000
1000
0001
,
1000
0000
0001
0000
0100
0000
0011
0000
1000
0000
0011
0000
0100
0000
0001
1000
,
0200
0000
0000
0320
0000
0000
0031
0000
2000
0000
3001
2000
0000
0000
3001
0001
,
0100
0000
0010
0000
1000
0000
0001
0000
0010
0000
0100
0000
1000
0000
0001
1000
,
0020
0000
0000
0230
0000
0000
0301
0000
2000
0000
0000
3002
0000
0000
0013
0000
,
0100
0000
1000
0000
0001
0000
0100
0000
0010
0000
1000
0000
0001
0000
1000
1000
,
0002
0000
0000
0000
0203
0000
0301
0000
2000
0000
0000
3002
0000
0000
0013
0000
,
0100
0000
1000
0000
0001
0000
0100
0000
0010
0000
1000
0000
0001
0000
1000
1000
,
0001
0010
0100
1000
0002
0000
2003
0000
,
3001
0100
0010
1000
0200
0000
0310
0001
,
0100
0001
0010
0100
2000
0000
3001
0000
,
1000
0010
0100
0001
0020
0000
0130
1000
,
0010
1000
0100
0010
0002
0000
1003
0000
,
0001
0000
0100
0010
2000
0000
3001
0010
,
0200
2300
0001
3010
,
1000
0100
1000
0100
0010
0001
0010
0001
,
2000
0000
0000
0000
3020
0000
0000
0000
0230
0000
0000
0000
0302
0000
0000
0003
,
0101
0000
0000
0001
1000
0000
0001
1000
0001
0000
1000
0000
1100
0000
1000
0000
,
0000
0000
0000
0000
0011
0000
0011
0000
0001
0000
1000
0001
0000
0000
1000
0000
,
1010
0000
0000
1000
0001
0000
1000
0001
1000
0000
0001
0000
1001
0000
1000
0000
,
0001
0100
0001
0000
1000
0000
0001
0000
0010
0100
0010
0000
0001
0000
1000
0000
,
0001
1000
0000
1000
0001
0000
1000
0000
0010
0100
0010
0000
1000
0000
0001
0000
,
1000
0001
0000
0001
1000
0000
0004
0000
0000
0000
0023
0000
0000
0000
0130
0000
,
1000
0001
0000
0001
1000
0000
0001
0000
0100
0010
0100
0000
0001
0000
1000
0000
,
0001
1000
0000
1000
0000
1000
0001
0000
0010
0000
0010
0000
0010
0000
0100
0000
,
1200
0000
0000
1300
0001
0000
1000
0000
0010
0000
0000
0000
1000
0000
0010
0000
,
0000
0000
0010
1000
0001
0000
1000
0000
0001
0010
0100
0000
0000
0000
1000
0001
,
0200
0000
0000
0301
1000
0000
0001
0000
0010
0000
0000
0000
0001
0000
0010
0000
,
0000
0000
0001
0000
1001
0000
1000
0000
0200
0000
0000
0000
0310
0000
0001
1000
,
0020
0000
0000
1030
0001
0000
1000
0000
0100
0000
0000
0000
1000
0000
0100
0000
,
0000
0000
0010
0001
2000
0000
3001
0000
1000
0001
0100
0000
0000
0000
0001
0100
,
0020
0000
0030
1000
0001
0000
1000
0000
0100
0000
0000
0000
1000
0000
0001
0000
,
0000
0000
1000
0000
1001
0000
0001
0000
0200
0000
0000
0000
0310
0000
1000
0001
;
