#TITLE:Good Vibes Soldier;
#SUBTITLE:(feat. Head Quattaz);
#ARTIST:KSHMR;
#TITLETRANSLIT:;
#SUBTITLETRANSLIT:;
#ARTISTTRANSLIT:;
#GENRE:Reggaeton;
#CREDIT:Feraligatr;
#BANNER:gvs-bn.png;
#BACKGROUND:gvs-bg-wide.png;
#LYRICSPATH:;
#CDTITLE:;
#MUSIC:KSHMR - Good Vibes Soldier (feat Head Quattaz).ogg;
#OFFSET:0.010000;
#SAMPLESTART:51.681999;
#SAMPLELENGTH:22.153999;
#SELECTABLE:YES;
#DISPLAYBPM:130.000000;
#BPMS:0.000000=130.000000
;
#STOPS:
;
#BGCHANGES:;
#KEYSOUNDS:;
#ATTACKS:;

//---------------dance-single - Feraligatr----------------
#NOTES:
     dance-single:
     Feraligatr:
     Challenge:
     11:
     0.760307,0.802852,0.208054,0.302013,0.875839,793.000000,762.000000,31.000000,45.000000,16.000000,0.000000,0.760307,0.802852,0.208054,0.302013,0.875839,793.000000,762.000000,31.000000,45.000000,16.000000,0.000000:
// measure 0
0000
0000
0000
0000
,  // measure 1
0000
0000
0000
0000
,  // measure 2
0000
0000
0000
0000
,  // measure 3
0000
0000
0000
0000
,  // measure 4
2000
0000
0000
0000
3010
0100
0010
1000
,  // measure 5
0002
0000
0013
0100
1000
0000
0001
0000
,  // measure 6
0200
0000
0010
0010
1300
0100
1000
0100
,  // measure 7
0020
0000
0000
0000
1030
0000
0001
0000
0020
0000
0000
0000
0000
0000
0100
0030
,  // measure 8
1200
0000
0000
0310
0001
0100
0000
0100
0010
0000
1000
0001
0010
0000
0001
0000
,  // measure 9
2000
0000
0000
3010
0100
0001
1000
0001
0010
0100
0000
0100
1000
0010
0001
0M00
,  // measure 10
0002
0000
0000
0103
0010
0000
1000
0001
0010
0100
0000
0100
1000
0000
0100
0000
,  // measure 11
0001
0000
0100
0010
0001
1000
0010
1000
0001
0010
0001
1000
0010
0000
0100
0000
,  // measure 12
0201
0000
0000
0301
1000
0000
0100
0000
0010
0000
0001
1000
0010
0000
0100
0000
,  // measure 13
0002
0000
0010
0003
0001
0000
1000
0000
0010
0100
0000
0100
0001
0010
1000
0M00
,  // measure 14
2000
0000
3100
0010
0000
0010
0001
0000
1000
0000
0100
0000
1000
0000
0010
0000
,  // measure 15
0001
0000
0010
0100
0000
0001
0000
1000
0100
0010
0000
0010
0001
1000
0010
0000
,  // measure 16
0110
0000
0000
0100
0001
0000
0010
0100
1000
0010
0000
0010
0100
0000
0001
0000
,  // measure 17
0101
0000
0000
0100
0001
0010
0000
0100
0000
1000
0000
1000
0010
0000
0100
0000
,  // measure 18
0101
0000
0000
0100
0001
0000
1000
0000
0010
1000
0000
1000
0100
0000
0010
0000
,  // measure 19
0011
0000
0000
0000
0000
0000
0000
0000
0000
0001
0000
0000
1000
0000
0000
0000
0000
0000
0010
0000
0000
0000
0000
0000
0001
0000
0000
0000
0000
0000
0010
0000
0000
0100
0000
0000
0000
0000
0000
0100
0000
0000
0001
0000
1000
0000
0001
0000
,  // measure 20
0010
0000
0000
0100
1000
0000
0010
0100
0000
0100
0001
0000
0010
0000
0100
0000
,  // measure 21
0110
0000
0000
0010
0001
0100
0000
0100
0010
0000
1000
0000
0100
0000
0010
0000
,  // measure 22
0011
0000
0000
0001
1000
0000
0010
0100
0010
0000
1000
0000
0100
0000
0020
0000
,  // measure 23
0030
0000
0000
0000
0000
0000
0001
0100
1000
0000
0100
0000
0001
0000
0010
0000
,  // measure 24
1000
0000
0000
0000
1000
0000
0010
0000
0200
0000
0000
0000
0010
0000
0000
0000
1300
0000
0000
0000
0001
0000
0100
0010
1000
0000
0000
0000
0001
0000
0010
0000
,  // measure 25
1000
0000
0000
0000
1000
0000
0010
0000
0100
0000
0000
0000
0100
0000
0010
0000
0002
0000
1000
0000
0003
0000
0001
0100
0010
0000
1000
0000
0001
0000
0010
0000
,  // measure 26
1000
0000
0000
0000
1000
0000
0010
0000
0100
0000
0000
0000
0100
0000
0010
0000
0002
0000
0000
0000
1003
0000
0001
1000
0010
0000
0000
0000
0100
0000
0010
1000
,  // measure 27
0001
0000
0000
0000
0100
0000
0001
0000
1000
0000
0000
0000
0001
0000
0000
0000
1000
0000
0100
0000
0010
0000
0100
1000
0001
0000
1000
0000
0010
0000
0000
0000
,  // measure 28
0001
0000
0000
0000
0001
0000
0010
0000
0200
0000
0000
0000
0010
0000
0000
0000
0301
0000
0000
0000
1000
0000
0100
0010
0001
0000
0000
0000
1000
0000
0010
0000
,  // measure 29
0001
0000
0000
0000
0001
0000
0010
0000
0100
0000
0000
0000
0100
0000
0010
0000
2000
0000
0001
0000
3000
0000
1000
0100
0010
0000
0001
0000
1000
0000
0010
0000
,  // measure 30
0001
0000
0000
0000
0001
0000
0010
0000
0100
0000
0000
0000
0100
0000
0010
0000
1000
0000
0001
0010
0100
0000
0000
0000
2000
0000
0000
0000
0000
0000
3000
0000
,  // measure 31
1001
0000
0001
0100
1000
0000
0100
0001
1000
0100
1000
0001
0100
0000
0010
0000
,  // measure 32
1010
0000
0000
M010
0001
0000
1000
0000
1100
0000
M100
0001
1000
0000
0100
0000
,  // measure 33
1100
0000
M100
0001
1000
0000
0001
0000
0100
0010
0000
0010
1000
0100
0001
0000
,  // measure 34
0100
0100
0100
0100
0001
0000
0010
0000
0100
1000
0000
1000
0001
0000
1000
0000
,  // measure 35
0100
0100
0100
0100
0001
0000
0010
0000
0100
1000
0000
1000
0100
1000
0001
0000
,  // measure 36
0101
0000
0000
010M
1000
0000
0001
0000
0011
0000
001M
1000
0001
0000
0010
0000
,  // measure 37
0011
0000
001M
1000
0100
0000
0001
0000
0100
0000
1000
0000
0010
0000
0001
0000
,  // measure 38
0010
0010
0010
0010
0001
0000
0100
0000
0010
0000
1000
0001
0010
0000
0001
0000
,  // measure 39
0100
0100
0100
0100
1000
0001
0100
0001
1000
0100
1000
0001
0100
0010
0000
0010
,  // measure 40
1000
0000
0001
0010
0001
0000
1000
0010
1000
0000
0001
0100
0001
0000
1000
0100
,  // measure 41
1000
0000
0001
0100
0001
0000
1000
0100
2000
0000
0000
3100
0000
0100
0001
00M0
,  // measure 42
0001
0010
0000
0010
0100
0000
1000
0001
0000
0001
0100
0000
0010
0000
1000
0000
,  // measure 43
0001
0010
0000
0010
0100
1000
0001
0100
0001
1000
0100
1000
0001
0000
0010
0000
,  // measure 44
0100
0000
1000
0001
0000
0100
0000
0100
0020
0000
0000
0000
1030
0000
0001
0000
,  // measure 45
0010
0000
0100
1000
0000
1000
0001
0000
0100
0000
0010
0000
1000
0100
0001
00M0
,  // measure 46
0001
0000
0010
0100
0000
0100
0010
0000
2000
0000
0000
3010
0000
0010
0100
0000
,  // measure 47
0001
0000
0100
1000
0000
1000
0010
0000
0002
0010
0000
0013
1000
0001
0100
0000
,  // measure 48
0101
0000
0000
0100
0001
0010
0000
0010
0000
0100
1000
0000
0010
0000
0100
0000
,  // measure 49
0110
0000
0000
0010
1000
0100
0010
0001
0100
0000
0001
0000
0010
0000
0100
0000
,  // measure 50
1100
0000
0000
1000
0001
0000
0010
0100
0000
0100
1000
0000
0010
0000
0100
0000
,  // measure 51
0101
0000
0000
0000
0000
0000
0000
0000
0000
0001
0000
0000
1000
0000
0000
0100
0000
0000
0000
0000
0000
0100
0000
0000
0001
0000
0000
0000
0000
0000
0100
0000
0000
0010
0000
0000
0000
0000
0000
0010
0000
0000
0001
0000
1000
0000
0001
0000
,  // measure 52
0100
0000
0000
0010
1000
0100
0010
0001
0100
0000
0010
0000
1000
0000
0100
0000
,  // measure 53
0110
0000
0000
0010
0001
0100
0000
0100
0010
0000
1000
0000
0100
0000
0010
0000
,  // measure 54
0011
0000
0000
0001
1000
0000
0100
0010
0100
0000
1000
0000
0010
0000
0200
0000
,  // measure 55
0300
0000
0000
0000
0000
0000
0001
0010
1000
0000
0010
0000
0001
0000
0100
0000
,  // measure 56
0020
0000
1030
0001
0011
0000
0001
1000
,  // measure 57
0020
0000
0000
0230
0000
0000
0301
0000
0020
0000
0000
0230
0000
0000
1300
0001
,  // measure 58
0200
0000
0000
0000
0301
0000
1000
0000
1100
0000
0000
0000
0100
0000
0010
0001
,  // measure 59
0200
0000
0000
0320
0000
0000
1030
0000
0200
0000
0000
0320
0000
0000
0031
1000
,  // measure 60
0020
0000
1030
0001
0011
0000
0010
0001
,  // measure 61
0200
0000
0310
1000
0100
0000
1000
0000
0020
0000
0130
0001
1000
0000
0100
0000
,  // measure 62
0010
0000
0001
0000
1000
0000
0020
0000
0100
0000
0000
0000
1030
0001
0010
0000
,  // measure 63
0100
1000
0000
1000
0002
0000
0203
0000
,  // measure 64
1300
0000
0000
0000
1000
0000
0100
0000
0020
0000
0000
0000
0100
0000
0000
0000
1030
0000
0000
0000
0001
0000
0010
0100
1000
0000
0000
0000
0001
0000
0100
0000
,  // measure 65
1000
0000
0000
0000
1000
0000
0100
0000
0010
0000
0000
0000
0010
0000
0100
0000
0002
0000
1000
0000
0003
0000
0001
0010
0100
0000
1000
0000
0001
0000
0100
0000
,  // measure 66
1000
0000
0000
0000
1000
0000
0100
0000
0010
0000
0000
0000
0010
0000
0100
0000
0002
0000
0000
0000
1003
0000
0001
1000
0100
0000
0000
0000
0010
0000
0100
1000
,  // measure 67
0001
0000
0000
0000
0010
0000
0001
0000
1000
0000
0000
0000
0001
0000
0000
0000
1000
0000
0010
0000
0100
0000
0010
1000
0001
0000
1000
0000
0100
0000
0000
0000
,  // measure 68
0001
0000
0000
0000
0001
0000
0100
0000
0020
0000
0000
0000
0100
0000
0000
0000
0031
0000
0000
0000
1000
0000
0010
0100
0001
0000
0000
0000
1000
0000
0100
0000
,  // measure 69
0001
0000
0000
0000
0001
0000
0100
0000
0010
0000
0000
0000
0010
0000
0100
0000
2000
0000
0001
0000
3000
0000
1000
0010
0100
0000
0001
0000
1000
0000
0100
0000
,  // measure 70
0001
0000
0000
0000
0001
0000
0100
0000
0010
0000
0000
0000
0010
0000
0100
0000
1000
0000
0001
0100
0010
0000
0000
0000
2000
0000
0000
0000
0000
0000
3000
0000
,  // measure 71
1001
0000
1000
0100
0001
0000
0100
1000
0001
0100
0001
1000
0100
0000
0010
0000
,  // measure 72
0011
0000
0000
001M
1000
0000
0001
0000
0101
0000
010M
1000
0001
0000
0100
0000
,  // measure 73
0101
0000
010M
1000
0001
0000
1000
0000
0010
0000
1000
0000
0100
0000
0001
0000
,  // measure 74
0100
0100
0100
0100
0001
0000
0010
0000
0100
0000
1000
0001
0100
0000
0001
0000
,  // measure 75
0100
0000
0100
0000
0100
0000
0100
0000
1000
0000
0000
0000
0010
0000
0000
0000
0100
0000
0000
0000
0001
0000
1000
0001
0010
0000
0100
0000
1000
0000
0000
0000
,  // measure 76
1100
0000
0000
M100
0001
0000
1000
0000
1010
0000
M010
0001
1000
0000
0010
0000
,  // measure 77
1010
0000
M010
0001
0100
0000
1000
0000
0100
0000
0001
0000
0010
0000
1000
0000
,  // measure 78
0010
0010
0010
0010
1000
0000
0100
0000
0010
0000
0001
1000
0010
0000
1000
0000
,  // measure 79
0100
0100
0100
0100
0001
0000
0010
0000
0100
0000
1000
0000
0010
0000
0000
0000
;

//---------------dance-single - Feraligatr----------------
#NOTES:
     dance-single:
     Feraligatr SH:
     Hard:
     10:
     0.692234,0.669044,0.201342,0.382550,0.684564,722.000000,692.000000,30.000000,57.000000,16.000000,0.000000,0.692234,0.669044,0.201342,0.382550,0.684564,722.000000,692.000000,30.000000,57.000000,16.000000,0.000000:
// measure 0
0000
0000
0000
0000
,  // measure 1
0000
0000
0000
0000
,  // measure 2
0000
0000
0000
0000
,  // measure 3
0000
0000
0000
0000
,  // measure 4
2000
0000
0000
0000
3010
0100
0010
1000
,  // measure 5
0002
0000
0013
0100
1000
0000
0001
0000
,  // measure 6
0200
0000
0010
0010
0301
1000
0001
1000
,  // measure 7
0200
0000
0000
0000
0310
0000
0001
0000
2000
0000
0000
0000
0000
0000
0001
3000
,  // measure 8
1002
0000
0000
0013
0001
0100
00M0
0100
1000
0000
0001
0100
0001
0000
1000
0000
,  // measure 9
0200
0000
0000
0310
0000
0100
1000
0001
1000
0010
0M00
0010
0001
0000
1000
0000
,  // measure 10
0020
0000
0000
0130
0000
0000
0001
1000
0001
0100
00M0
0100
1000
0000
0001
0000
,  // measure 11
0010
0000
0100
1000
0001
0100
0010
1000
0001
0100
00M0
0100
1000
0000
0100
0000
,  // measure 12
0120
0000
0000
0031
0000
0000
1000
0000
0010
0000
0100
0001
1000
0000
0100
0000
,  // measure 13
0020
0000
0001
0000
0130
0000
1000
0000
0001
0100
00M0
0100
1000
0000
0010
0000
,  // measure 14
1000
0000
0001
0100
00M0
0100
1000
0000
0001
0000
0100
0000
0001
0000
0010
0000
,  // measure 15
1000
0000
0010
0100
0000
1000
0000
0001
0100
0000
0010
0000
1000
0001
0010
0000
,  // measure 16
0110
0000
0000
0100
1000
0000
0001
0100
0010
1000
0000
1000
0100
0000
0010
0000
,  // measure 17
0011
0000
0000
0001
1000
0010
0000
0100
0000
0001
0000
0001
1000
0000
0100
0000
,  // measure 18
1100
0000
0000
1000
0001
0000
0100
0000
0010
1000
0000
1000
0001
0000
0010
0000
,  // measure 19
0011
0000
0000
0001
1000
0000
0010
0000
0001
0000
0010
0100
0000
0100
0001
0000
,  // measure 20
0101
0000
0000
0100
0010
0000
1000
0001
0000
0001
0010
0000
0100
0000
1000
0000
,  // measure 21
1100
0000
0000
0100
0010
0001
0000
0001
1000
0000
0010
0000
0100
0000
0001
0000
,  // measure 22
0101
0000
0000
0100
0010
0000
1000
0001
1000
0000
0100
0000
0010
0000
0002
0000
,  // measure 23
0003
0000
0000
0000
0000
0000
0010
0001
0100
0000
0010
0000
1000
0000
0100
0000
,  // measure 24
0002
0000
0103
0010
0002
0000
1000
0000
0103
0000
0001
0000
1000
0000
0010
0100
,  // measure 25
2000
0000
3100
0010
2000
0000
3100
0010
0002
0000
1000
0000
0103
0001
0010
0100
,  // measure 26
0002
0000
0103
0010
0002
0000
0103
0010
2000
0000
0001
0000
3200
0000
0000
0000
,  // measure 27
0310
0000
0100
1000
0001
0000
0010
0000
0100
0010
0001
1000
0001
0100
0010
0000
,  // measure 28
0002
0000
0013
0100
0002
0000
1000
0000
0103
0000
0001
0000
1000
0000
0100
0010
,  // measure 29
2000
0000
3010
0100
2000
0000
3010
0100
0002
1000
0000
1003
0001
0010
0100
0010
,  // measure 30
2000
0000
3010
0100
2000
0000
3010
0100
0002
0000
1000
0000
0023
0000
0000
0030
,  // measure 31
0011
0000
0010
0001
0100
0000
0010
1000
0010
1000
0010
1000
0001
0000
0010
0000
,  // measure 32
0011
0000
0000
0001
0000
0000
1000
0000
1010
0000
0010
1000
0000
0000
0001
0000
,  // measure 33
0011
0000
0010
0001
0000
0000
1000
0000
0001
0010
0000
0010
0100
1000
0010
0000
,  // measure 34
0100
0001
0100
0001
0010
0000
0100
0000
1000
0001
0000
0001
1000
0000
0010
0000
,  // measure 35
0100
0001
0100
0001
0010
0000
0100
0000
1000
0001
0000
0001
0100
0001
1000
0000
,  // measure 36
1010
0000
0000
0010
1000
0000
0001
0000
0011
0000
0010
0001
1000
0000
0010
0000
,  // measure 37
1010
0000
0010
1000
0001
0000
0010
0000
0100
0000
0010
0000
0001
0000
0100
0000
,  // measure 38
0010
1000
0010
1000
0100
0000
0010
0000
0001
0000
0100
0001
1000
0000
0100
0000
,  // measure 39
0010
0001
0010
0001
0100
0000
0010
0000
1000
0000
0100
1000
0001
0100
00M0
0100
,  // measure 40
1000
0000
0001
0100
0001
0000
1000
0100
1000
0000
0001
0100
0001
0000
1000
0100
,  // measure 41
1000
0000
0001
0100
0001
0000
1000
0100
2000
0000
0000
3100
00M0
0100
0001
0000
,  // measure 42
1000
0010
0M00
0010
0001
0000
1000
0100
00M0
0100
0001
0000
0100
0000
0010
0000
,  // measure 43
1000
0100
00M0
0100
0001
0000
1000
0100
0010
0001
0010
0001
1000
0000
0010
0000
,  // measure 44
0100
0000
0001
1000
0000
0100
00M0
0100
0020
0000
0000
0000
1030
0000
0001
0000
,  // measure 45
0100
0000
0001
0100
00M0
0100
1000
0000
0010
0000
0100
0000
0001
0000
0010
0000
,  // measure 46
0100
0000
1000
0100
00M0
0100
0001
0000
0020
0000
0000
0130
M000
0100
0001
0000
,  // measure 47
0010
0000
0001
0100
00M0
0100
1000
0000
0020
0000
0000
0000
0130
0001
1000
0000
,  // measure 48
1100
0000
0000
0100
0010
0001
0000
0001
0000
1000
0010
0000
0100
0000
0001
0000
,  // measure 49
0101
0000
0000
0100
0001
1000
0001
0010
0100
0000
1000
0000
0001
0000
0100
0000
,  // measure 50
0101
0000
0000
0100
0010
0000
1000
0001
0000
0001
0010
0000
0100
0000
1000
0000
,  // measure 51
1100
0000
0000
0100
0010
0001
0000
0001
1000
0000
0010
0100
0000
0100
0001
0000
,  // measure 52
0101
0000
0000
0100
0010
1000
0001
1000
0100
0000
0010
0000
0001
0000
1000
0000
,  // measure 53
1001
0000
0000
0001
0010
0100
0000
1000
0001
0000
0100
0000
0010
0000
1000
0000
,  // measure 54
1010
0000
0000
0010
0100
0000
0001
1000
0001
0000
0010
0000
0100
0000
2000
0000
,  // measure 55
3000
0000
0000
0000
0000
0000
0100
1000
0010
0000
0100
0000
0001
0000
1000
0000
,  // measure 56
0200
0000
0000
0310
0001
0000
0000
1000
,  // measure 57
0010
0000
0000
0100
0000
0000
0001
0000
0010
0000
0000
0100
0000
0000
1000
0000
,  // measure 58
0002
0000
1003
0001
0100
0000
0000
0001
,  // measure 59
0010
0000
0000
0100
0000
0000
1000
0000
0010
0000
0000
0100
0000
0000
0001
0000
,  // measure 60
2000
0000
3100
0010
0001
0000
0100
0001
,  // measure 61
0010
0000
0000
0100
0000
0000
1000
0000
0010
0000
0000
0100
0000
0000
0001
0000
,  // measure 62
0100
0000
0001
0000
1000
0000
0200
0000
0010
0000
0000
0000
1300
0001
0200
0000
,  // measure 63
0010
0000
0000
0300
0000
0000
0100
0000
0001
0000
0000
0000
0010
0000
0000
0000
,  // measure 64
2000
0000
3010
0100
2000
0000
0001
0000
3010
0000
1000
0000
0001
0000
0100
0010
,  // measure 65
0002
0000
0013
0100
0002
0000
0013
0100
2000
0000
0001
0000
3010
1000
0100
0010
,  // measure 66
2000
0000
3010
0100
2000
0000
3010
0100
0002
0000
1000
0000
0023
0000
0000
0000
,  // measure 67
0130
0000
0010
0001
1000
0000
0100
0000
0010
0100
1000
0001
1000
0010
0100
0000
,  // measure 68
2000
0000
3100
0010
2000
0000
0001
0000
3010
0000
1000
0000
0001
0000
0010
0100
,  // measure 69
0002
0000
0103
0010
0002
0000
0103
0010
2000
0001
0000
3001
1000
0100
0010
0100
,  // measure 70
0002
0000
0103
0010
0002
0000
0103
0010
2000
0000
0001
0000
3200
0000
0000
0300
,  // measure 71
1100
0000
0100
1000
0010
0000
0100
0001
0100
0001
0100
0001
1000
0000
0100
0000
,  // measure 72
1100
0000
0000
1000
0000
0000
0001
0000
0101
0000
0100
0001
0000
0000
1000
0000
,  // measure 73
1100
0000
0100
1000
0000
0000
0001
0000
0100
0000
0010
0000
1000
0000
0100
0000
,  // measure 74
0010
0001
0010
0001
0100
0000
0010
0000
1000
0000
0001
0000
1000
0000
0100
0000
,  // measure 75
0010
0001
0010
0001
0100
0000
0010
0000
1000
0000
0100
0000
0010
0000
0100
0000
,  // measure 76
1100
0000
0000
0100
1000
0000
0001
0000
0101
0000
0100
0001
1000
0000
0100
0000
,  // measure 77
1100
0000
0100
1000
0001
0000
0100
0000
0010
0000
0100
0000
0001
0000
0010
0000
,  // measure 78
0100
1000
0100
1000
0010
0000
0100
0000
0001
0000
0010
0000
0001
0000
0100
0000
,  // measure 79
0010
1000
0010
1000
0100
0000
0010
0000
0001
0000
0100
0000
0010
0000
0000
0000
;

//---------------dance-single - Feraligatr----------------
#NOTES:
     dance-single:
     Feraligatr SM:
     Medium:
     8:
     0.502397,0.508473,0.080537,0.335570,0.194631,524.000000,512.000000,12.000000,50.000000,0.000000,0.000000,0.502397,0.508473,0.080537,0.335570,0.194631,524.000000,512.000000,12.000000,50.000000,0.000000,0.000000:
// measure 0
0000
0000
0000
0000
,  // measure 1
0000
0000
0000
0000
,  // measure 2
0000
0000
0000
0000
,  // measure 3
0000
0000
0000
0000
,  // measure 4
2000
0000
0000
0000
3010
0100
0010
1000
,  // measure 5
0002
0000
0013
0100
1000
0000
0001
0000
,  // measure 6
0200
0000
0000
0000
0310
1000
0010
0100
,  // measure 7
0002
0000
1003
0100
0020
0000
0000
0030
,  // measure 8
0012
0000
1003
0001
0100
0010
1000
0000
,  // measure 9
0002
0000
1003
0100
0010
0001
1000
0000
,  // measure 10
0020
0000
0130
0001
1000
0100
0010
0001
,  // measure 11
0100
0010
1000
0001
0010
0100
1000
0000
,  // measure 12
0002
0000
0103
0010
1000
0001
0010
0000
,  // measure 13
0200
1000
0310
0100
1000
0001
0100
0000
,  // measure 14
0001
1000
0100
1000
0001
0100
0001
0010
,  // measure 15
0100
1000
0001
0100
0010
0000
1000
0000
,  // measure 16
1001
0000
0000
0001
0010
0000
0100
0000
1000
0000
0001
0000
0100
0000
0010
0000
,  // measure 17
1000
0000
0000
0001
0010
0000
0100
0000
1000
0000
0001
0000
0100
0000
0010
0000
,  // measure 18
1000
0000
0000
0001
0010
0000
0100
0000
0010
0000
0001
0000
1000
0000
0010
0000
,  // measure 19
0100
0000
0000
0001
0100
0000
0010
0000
0001
0000
0010
0000
0100
0000
0001
0000
,  // measure 20
0010
0000
0000
0100
1000
0000
0001
0000
0100
0000
0010
0000
1000
0000
0001
0000
,  // measure 21
0010
0000
0000
0100
0010
0000
0001
0000
1000
0000
0010
0000
0100
0000
0001
0000
,  // measure 22
1000
0000
0000
0100
1000
0000
0001
0000
0100
0000
0010
0000
1000
0000
0002
0000
,  // measure 23
0003
0000
0000
1000
0100
0010
0001
0100
,  // measure 24
2000
0000
0000
3100
0020
0000
1000
0030
0010
0000
0000
0000
1000
0000
0100
0000
,  // measure 25
0002
0000
0000
0103
0020
0000
0130
0000
2000
0000
0001
3000
1000
0000
0010
0000
,  // measure 26
0002
0000
0000
0013
0200
0000
0310
0000
2000
0000
0001
3000
1000
0000
0100
0000
,  // measure 27
0010
0000
0000
0001
0000
0000
1000
0000
0002
0000
0000
0000
0023
0000
0000
0000
,  // measure 28
2030
0000
0000
3010
0200
0000
1000
0300
0100
0000
1000
0000
0001
0000
0100
0000
,  // measure 29
2000
0000
0000
3100
0020
0000
0130
0000
0002
0000
1000
0003
0001
0000
0010
0000
,  // measure 30
2000
0000
0000
3010
0200
0000
1000
0300
0100
0000
1000
0000
0001
0000
0100
0000
,  // measure 31
0101
0000
0000
0000
0000
0000
0000
0000
0000
0000
0000
1000
0001
0000
0010
0000
,  // measure 32
0110
0000
0000
0100
0000
0000
1000
0000
0010
0000
0000
0100
0000
0000
0001
0000
,  // measure 33
0010
0000
0000
0100
0000
0000
1000
0000
0200
0000
0000
0000
0300
0000
0000
0000
,  // measure 34
0010
0001
0010
0001
1000
0000
0010
0000
0100
0000
0001
0000
0000
0000
0000
0000
,  // measure 35
1000
0010
1000
0010
0100
0000
0001
0000
1000
0000
0100
0000
0010
0000
0000
0000
,  // measure 36
0110
0000
0000
0100
0000
0000
1000
0000
0010
0000
0000
0100
0000
0000
0001
0000
,  // measure 37
0010
0000
0000
0100
0000
0000
0001
0000
0200
0000
0000
0300
0110
0000
0000
0000
,  // measure 38
0100
1000
0100
1000
0001
0000
0100
0000
0010
0000
1000
0000
0000
0000
0000
0000
,  // measure 39
0001
0100
0001
0100
0010
0000
1000
0000
0001
0000
0010
0000
0100
0000
0000
0000
,  // measure 40
1000
0010
1000
0001
1000
0100
1000
0001
,  // measure 41
1000
0010
1000
0001
0010
0000
0100
1000
,  // measure 42
0001
0100
0001
1000
0100
1000
0001
0100
,  // measure 43
0001
1000
0100
0010
0001
0000
1000
0010
,  // measure 44
1000
0001
0100
0001
0010
0000
0100
1000
,  // measure 45
0001
0100
0010
1000
0100
0000
0010
0100
,  // measure 46
1000
0001
0100
0010
0001
0010
1000
0100
,  // measure 47
0001
0100
1000
0010
0001
0000
0010
0000
,  // measure 48
1010
0000
0000
1000
0001
0000
0010
0000
0100
0000
1000
0000
0001
0000
0100
0000
,  // measure 49
0010
0000
0000
1000
0001
0000
0010
0000
0100
0000
0010
0000
0001
0000
1000
0000
,  // measure 50
0010
0000
0000
0100
0001
0000
1000
0000
0100
0000
0010
0000
0001
0000
1000
0000
,  // measure 51
0001
0000
0000
1000
0100
0000
0010
0000
1000
0000
0010
0000
0100
0000
1000
0000
,  // measure 52
0010
0000
0000
0100
0001
0000
1000
0000
0100
0000
0010
0000
0001
0000
1000
0000
,  // measure 53
0010
0000
0000
0100
0001
0000
1000
0000
0100
0000
1000
0000
0001
0000
0100
0000
,  // measure 54
0010
0000
0000
1000
0001
0000
0010
0000
0100
0000
0010
0000
0001
0000
2000
0000
,  // measure 55
3000
0000
0000
0001
0100
0010
1000
0100
,  // measure 56
0010
0000
0000
0010
0001
0000
0000
0000
,  // measure 57
1000
0010
0000
0010
0100
0000
0001
0000
,  // measure 58
1000
0000
0000
1000
0100
0000
0000
0000
,  // measure 59
0010
0001
0000
0001
1000
0000
0010
0000
,  // measure 60
0100
0000
0001
0010
0100
0000
1000
0000
,  // measure 61
0001
0100
0010
0100
0001
0000
1000
0000
,  // measure 62
0001
0000
0100
0001
1000
0000
0100
0000
,  // measure 63
0010
0001
0000
0001
1000
0000
0010
0000
,  // measure 64
0002
0000
0000
0013
0200
0000
0001
0300
0100
0000
0000
0000
0001
0000
0010
0000
,  // measure 65
2000
0000
0000
3010
0200
0000
0310
0000
0002
0000
1000
0003
0001
0000
0100
0000
,  // measure 66
2000
0000
0000
3100
0020
0000
0130
0000
0002
0000
1000
0003
0001
0000
0010
0000
,  // measure 67
0100
0000
0000
1000
0000
0000
0001
0000
2000
0000
0000
0000
3200
0000
0000
0000
,  // measure 68
0302
0000
0000
0103
0020
0000
0001
0030
0010
0000
0001
0000
1000
0000
0010
0000
,  // measure 69
0002
0000
0000
0013
0200
0000
0310
0000
2000
0000
0001
3000
1000
0000
0100
0000
,  // measure 70
0002
0000
0000
0103
0020
0000
0001
0030
0010
0000
0001
0000
1000
0000
0010
0000
,  // measure 71
1010
0000
0000
0000
0000
0000
0000
0000
0000
0000
0000
0001
1000
0000
0100
0000
,  // measure 72
0110
0000
0000
0010
0000
0000
0001
0000
0100
0000
0000
0010
0000
0000
1000
0000
,  // measure 73
0100
0000
0000
0010
0000
0000
0001
0000
0020
0000
0000
0030
0110
0000
0000
0000
,  // measure 74
0100
1000
0100
1000
0001
0000
0100
0000
0010
0000
1000
0000
0000
0000
0000
0000
,  // measure 75
0001
0100
0001
0100
0010
0000
1000
0000
0001
0000
0010
0000
0100
0000
0000
0000
,  // measure 76
0110
0000
0000
0010
0000
0000
0001
0000
0100
0000
0000
0010
0000
0000
1000
0000
,  // measure 77
0100
0000
0000
0010
0000
0000
1000
0000
0020
0000
0000
0030
0110
0000
0000
0000
,  // measure 78
0010
0001
0010
0001
1000
0000
0010
0000
0100
0000
0001
0000
0000
0000
0000
0000
,  // measure 79
1000
0010
1000
0010
0100
0000
0001
0000
1000
0000
0100
0000
0010
0000
0000
0000
;

//---------------dance-single - Feraligatr----------------
#NOTES:
     dance-single:
     Feraligatr SE:
     Easy:
     4:
     0.255034,0.347903,0.140940,0.348993,0.000000,266.000000,245.000000,21.000000,52.000000,0.000000,0.000000,0.255034,0.347903,0.140940,0.348993,0.000000,266.000000,245.000000,21.000000,52.000000,0.000000,0.000000:
// measure 0
0000
0000
0000
0000
,  // measure 1
0000
0000
0000
0000
,  // measure 2
0000
0000
0000
0000
,  // measure 3
0000
0000
0000
0000
,  // measure 4
2000
0000
3010
0010
,  // measure 5
0200
0301
1000
0100
,  // measure 6
0020
0000
0031
0001
,  // measure 7
1000
0000
0000
0000
0010
0000
0000
0000
0200
0000
0000
0000
0000
0000
0000
0300
,  // measure 8
0120
0030
0010
1000
,  // measure 9
0002
0003
0010
0100
,  // measure 10
2000
3000
0001
0100
,  // measure 11
0020
1030
0100
0010
,  // measure 12
0002
0003
1000
0010
,  // measure 13
0200
0300
0001
1000
,  // measure 14
0100
0010
0001
1000
,  // measure 15
0010
0100
0001
1000
,  // measure 16
1001
0000
0001
0010
,  // measure 17
0100
0000
1000
0010
,  // measure 18
0100
0000
0001
1000
,  // measure 19
0100
0000
0010
0001
,  // measure 20
1001
0000
1000
0010
,  // measure 21
0100
0000
0001
0010
,  // measure 22
0100
1000
0001
0200
,  // measure 23
0300
0000
0010
1000
,  // measure 24
0200
0320
0030
0001
,  // measure 25
0200
0320
2030
3000
,  // measure 26
0200
0320
0032
2003
,  // measure 27
3010
0000
2000
3002
,  // measure 28
0023
0230
0300
1000
,  // measure 29
0020
0230
0302
1003
,  // measure 30
0200
0320
0032
2003
,  // measure 31
3010
0000
0000
0000
,  // measure 32
0101
1000
1100
0001
,  // measure 33
0101
1000
1100
0000
,  // measure 34
0004
0013
0100
0000
,  // measure 35
4000
3010
0100
0001
,  // measure 36
0101
1000
1010
0001
,  // measure 37
0011
1000
1100
1000
,  // measure 38
0004
0103
0010
0000
,  // measure 39
4000
3100
0010
0001
,  // measure 40
1000
1000
0001
0001
,  // measure 41
0100
0100
0010
0000
,  // measure 42
1000
0001
1000
0100
,  // measure 43
1000
0001
0100
0000
,  // measure 44
0010
1000
0100
0000
,  // measure 45
0010
0001
0100
0000
,  // measure 46
0010
1000
0100
1000
,  // measure 47
0010
1000
0100
0010
,  // measure 48
0011
0000
1000
0010
,  // measure 49
0100
0000
0001
0010
,  // measure 50
0100
0000
1000
0001
,  // measure 51
0100
0000
0010
1000
,  // measure 52
1001
0000
0001
0010
,  // measure 53
0100
0000
1000
0010
,  // measure 54
0100
0001
1000
0200
,  // measure 55
0300
0000
0010
0001
,  // measure 56
0100
0000
0010
0000
,  // measure 57
1000
0000
0001
0000
,  // measure 58
0010
0000
0100
0000
,  // measure 59
1000
0000
0001
0000
,  // measure 60
0100
0010
1000
0000
,  // measure 61
0001
0010
0100
1000
,  // measure 62
0001
0100
0010
0000
,  // measure 63
1000
0000
0001
0000
,  // measure 64
0020
0230
0300
1000
,  // measure 65
0020
0230
0302
0003
,  // measure 66
0020
0230
2300
3002
,  // measure 67
0103
0000
0002
2003
,  // measure 68
3200
0320
0030
0001
,  // measure 69
0200
0320
2030
3001
,  // measure 70
0020
0230
2300
3002
,  // measure 71
0103
0000
0000
0000
,  // measure 72
1010
0001
0011
1000
,  // measure 73
1010
0001
0011
0001
,  // measure 74
4000
3100
0010
0000
,  // measure 75
0004
0103
0010
1000
,  // measure 76
1010
0001
0101
1000
,  // measure 77
1100
0001
0011
0001
,  // measure 78
4000
3010
0100
0000
,  // measure 79
0004
0013
0100
1000
;

//---------------dance-single - Feraligatr----------------
#NOTES:
     dance-single:
     Feraligatr SN:
     Beginner:
     2:
     0.140940,0.214094,0.033557,0.000000,0.000000,147.000000,142.000000,5.000000,0.000000,0.000000,0.000000,0.140940,0.214094,0.033557,0.000000,0.000000,147.000000,142.000000,5.000000,0.000000,0.000000,0.000000:
// measure 0
0000
0000
0000
0000
,  // measure 1
0000
0000
0000
0000
,  // measure 2
0000
0000
0000
0000
,  // measure 3
0000
0000
0000
0000
,  // measure 4
1000
0000
0000
0000
,  // measure 5
0001
0000
0000
0000
,  // measure 6
0100
0000
0000
0000
,  // measure 7
0010
0000
0000
0000
,  // measure 8
1001
0000
1000
0000
,  // measure 9
0100
0000
0010
0000
,  // measure 10
0100
0000
1000
0000
,  // measure 11
0001
0000
0100
0000
,  // measure 12
0010
0000
1000
0000
,  // measure 13
0001
0000
0010
0000
,  // measure 14
0100
0000
0010
0000
,  // measure 15
0001
0000
1000
0000
,  // measure 16
0110
0000
0000
0000
,  // measure 17
0001
0000
0000
0000
,  // measure 18
1000
0000
0000
0000
,  // measure 19
0100
0000
0000
0000
,  // measure 20
1001
0000
0000
0000
,  // measure 21
1000
0000
0000
0000
,  // measure 22
0100
0000
0000
0000
,  // measure 23
0000
0000
0000
0000
,  // measure 24
0010
0010
0000
0000
,  // measure 25
0001
0001
0001
0000
,  // measure 26
1000
1000
1000
0010
,  // measure 27
0100
0000
0000
0000
,  // measure 28
0001
0001
0000
0000
,  // measure 29
1000
1000
1000
0000
,  // measure 30
0100
0100
0100
0010
,  // measure 31
0001
0000
0000
0000
,  // measure 32
1000
0000
0001
0000
,  // measure 33
1000
0000
0010
0000
,  // measure 34
0100
0100
0100
0000
,  // measure 35
0100
0100
0100
0000
,  // measure 36
0001
0000
1000
0000
,  // measure 37
0001
0000
0010
0000
,  // measure 38
0100
0100
0100
0000
,  // measure 39
0100
0100
0100
0000
,  // measure 40
1000
0000
0001
0000
,  // measure 41
0100
0000
0010
0000
,  // measure 42
1000
0000
0001
0000
,  // measure 43
0010
0000
0100
0000
,  // measure 44
0010
0000
0001
0000
,  // measure 45
1000
0000
0010
0000
,  // measure 46
0100
0000
0001
0000
,  // measure 47
1000
0000
0100
0000
,  // measure 48
0110
0000
0000
0000
,  // measure 49
0001
0000
0000
0000
,  // measure 50
1000
0000
0000
0000
,  // measure 51
0010
0000
0000
0000
,  // measure 52
1001
0000
0000
0000
,  // measure 53
0001
0000
0000
0000
,  // measure 54
0010
0000
0000
0000
,  // measure 55
0000
0000
0000
0000
,  // measure 56
0001
0000
0000
0000
,  // measure 57
1000
0000
0000
0000
,  // measure 58
0010
0000
0000
0000
,  // measure 59
0100
0000
0000
0000
,  // measure 60
0001
0000
1000
0000
,  // measure 61
0100
0000
0010
0000
,  // measure 62
0001
0000
1000
0000
,  // measure 63
0001
0000
0000
0000
,  // measure 64
0100
0100
0000
0000
,  // measure 65
0001
0001
0001
0000
,  // measure 66
1000
1000
1000
0100
,  // measure 67
0010
0000
0000
0000
,  // measure 68
0001
0001
0000
0000
,  // measure 69
1000
1000
1000
0000
,  // measure 70
0010
0010
0010
0100
,  // measure 71
0001
0000
0000
0000
,  // measure 72
1000
0000
0001
0000
,  // measure 73
1000
0000
0100
0000
,  // measure 74
0010
0010
0010
0000
,  // measure 75
0010
0010
0010
0000
,  // measure 76
0001
0000
1000
0000
,  // measure 77
0001
0000
0100
0000
,  // measure 78
0010
0010
0010
0000
,  // measure 79
0010
0010
0010
1000
;
