#TITLE:Glue Gun;
#SUBTITLE:;
#ARTIST:Nhato;
#TITLETRANSLIT:;
#SUBTITLETRANSLIT:;
#ARTISTTRANSLIT:;
#GENRE:;
#CREDIT:;
#BANNER:gluegun-bn.png;
#BACKGROUND:gluegun-bg-wide.png;
#LYRICSPATH:;
#CDTITLE:;
#MUSIC:Glue Gun.ogg;
#OFFSET:-0.015000;
#SAMPLESTART:29.096001;
#SAMPLELENGTH:18.000000;
#SELECTABLE:YES;
#BPMS:0.000000=130.000000
;
#STOPS:
;
#BGCHANGES:;
#KEYSOUNDS:;
#ATTACKS:;

//---------------dance-single - ----------------
#NOTES:
     dance-single:
     :
     Challenge:
     11:
     0.675672,0.748810,0.465100,0.329147,0.475833,661.000000,596.000000,65.000000,46.000000,22.000000,2.000000,0.675672,0.748810,0.465100,0.329147,0.475833,661.000000,596.000000,65.000000,46.000000,22.000000,2.000000:
// measure 0
0000
0000
0000
0000
,  // measure 1
0000
0000
0000
0000
,  // measure 2
0000
0000
0000
0000
,  // measure 3
0001
0000
0010
0000
0100
0000
0000
0000
0010
0000
0001
0000
1000
0000
0010
0000
1000
0001
1000
0001
1000
0000
0100
0000
0010
0000
0001
0000
0010
0000
0001
0000
,  // measure 4
1001
0001
0100
0010
1000
0100
0010
0100
,  // measure 5
1000
0001
0100
0010
2000
0000
0001
0000
,  // measure 6
3100
0100
0100
0010
0001
1000
0010
0100
,  // measure 7
0001
0000
0000
1000
0000
0000
0010
0000
0000
1000
0000
0000
0001
0000
0000
0010
0000
0000
0100
0000
0000
1000
0000
0000
0001
0000
0010
0000
0001
0000
1000
0000
0010
0000
0100
0000
0004
0000
0000
0000
0000
0000
0000
0000
0000
0000
0000
0000
,  // measure 8
0103
0000
0100
0000
0010
0000
0010
1000
,  // measure 9
0000
0000
0000
0000
1000
0000
0000
0000
0000
0000
0000
0000
0001
0000
0000
0000
0000
0000
0000
0000
0001
0000
0000
0000
0000
0000
0000
0000
0100
00M0
0100
0000
,  // measure 10
1000
0000
1000
0000
0100
0000
0100
1000
,  // measure 11
0001
1000
0001
0100
0010
0100
0001
0000
,  // measure 12
1000
0000
0100
0000
1000
0000
0001
0000
0100
0001
1000
0100
0010
0100
1000
0001
,  // measure 13
0400
0000
0000
0000
,  // measure 14
0301
0000
1000
0000
0100
0000
0010
0001
,  // measure 15
0011
1001
0101
MMMM
,  // measure 16
1001
0000
1000
0100
0020
0000
0031
0000
2000
0000
3010
0000
0200
0000
0310
0000
,  // measure 17
2000
0000
3001
0000
0020
0000
0230
0000
1300
0001
0200
0000
0320
0000
1030
0100
,  // measure 18
1010
0000
0101
0000
1010
0100
1000
0010
0001
M000
0001
0000
1010
0000
0100
0000
,  // measure 19
0001
M000
0001
0000
1100
0000
0010
0000
0001
0000
0010
1000
0002
0000
1003
0000
,  // measure 20
1001
0000
1000
0010
0200
0000
0301
0000
2000
0000
3100
0000
0020
0000
0130
0000
,  // measure 21
1000
0001
1000
0001
0200
0000
0310
0000
2000
0000
3001
0000
0010
0000
0001
0100
,  // measure 22
0011
1100
0011
1000
1000
1000
1000
0010
,  // measure 23
0001
0000
0010
0000
1000
0000
0000
0000
0001
0000
0010
0000
0100
0000
0000
0000
1000
0001
1000
0001
1000
0000
0000
0000
0010
0000
0100
0000
0010
0000
0100
0000
,  // measure 24
0101
0000
0001
1000
0200
0000
1300
0000
0002
0000
0103
0000
0020
0000
1030
0000
,  // measure 25
0002
0000
0013
0000
0200
0000
0320
0000
0031
1000
0010
0000
1001
0000
2010
0000
,  // measure 26
3101
0000
1010
0000
0101
0010
0001
0100
1000
000M
1000
0000
0101
0000
0010
0000
,  // measure 27
1000
0M00
1000
0000
0011
0000
0100
0000
1000
0000
0100
0001
2000
0000
3010
0000
,  // measure 28
1010
1000
0001
0001
0010
0010
0100
0100
,  // measure 29
1000
0000
1000
0000
0001
0000
0001
0000
0100
0000
0010
0000
1000
0000
0100
1000
,  // measure 30
0011
1100
0011
0000
0000
0000
1010
0101
,  // measure 31
1010
0000
0000
0000
0002
0000
0003
0000
2000
0000
3000
0000
0000
0020
0000
0030
,  // measure 32
0110
0010
1000
0001
,  // measure 33
0010
0100
1000
0001
,  // measure 34
0100
0010
0100
0001
,  // measure 35
1000
0100
0010
0001
,  // measure 36
1000
0001
0100
0010
1000
0001
0010
0100
,  // measure 37
1000
0001
0100
0010
0100
0001
1000
0100
0040
0000
0000
0000
0000
0000
0030
0000
,  // measure 38
0011
0000
0000
0000
0001
0000
0000
0100
0010
1000
0001
0000
0010
0000
0001
0000
,  // measure 39
1001
0000
0000
0000
0000
0000
0101
0000
0000
0000
0000
0000
1000
0000
0000
0000
0000
0000
0001
0000
0000
0100
0000
0000
0001
0000
0000
1000
0000
0000
0100
0000
0000
0000
0000
0000
0010
0000
0001
0000
1000
0000
0010
0000
0100
0000
0001
0000
,  // measure 40
1000
0000
0000
0000
1010
0000
0000
0000
0001
0010
0001
1000
0010
0100
0001
0010
,  // measure 41
0100
0000
0000
0000
1000
0001
0100
0001
1000
0000
1000
0000
0100
0000
0100
0000
,  // measure 42
0110
0000
0000
0000
0011
0000
0000
0000
0001
0100
0001
1000
0010
0100
0001
0010
,  // measure 43
0100
0000
0000
0000
1000
0001
0010
0001
1000
0000
1000
0000
0010
0000
0010
0000
,  // measure 44
0100
0000
0001
0000
1000
0000
0100
0000
1000
0001
1000
0001
0100
0010
0100
0010
,  // measure 45
4000
0000
0000
0000
,  // measure 46
3001
0100
0001
1000
0100
1000
0001
0010
0001
1000
0010
1000
0001
0100
0001
1000
,  // measure 47
1100
1001
0101
MMMM
,  // measure 48
2000
0000
0000
3001
0100
0000
0000
0000
0010
0000
0000
0000
1000
0000
0000
0000
,  // measure 49
0001
0000
0000
0000
1000
0000
0100
0000
0010
0000
0001
0000
1000
0000
0001
0100
,  // measure 50
0011
0000
1100
0000
0011
0100
0001
0010
1000
000M
1000
0000
0011
0000
0100
0000
,  // measure 51
1000
00M0
1000
0000
0101
0000
0010
0000
1000
0000
0010
0001
2000
0000
3001
0000
,  // measure 52
1001
0000
0001
0010
0200
0000
1300
0000
0002
0000
0103
0000
0020
0000
0130
0000
,  // measure 53
0001
1000
0001
1000
0200
0000
0310
0000
0002
0000
1003
0000
0010
0000
1000
0100
,  // measure 54
1010
0101
1010
0001
0001
0001
0001
0010
,  // measure 55
1000
0000
0010
0000
0001
0000
0000
0000
1000
0000
0010
0000
0100
0000
0000
0000
0001
1000
0001
1000
0001
0000
0000
0000
0010
0000
0100
0000
0010
0000
0100
0000
,  // measure 56
1100
0000
1000
0001
0200
0000
0301
0000
2000
0000
3100
0000
0020
0000
0031
0000
,  // measure 57
2000
0000
3010
0000
0200
0000
0320
0000
1030
0001
0010
0000
1001
0000
0012
0000
,  // measure 58
1103
0000
0011
0000
1100
0010
1000
0100
0001
M000
0001
0000
1100
0000
0010
0000
,  // measure 59
0001
0M00
0001
0000
1010
0000
0100
0000
0001
0000
0100
1000
0002
0000
0013
0000
,  // measure 60
0011
0001
1000
0100
0010
0010
0100
0100
,  // measure 61
1000
0000
1000
0000
0001
0000
0001
0000
0100
0000
0001
0000
1000
0000
0010
1000
,  // measure 62
0101
0000
1010
0000
0101
0000
1000
0000
0010
0000
1000
0001
0010
0000
0001
0000
,  // measure 63
0000
0000
0001
0000
1000
0000
0010
0000
0000
0000
0010
0000
0000
0000
1000
0001
,  // measure 64
2001
0000
0000
0000
0000
0000
0000
0000
3200
0000
0000
0000
0000
0000
0000
0000
0301
M000
0001
0000
0010
0000
0100
0000
0001
M000
0001
0000
0010
0000
0100
0000
,  // measure 65
1000
0000
0001
0100
0010
1000
0100
0010
,  // measure 66
0001
0000
0000
0000
0000
0000
0000
0000
1000
0000
0000
0000
0000
0000
0000
0000
0010
0000
0000
0000
0000
0100
0000
0000
0001
0000
0000
0000
0000
0000
0000
0000
1000
0000
0000
0000
0000
0000
0000
0000
0100
0000
0000
0000
0000
0000
0000
0000
0010
0000
0000
0000
0000
0100
0000
0000
1000
0000
0000
0000
0000
0000
0000
0000
,  // measure 67
0001
0000
0000
0000
0000
0000
0000
0000
0100
0000
0000
0000
0000
0000
0000
0000
0001
0000
0000
0000
0000
1000
0000
0000
0100
0000
0000
0000
0000
0000
0000
0000
0010
0000
0000
0000
0000
0000
0000
0000
0001
0000
0000
0000
0000
0000
0000
0000
1000
0000
0000
0000
0000
0000
0000
0000
0010
0000
0000
0000
0000
0000
0000
0000
,  // measure 68
M012
0000
0000
0000
0000
0000
0000
0000
0203
0000
0000
0000
0000
0000
0000
0000
1300
000M
1000
0000
0010
0000
0100
0000
1000
000M
1000
0000
0010
0000
0100
0000
,  // measure 69
0001
0000
1000
0100
0010
0001
0100
0010
,  // measure 70
1000
0000
0000
0000
0000
0000
0000
0000
0001
0000
0000
0000
0000
0000
0000
0000
0010
0000
0000
0000
0000
0100
0000
0000
0010
0000
0000
0000
0000
0000
0000
0000
0001
0000
0000
0000
0000
0000
0000
0000
1000
0000
0000
0000
0000
0000
0000
0000
0010
0000
0000
0000
0000
0100
0000
0000
0001
0000
0000
0000
0000
0000
0000
0000
,  // measure 71
1000
0000
0000
0000
0000
0000
0000
0000
0100
0000
0000
0000
0000
0000
0000
0000
1000
0000
0000
0000
0000
0001
0000
0000
0100
0000
0000
0000
0000
0000
0000
0000
0010
0000
0000
0000
0000
0000
0000
0000
1000
0000
0000
0000
0000
0000
0000
0000
0100
0000
0000
0000
0000
0000
0000
0000
0010
0000
0000
0000
0000
0000
0000
0000
,  // measure 72
1001
0000
0001
0000
0100
0000
0010
1000
,  // measure 73
1010
1001
0001
1000
0100
0010
1000
0010
,  // measure 74
0002
0000
0000
0003
;

//---------------dance-single - ----------------
#NOTES:
     dance-single:
     :
     Hard:
     9:
     0.535631,0.615094,0.436478,0.386390,0.100175,524.000000,463.000000,61.000000,54.000000,8.000000,16.000000,0.535631,0.615094,0.436478,0.386390,0.100175,524.000000,463.000000,61.000000,54.000000,8.000000,16.000000:
0000
0000
0000
0000
,
0000
0000
0000
0000
,
0000
0000
0000
0000
,
0001
0010
0100
1000
0004
0000
1003
0001
,
1001
0001
0100
0010
1000
0100
0010
0100
,
1000
0001
0100
0010
2000
0000
0100
0000
,
3001
0010
0001
1000
0010
0100
0001
1000
,
0001
0010
0100
0000
1000
0010
0100
0000
0004
0000
0000
0000
4003
0000
0000
0000
,
3100
0000
0100
0000
0010
0000
0010
0001
,
0000
0000
0001
0000
0000
0000
1000
0000
0000
0000
1000
0000
0000
0000
0010
0100
,
0001
0000
1000
0000
0100
0000
0100
1000
,
0001
1000
0001
0100
0010
0100
0001
0000
,
1000
0000
0100
0000
1000
0000
0001
0000
0100
0001
1000
0000
0100
1000
0001
0000
,
0400
0000
0000
0000
,
0301
0000
1000
0000
0100
0000
0010
0001
,
0011
1001
0101
MMMM
,
1001
0000
0000
1000
0200
0000
0000
0000
0320
0000
0000
0000
0032
0000
0000
0000
,
2003
0000
3010
0100
0001
1000
0010
2000
,
3101
1010
0101
1000
0001
0200
0311
1000
,
0001
0020
0131
1000
0001
0100
0010
1000
,
1010
0000
0000
1000
0002
0000
0000
0000
0023
0000
0000
0000
0230
0000
1300
0000
,
0001
0100
0002
0000
1003
0001
0001
0200
,
0311
1100
0011
1000
0001
1000
0001
0010
,
0100
1000
0001
0000
0100
0010
1000
0000
0004
0000
0000
0000
0103
0000
0010
0000
,
0110
0000
0000
0100
0002
0000
0000
0000
2003
0000
0000
0000
3200
0000
0000
0000
,
0320
0000
0130
1000
0001
0010
0001
0200
,
0311
1100
0011
1000
0001
0020
0131
1000
,
0001
0200
0311
1000
0001
0010
0100
1000
,
1001
0001
0100
0001
1000
0100
1000
0001
,
0100
0010
0100
0001
1000
0010
1000
0002
,
1013
0101
1010
0000
0000
0000
0011
1100
,
0011
0000
0000
0000
2000
0000
3000
0000
0002
0000
0003
0000
0000
0200
0000
0300
,
0110
0010
1000
0001
,
0010
0100
1000
0001
,
0100
0010
0100
0001
,
1000
0100
0010
0001
,
1000
0001
0100
0010
1000
0001
0010
0100
,
1000
0001
0100
0000
0010
1000
0001
0000
0400
0000
0000
0000
0000
0000
0300
0000
,
0110
0000
0010
0000
1000
0000
0001
0010
,
0100
1000
0010
1000
0001
0100
1000
0100
,
0101
0000
0000
0000
1001
0000
0000
0000
0001
1000
0001
0000
1000
0001
1000
0000
,
0100
0000
0010
0001
0100
0010
1000
0100
,
1100
0000
0000
0000
1001
0000
0000
0000
0001
0100
0001
0000
1000
0010
1000
0000
,
0001
0000
0010
0100
1000
0001
0100
0010
,
1000
0000
0001
0000
1000
0000
0100
0000
0010
0001
0010
0000
0001
1000
0001
0000
,
0400
0000
0000
0000
0000
0000
0000
0000
0000
0000
0000
0000
0000
0000
0000
0300
,
1010
0000
1001
0000
1100
0000
0100
0010
,
0011
1001
0101
MMMM
,
2000
0000
0000
3001
0100
0000
0000
0000
0010
0000
0000
0000
1000
0000
0000
0000
,
0001
0000
1000
0100
0010
0001
1000
0020
,
1130
0011
1100
0001
1000
0200
1310
0001
,
1000
0020
1130
0001
1000
0100
0010
0001
,
0011
0000
0000
0001
2000
0000
0000
0000
3020
0000
0000
0000
0230
0000
0301
0000
,
1000
0100
2000
0000
3001
1000
1000
0200
,
1310
0101
1010
0001
1000
0001
1000
0010
,
0100
0001
1000
0000
0100
0010
0001
0000
4000
0000
0000
0000
3100
0000
0010
0000
,
0110
0000
0000
0100
2000
0000
0000
0000
3002
0000
0000
0000
0203
0000
0000
0000
,
0320
0000
0130
0001
1000
0010
1000
0200
,
1310
0101
1010
0001
1000
0020
1130
0001
,
1000
0200
1310
0001
1000
0010
0100
0001
,
1001
1000
0100
1000
0001
0100
0001
1000
,
0100
0010
0100
1000
0001
0010
0001
2000
,
3011
1100
0011
0000
1000
0000
1000
0001
,
0000
0001
0010
0100
0000
0100
0000
1000
,
2001
0000
0000
0000
3200
0000
0300
0000
0010
0001
0100
0000
0010
1000
0100
0000
,
0010
0000
0001
0100
0010
1000
0001
0010
,
0100
1000
0020
0000
0230
0000
0302
0000
,
2003
0000
3100
0010
0001
0100
0010
1000
,
2010
0000
0000
0000
3002
0000
0003
0000
0100
0001
0010
0000
0100
1000
0010
0000
,
0100
0000
0001
1000
0100
0010
0001
1000
,
0010
0100
0020
0000
2030
0000
3002
0000
,
0023
0000
0130
1000
0001
0100
0010
1000
,
1001
0000
0001
0000
0010
0000
0100
0010
,
0001
1000
0100
1000
0001
0100
1000
0100
,
0002
0000
0000
0003
;

//---------------dance-single - ----------------
#NOTES:
     dance-single:
     :
     Medium:
     6:
     0.346525,0.427892,0.193195,0.336303,0.000000,339.000000,312.000000,27.000000,47.000000,0.000000,0.000000,0.346525,0.427892,0.193195,0.336303,0.000000,339.000000,312.000000,27.000000,47.000000,0.000000,0.000000:
0000
0000
0000
0000
,
0000
0000
0000
0000
,
0000
0000
0000
0000
,
0001
0100
0020
1030
,
1001
0001
0010
0100
,
1000
0001
2000
3000
,
0001
0010
0001
0000
1000
0000
0010
0000
,
0200
0302
4003
3200
,
0310
0000
0001
0000
1000
0000
0010
0100
,
0000
0010
0000
1000
0000
0001
0000
0010
,
0100
0000
1000
0000
0001
0000
0100
0010
,
0000
0100
0000
0001
0000
1000
0000
0000
,
0100
0010
0002
2003
,
3040
0000
0000
0000
,
0130
0000
0001
0000
1000
0000
0100
0010
,
0001
1000
0010
0000
,
1001
2000
3002
0203
,
0320
0000
0130
0001
1000
0100
0010
0000
,
0001
1000
0001
0000
0100
0010
0110
0000
,
1000
0001
1001
0000
0001
0000
0010
0000
,
0011
0002
2003
3020
,
0430
0302
1003
0001
,
0010
0100
0010
0000
0001
0000
1000
0000
,
0010
0100
0002
1003
,
1001
2000
3200
0320
,
0032
0000
1003
0010
0100
0010
1000
0000
,
0001
0100
0001
0000
1000
0100
1100
0000
,
1000
0001
0011
0000
0001
0000
1000
0000
,
1010
1000
1000
0001
,
0001
0010
0010
0100
,
1000
0001
1000
0000
0000
0000
0010
0100
,
0010
0000
2000
3000
0002
0003
0200
0300
,
0010
0010
1000
1000
,
0001
0001
0010
0010
,
0100
0100
1000
1000
,
0001
0001
0100
0100
,
0010
1000
0100
0010
,
0002
0000
0000
0000
2003
0000
0000
0000
3040
0000
0000
0000
0000
0000
0000
0030
,
0110
0010
1000
0001
,
0010
0000
0001
0000
1000
0000
0020
0030
,
1010
1001
0001
0010
,
0100
0010
0001
1000
,
1100
1001
0001
0100
,
0010
0100
0001
1000
,
0100
0010
0001
0100
,
0040
0000
0000
0000
0000
0000
0000
0000
0000
0000
0000
0000
0000
0000
0000
0030
,
1000
0000
0001
0000
1000
0000
0100
0010
,
0011
1001
0101
0000
,
1000
0001
0010
0100
,
1000
0000
0001
0100
0001
1000
0010
0000
,
1000
0001
1000
0000
0100
0010
0110
0000
,
0001
1000
1001
0000
1000
0000
0010
0000
,
1010
2000
3002
0023
,
0430
2300
3001
1000
,
0010
0100
0010
0000
1000
0000
0001
0000
,
0010
0100
2000
3001
,
1001
0002
0203
0320
,
2030
0000
3001
0010
0100
0010
0001
0000
,
1000
0100
1000
0000
0001
0100
0101
0000
,
0001
1000
1010
0000
1000
0000
0001
0000
,
0011
0001
0001
1000
,
1000
0010
0010
0100
,
0001
1000
0001
0000
0010
0000
0100
0010
,
0000
0001
0000
1000
0000
0001
0000
0100
,
0102
0000
1003
0000
0100
0010
0001
0000
,
1000
0000
0010
0100
0001
1000
0100
0010
,
0001
2000
3020
2030
,
3002
0013
0100
1000
,
2001
0000
3010
0000
0100
0001
1000
0000
,
0100
0000
0010
0001
0100
0010
1000
0001
,
0010
0200
2300
3002
,
0203
0310
1000
0001
,
1001
0001
0010
0100
,
1000
0000
0001
0000
0100
0000
0002
0003
,
2000
0000
0000
3000
;

//---------------dance-single - ----------------
#NOTES:
     dance-single:
     :
     Easy:
     3:
     0.191151,0.240689,0.064398,0.121641,0.000000,187.000000,178.000000,9.000000,17.000000,0.000000,0.000000,0.191151,0.240689,0.064398,0.121641,0.000000,187.000000,178.000000,9.000000,17.000000,0.000000,0.000000:
0000
0000
0000
0000
,
0000
0000
0000
0000
,
0000
0000
0000
0000
,
0001
0100
0010
1000
,
1001
0000
0001
0000
,
0010
0000
0100
0000
,
1000
0001
1000
0000
,
0200
0000
0320
0000
,
0031
0000
1000
0000
,
0010
0000
0100
0000
,
0010
0000
1000
0000
,
0001
0000
0010
0000
,
0100
1000
0002
0000
,
0203
0000
0000
0000
,
0310
1000
0001
0010
,
0100
0010
0001
0000
,
1001
2000
0000
3020
,
0000
0130
0001
1000
,
0100
0010
0000
0001
,
0000
1000
0010
0100
,
0101
0002
0000
2003
,
0000
3100
0010
0001
,
1000
0010
0000
0000
,
0100
0001
1000
0000
,
1001
2000
0000
3200
,
0000
0310
0001
1000
,
0010
0100
0000
0001
,
0000
1000
0000
0100
,
1100
1000
0000
0001
,
0000
0100
0000
0010
,
1000
0001
0000
0010
,
0100
0000
0000
0000
,
1000
0000
0001
0000
,
0100
0000
0010
0000
,
1000
0000
0001
0000
,
0010
0000
0100
0000
,
1000
0000
0001
0000
,
0100
0000
0000
0000
0000
0000
0000
0000
0020
0000
0000
0000
0000
0000
0000
0030
,
0110
0000
1000
0000
,
0001
0000
0010
0000
,
0100
1000
0000
0001
,
0100
0000
0010
1000
,
0001
0010
0000
0001
,
1000
0000
0001
0100
,
0010
0000
1000
0000
,
0002
0000
0000
0000
,
1003
0001
1000
0100
,
0010
0001
1000
0000
,
0010
0000
0100
0000
,
0001
0000
1000
0000
,
0100
0010
0000
0001
,
0000
1000
0010
0100
,
0101
0002
0000
2003
,
0000
3100
0010
0001
,
1000
0010
0000
0000
,
0100
0001
1000
0000
,
1001
2000
0000
3200
,
0000
0310
0001
1000
,
0010
0100
0000
0001
,
0000
1000
0000
0100
,
1100
1000
0000
0001
,
0000
0100
0000
0010
,
1000
0001
0010
0000
,
0100
0000
0010
0000
,
0001
0000
1000
0010
,
1000
0000
0001
0000
,
0010
0000
0100
0000
,
1000
0000
0001
0000
,
0100
0000
0001
1000
,
0001
0000
0010
0000
,
0100
0000
1000
0000
,
0001
0000
0100
0000
,
0001
0000
1000
0000
,
0100
0000
0010
0000
,
0002
0000
0000
0003
;

//---------------dance-single - ----------------
#NOTES:
     dance-single:
     :
     Beginner:
     1:
     0.072576,0.080230,0.000000,0.007155,0.000000,71.000000,71.000000,0.000000,1.000000,0.000000,0.000000,0.072576,0.080230,0.000000,0.007155,0.000000,71.000000,71.000000,0.000000,1.000000,0.000000,0.000000:
0000
0000
0000
0000
,
0000
0000
0000
0000
,
0000
0000
0000
0000
,
0000
0000
0000
0000
,
0001
0000
0000
0000
,
0100
0000
0000
0000
,
0010
0000
0000
0000
,
1000
0000
0000
0000
,
0001
0000
0000
0000
,
0010
0000
0000
0000
,
0100
0000
0000
0000
,
1000
0000
0000
0000
,
0001
0000
0000
0000
,
0100
0000
0000
0000
,
0010
0000
0000
0000
,
0100
0000
0000
0000
,
0001
0000
0000
0000
,
1000
0000
0000
0000
,
0100
0000
0000
0000
,
0010
0000
0000
0000
,
0100
0000
0000
0000
,
1000
0000
0000
0000
,
0001
0000
0000
0000
,
0100
0000
0000
0000
,
0010
0000
0000
0000
,
1000
0000
0000
0000
,
0001
0000
0000
0000
,
0010
0000
0000
0000
,
0100
0000
0000
0000
,
1000
0000
0000
0000
,
0001
0000
0000
0000
,
0100
0000
0000
0000
,
0001
0000
0000
0000
,
1000
0000
0000
0000
,
0010
0000
0000
0000
,
0100
0000
0000
0000
,
0010
0000
0000
0000
,
1000
0000
0000
0000
,
0001
0000
0000
0000
,
0010
0000
0000
0000
,
0100
0000
0000
0000
,
0010
0000
0000
0000
,
0001
0000
0000
0000
,
1000
0000
0000
0000
,
0010
0000
0000
0000
,
0100
0000
0000
0000
,
0001
0000
0000
0000
,
1000
0000
0000
0000
,
0100
0000
0000
0000
,
0010
0000
0000
0000
,
0001
0000
0000
0000
,
1000
0000
0000
0000
,
0010
0000
0000
0000
,
1000
0000
0000
0000
,
0001
0000
0000
0000
,
0010
0000
0000
0000
,
0100
0000
0000
0000
,
1000
0000
0000
0000
,
0001
0000
0000
0000
,
0100
0000
0000
0000
,
0001
0000
0000
0000
,
1000
0000
0000
0000
,
0010
0000
0000
0000
,
0100
0000
0000
0000
,
0001
0000
0000
0000
,
1000
0000
0000
0000
,
0100
0000
0000
0000
,
0010
0000
0000
0000
,
0001
0000
0000
0000
,
1000
0000
0000
0000
,
0010
0000
0000
0000
,
1000
0000
0000
0000
,
0001
0000
0000
0000
,
0010
0000
0000
0000
,
0200
0000
0000
0300
;
