#TITLE:Glitch Nerds;
#SUBTITLE:;
#ARTIST:かめりあ;
#TITLETRANSLIT:;
#SUBTITLETRANSLIT:;
#ARTISTTRANSLIT:Camellia;
#GENRE:;
#CREDIT:;
#BANNER:Glitch Nerds-bn.png;
#BACKGROUND:Glitch Nerds-bg.png;
#LYRICSPATH:;
#CDTITLE:loodeecdtitle.png;
#MUSIC:Glitch Nerds.ogg;
#OFFSET:0.004000;
#SAMPLESTART:48.005001;
#SAMPLELENGTH:27.429001;
#SELECTABLE:YES;
#BPMS:0.000000=140.000000
;
#STOPS:
;
#BGCHANGES:;
#KEYSOUNDS:;
#ATTACKS:;

//---------------dance-single - ----------------
#NOTES:
     dance-single:
     :
     Challenge:
     12:
     0.813339,1.032007,0.340002,0.580004,1.216675,854.000000,803.000000,51.000000,87.000000,34.000000,0.000000,0.813339,1.032007,0.340002,0.580004,1.216675,854.000000,803.000000,51.000000,87.000000,34.000000,0.000000:
// measure 0
0000
0000
0000
0000
,  // measure 1
0000
0000
0000
0000
,  // measure 2
0000
0000
0000
0000
,  // measure 3
0000
0000
0000
0000
,  // measure 4
0000
0000
0000
0000
,  // measure 5
0000
0000
0000
0000
,  // measure 6
0000
0000
0000
0000
,  // measure 7
0000
0000
0000
0000
0000
0000
0000
0000
0000
0000
0000
0000
0000
0000
0000
0000
0000
0000
0001
0000
1000
0000
0001
0000
1000
0000
0000
0000
0000
0000
0000
0000
0000
0100
0000
0000
0000
0000
0000
0000
0000
0000
0010
0000
0000
0000
0000
0000
,  // measure 8
0012
0000
0000
0003
1001
0000
0000
1000
0001
0100
0010
0100
0001
0000
0040
0000
,  // measure 9
0130
0000
0100
0000
1100
0000
0000
1000
0010
0100
0002
0003
2000
3000
0002
0003
,  // measure 10
0010
0000
0000
0000
0000
0000
0010
0000
0000
0000
0000
0000
0011
0000
0000
0000
0000
0000
0000
0000
0000
0001
0000
0000
1000
0000
0000
0000
1000
0000
0000
0000
1000
0000
0000
0000
1020
0000
0000
0000
0000
0000
0000
0000
0000
0000
0000
0000
,  // measure 11
0130
0000
0002
0003
0110
0000
0002
0003
1000
0100
0020
0030
0100
2000
3000
0000
,  // measure 12
1020
0000
0000
0030
0110
0000
0000
0000
1001
0000
0000
0000
0011
0000
0000
0000
,  // measure 13
1001
0000
0000
0000
0000
0000
0000
0000
1010
0000
0000
0000
0000
0000
0000
0000
0110
0000
0000
0000
0002
0000
0003
0000
2000
0000
3000
0000
0002
0000
0013
0100
,  // measure 14
0010
0000
0000
0000
0001
0000
0000
0000
1000
0000
0000
0000
0010
0000
1000
0001
1000
0000
0000
0000
0100
0000
0000
0000
0010
0000
0000
0000
0001
0000
1000
0010
,  // measure 15
1000
0000
0001
0000
0010
0000
0100
1000
0100
0000
1000
0000
0001
0000
0100
0001
0100
0000
0000
0000
0010
0000
0100
0000
0000
0000
0001
0000
1000
0001
1000
0000
,  // measure 16
0200
0000
0000
0000
,  // measure 17
0000
0000
0000
0300
,  // measure 18
0000
0000
0000
0000
0000
0000
1000
0100
0000
1000
0001
0000
0100
0010
1000
0001
,  // measure 19
0000
0010
0100
0000
0010
0001
1000
0010
0000
0100
0010
0000
2000
0000
3000
0000
,  // measure 20
1001
0001
0010
0000
0001
1000
0010
0100
0000
0010
1000
0000
0001
0010
0100
0010
,  // measure 21
0000
0001
1000
0000
0010
0100
0010
0001
0000
0001
0010
0000
1000
0001
0000
0010
,  // measure 22
0000
0100
0010
0000
0001
1000
0010
0100
0000
0010
1000
0000
0001
0010
0100
1000
,  // measure 23
0000
0000
0010
0000
1000
0000
0000
0000
0001
0000
0010
0000
0100
0000
0001
0000
0000
0000
0001
0000
0100
0000
0000
0000
1000
0000
0010
0000
1000
0000
0001
1000
,  // measure 24
0001
0000
0000
0000
0100
0000
0000
0000
0001
0000
0000
0000
0100
0000
0010
1000
0010
0000
0000
0000
1000
0000
0000
0000
0001
0000
0000
0000
1000
0000
0100
0010
,  // measure 25
0100
0000
0000
0000
0010
0000
0000
0000
0100
0000
0000
0000
1000
0000
0001
0100
0001
0000
0000
0000
0100
0000
0000
0000
0010
0000
0000
0000
1000
0000
0001
1000
,  // measure 26
0001
0000
0010
0000
0100
0000
0010
0000
0001
0000
0100
0000
0010
0000
1000
0010
1000
0000
0001
0000
1000
0000
0100
1000
0100
0000
0010
0000
0001
0000
1000
0001
,  // measure 27
1000
0000
0010
0000
0100
0000
0001
0100
0001
0000
1000
0000
0001
0000
0010
0001
0040
0000
0030
0000
0000
0000
0000
0000
0400
0000
0300
0000
0000
0000
0000
0000
,  // measure 28
2100
0000
0000
3000
1001
0000
0002
0000
1003
0010
0M00
0010
0201
0000
1300
0000
,  // measure 29
0001
0000
0010
0000
0100
M000
0100
0000
0022
0000
0033
0000
0100
M000
0100
0000
1000
0000
0001
1000
0001
0000
0010
0000
0100
0000
0000
0000
0100
0000
1000
0000
,  // measure 30
0012
0000
0000
0000
0000
0000
0000
0000
0000
0003
0000
0000
1001
0000
0000
0000
0000
0000
2000
0000
0000
0000
0000
0000
3100
0000
0000
0000
0100
0000
0000
0000
0100
0000
0000
0000
0020
0000
0000
0000
0000
0000
0000
0000
0000
0030
0000
0000
,  // measure 31
0044
0033
0000
0000
4004
3003
0000
0000
4040
3030
0000
0404
0303
0000
0011
0000
,  // measure 32
0210
0000
0000
0300
1100
0000
2000
0000
3001
0010
0M00
0010
1200
0000
0301
0000
,  // measure 33
0010
0000
0000
0000
0000
0000
0000
0000
0000
0000
0000
0000
0001
0000
0000
0000
0000
0000
0000
0000
0000
0000
0000
0000
0100
0000
0000
0000
0000
0000
00M0
0000
0000
0000
0000
0000
0100
0000
0000
0000
0000
0000
0000
0000
0000
0000
0000
0000
2020
0000
0000
0000
0000
0000
0000
0000
0000
0000
0000
0000
3030
0000
0000
0000
0000
0000
0000
0000
0000
0000
0000
0000
0100
0000
0000
0000
0000
0000
000M
0000
0000
0000
0000
0000
0100
0000
0000
0000
0000
0000
0000
0000
0000
0000
0000
0000
0001
0000
0000
0000
0000
0000
0000
0000
0000
0000
0000
0000
1000
0000
0000
0000
0000
0000
0001
0000
0000
0000
0000
0000
1000
0000
0000
0000
0000
0000
0000
0000
0100
0000
0000
0000
0000
0000
0000
0000
0010
0000
0000
0000
0000
0000
0000
0000
0400
0000
0000
0000
0000
0000
0000
0000
0000
0000
0000
0000
0000
0000
0000
0000
0000
0000
0000
0000
0000
0000
0000
0000
1300
0000
0000
0000
0000
0000
0000
0000
0000
0000
0000
0000
0001
0000
0000
0000
0000
0000
0000
0000
0000
0000
0000
0000
,  // measure 34
0200
0000
0000
0000
0000
0000
0310
0000
0000
0000
0000
0000
2000
0000
0000
0000
0000
0000
3100
0000
0000
0000
0000
0000
0110
0000
0000
0000
0010
0000
0000
0000
0001
0000
0000
0000
2002
0000
0000
0000
0000
0000
0000
0000
0000
3003
0000
0000
,  // measure 35
1001
0000
0000
0000
0000
0000
0000
0000
0000
0000
0000
0000
0000
0000
0000
0000
0000
0000
0001
0100
0010
1000
0001
0010
,  // measure 36
0200
0000
0000
0000
1000
0000
0000
0000
0010
0000
0000
0310
0001
0000
1000
0000
,  // measure 37
0010
0000
0200
0000
0010
0000
0000
0000
0001
0000
0000
0301
1000
0000
0100
0000
,  // measure 38
0010
0000
0000
0000
0000
0000
0002
0000
0000
0000
0000
0000
0010
0000
0000
0000
0000
0000
0000
0000
0000
0000
0000
0000
1000
0000
0000
0000
0000
0000
0000
0000
0000
1003
0000
0000
0010
0000
1000
0000
0001
0000
0010
0000
0100
0000
0010
0000
,  // measure 39
0001
1000
0010
0100
0001
1000
0001
0010
0100
1000
0100
0010
0001
1000
0010
1000
0001
0100
0010
1000
0001
0010
0100
1000
,  // measure 40
0200
0000
0000
0000
0010
0000
0000
0000
1000
0000
0000
1300
0001
0000
0100
0000
,  // measure 41
0001
0000
0020
0000
0001
0000
0000
0000
0100
0000
0000
0130
1000
0000
0010
0000
,  // measure 42
0110
0000
0100
0001
1000
0000
1000
0000
1000
0000
1000
0100
0010
0000
0001
0000
,  // measure 43
1000
0000
0000
0010
0000
0000
0100
0000
0000
0001
0000
0000
1000
0000
0000
0010
0000
0000
0100
0000
0000
0001
0000
0000
1000
0000
0100
0000
1000
0000
0100
0000
0010
0000
0001
0000
1000
0000
0001
0000
1000
0000
0010
0000
0100
0000
0001
0000
,  // measure 44
0200
0000
0000
0000
0310
0000
0010
1000
0100
0010
M000
0010
2000
0000
0000
3001
,  // measure 45
0010
0000
0001
0000
0100
00M0
0100
0000
1000
0000
0000
0000
0010
0M00
0010
0000
0001
0000
1000
0001
1000
0000
0010
0000
0100
0000
0000
0000
0100
0000
0001
0000
,  // measure 46
0020
0000
0000
0000
1030
0000
1000
0010
0100
0000
4000
0000
3020
0000
0000
0130
,  // measure 47
0001
0000
0010
0000
0200
0000
0302
0000
0103
0010
0001
1000
0010
0100
0001
0010
,  // measure 48
0200
0000
0000
0000
0310
0000
0010
0001
1000
0100
00M0
0100
0002
0000
0000
0013
,  // measure 49
0001
0000
1000
0000
0010
0M00
0010
0000
0001
0000
0000
0000
0100
00M0
0100
0000
1000
0000
0001
0010
0001
0000
0010
0000
0100
0000
0000
0000
0100
0000
1000
0000
,  // measure 50
0020
0000
0000
0030
0200
0000
0000
0300
0002
0000
0000
1003
0200
0000
2300
0000
,  // measure 51
3020
0000
0230
0000
0320
0000
0000
0000
0032
0000
0000
0023
0000
0000
1030
0000
,  // measure 52
2001
0000
0000
0000
3000
0000
0100
0000
0010
0000
0000
0001
0000
0000
1000
0000
,  // measure 53
0020
0000
0130
0002
,  // measure 54
0023
0000
0000
0000
0030
0000
0100
0000
1000
0000
0000
0001
0000
0000
1000
0000
,  // measure 55
0010
0000
0000
0000
0000
0000
0100
0000
0000
0000
0000
0000
0001
0000
0000
0000
0020
0000
0000
0000
0000
0000
0130
1000
0200
0000
0000
0000
0000
0000
0000
0000
,  // measure 56
2300
0000
0000
0000
3000
0000
0001
0000
0100
0000
0000
0010
0000
0000
1000
0000
,  // measure 57
0002
0000
0013
0200
,  // measure 58
0320
0000
0000
0000
0030
0000
0100
0000
1000
0000
0000
0010
0000
0000
0100
0000
,  // measure 59
0001
0000
0000
0000
0000
0000
0000
0000
0000
1000
0000
0000
0000
0000
0000
0000
0000
0000
0100
0000
1000
0000
0100
0000
0010
0000
0000
0000
0000
0000
0001
0000
0000
1000
0000
0000
0001
0000
0000
0100
0000
0000
0010
0000
0000
1000
0000
0000
,  // measure 60
0200
0000
0010
0000
0310
0001
1000
0010
0000
0100
0010
0000
1000
0001
0010
0100
,  // measure 61
0000
1000
0001
0000
0100
0010
0100
1000
0000
1000
0100
0000
0001
0010
0100
0010
,  // measure 62
0000
0100
1000
0000
0001
0100
0010
1000
0000
0001
1000
0000
0100
0010
0001
0100
,  // measure 63
0000
0000
0010
0000
0100
0000
0000
0000
0001
0000
0010
0000
0100
0000
0001
0000
0000
0000
0001
0000
0100
0000
0000
0000
1000
0000
0010
0000
0100
0000
0001
1000
,  // measure 64
0001
0010
0100
1000
0001
0100
0001
1000
0001
0100
0010
1000
0001
0010
0001
1000
,  // measure 65
0001
0000
0100
0000
0010
0000
1000
0000
0001
0000
0010
0000
0100
0000
1000
0000
0001
0000
0100
0000
0010
0000
1000
0000
0001
0000
0010
0000
0100
0000
1000
0100
,  // measure 66
1000
0000
0001
0000
0100
0000
0010
0000
0100
0000
0001
0000
1000
0000
0100
1000
0100
0000
0010
0000
0001
0000
0010
0000
0100
0000
1000
0000
0001
0000
1000
0000
,  // measure 67
0040
0030
0000
0000
4000
3001
0011
0000
,  // measure 68
0001
0000
1000
0000
0010
000M
0010
0000
0100
0000
1000
0000
0010
0M00
0010
0000
0001
0000
1000
0000
0100
000M
0100
0000
0010
0000
1000
0000
0100
0000
0010
0000
,  // measure 69
0001
0000
1000
0000
0100
00M0
0100
0000
0001
0000
0100
0000
0010
0000
0001
0000
M000
0000
0001
0000
0100
0000
0010
0000
1000
0000
0001
0000
0010
0000
0100
0000
,  // measure 70
0010
0000
0001
0000
0100
00M0
0100
0000
1000
0000
0001
0000
0100
M000
0100
0000
0010
0000
0001
0000
0100
00M0
0100
0000
1000
0000
0001
0000
0100
0000
0010
0000
,  // measure 71
1000
0000
0001
0000
0010
0M00
0010
0000
1000
0000
0100
0000
0010
0000
1000
0000
000M
0000
1000
0000
0100
0000
0010
0000
0001
0000
0100
0000
0010
0000
1000
0000
,  // measure 72
0001
0000
1000
0000
0010
0M00
0010
0000
0001
0000
1000
0000
0100
00M0
0100
0000
0001
0000
1000
0000
0010
0M00
0010
0000
0001
0000
1000
0000
0100
00M0
0100
0000
,  // measure 73
0001
1000
0010
0100
0001
0010
0100
0001
M000
0001
0010
0100
1000
0010
0100
0001
,  // measure 74
1000
0000
0000
0100
0000
0000
0010
0000
0001
0000
1000
0000
0010
0000
0000
0000
0000
0000
1000
0000
0001
0000
0010
0000
0001
0000
0000
0000
0000
0000
0100
0000
0001
0000
1000
0000
0100
0000
0000
0000
0010
0000
0000
0000
1000
0000
0000
0000
,  // measure 75
0010
0000
0000
0000
0000
0000
0001
0000
0000
0000
0000
0000
1000
0000
0000
0010
0000
0000
0002
0000
0000
0000
0000
0000
0013
0000
0000
0100
0000
0000
0010
0000
0000
0100
0000
0000
0001
0000
1000
0000
0100
0000
0010
0000
0001
0000
1000
0000
,  // measure 76
0020
0000
0000
0030
0110
0000
2000
0000
3001
0100
00M0
0100
1020
0000
0031
0000
,  // measure 77
1000
0000
0100
0000
0010
000M
0010
0000
2200
0000
3300
0000
0001
0000
1000
0000
0000
0000
0001
0010
0002
0003
0000
0000
0220
0330
0000
0000
2200
3300
0000
0000
,  // measure 78
1020
0000
0000
0000
0000
0000
0000
0000
0000
0030
0000
0000
0110
0000
0000
0000
0000
0000
0002
0000
0000
0000
0000
0000
1003
0000
0000
0000
1000
0000
0000
0000
1000
0000
0000
0000
0200
0000
0000
0000
0000
0000
0000
0000
0000
0300
0000
0000
,  // measure 79
0044
0000
0033
0000
0004
0000
0100
0003
0400
0000
0000
0340
0000
0000
1030
0000
,  // measure 80
2200
0000
0000
3300
2010
0000
0000
3000
0001
0010
0M00
0010
1100
0000
1001
0000
,  // measure 81
0001
0000
0000
0000
0000
0000
0000
0000
0000
0000
0000
0000
0010
0000
0000
0000
0000
0000
0000
0000
0000
0000
0000
0000
0100
0000
0000
0000
0000
0000
M000
0000
0000
0000
0000
0000
0100
0000
0000
0000
0000
0000
0000
0000
0000
0000
0000
0000
0002
0000
0000
0000
0000
0000
0000
0000
0000
0000
0000
0000
0000
0000
0000
0000
0000
0000
0000
0000
0000
0000
0000
0000
0013
0000
0000
0000
0000
0000
0M00
0000
0000
0000
0000
0000
0010
0000
0000
0000
0000
0000
0000
0000
0000
0000
0000
0000
1000
0000
0000
0000
0000
0000
0000
0000
0000
0000
0000
0000
0001
0000
0000
0000
0000
0000
1000
0000
0000
0000
0000
0000
0001
0000
0000
0000
0000
0000
0000
0000
0100
0000
0000
0000
0000
0000
0000
0000
0010
0000
0000
0000
0000
0000
0000
0000
4000
0000
0000
0000
0000
0000
0000
0000
0000
0000
0000
0000
0000
0000
0000
0000
0000
0000
0000
0000
0000
0000
0000
0000
3001
0000
0000
0000
0000
0000
0000
0000
0000
0000
0000
0000
0000
0000
0000
0000
0000
0000
0000
0000
0000
0000
0000
0000
,  // measure 82
0012
0000
0000
0000
0000
0000
0000
0000
0000
0000
0000
0000
0000
0000
0000
0000
0000
0000
0000
0000
0000
0000
0000
0000
0000
0000
0000
0000
0000
0000
0000
0000
0000
0000
0000
0000
0003
0000
0000
0000
0000
0000
0000
0000
0000
0000
0000
0000
2001
0000
0000
0000
0000
0000
0000
0000
0000
0000
0000
0000
0000
0000
0000
0000
0000
0000
0000
0000
0000
0000
0000
0000
0000
0000
0000
0000
0000
0000
0000
0000
0000
0000
0000
0000
3000
0000
0000
0000
0000
0000
0000
0000
0000
0000
0000
0000
1100
0000
0000
0000
0000
0000
0000
0000
0000
0000
0000
0000
0000
0000
0000
0000
0000
0000
0000
0000
0000
0000
0000
0000
1000
0000
0000
0000
0000
0000
0001
0000
0000
0000
0000
0000
1000
0000
0000
0000
0000
0000
0000
0000
0000
0000
0000
0000
0000
0000
0000
0000
0000
0000
0000
0000
0000
0000
0000
0000
0000
0000
0000
0000
0000
0000
0000
0000
0000
0000
0000
0000
0001
0000
0000
0000
0000
0000
0000
0000
0100
0000
0000
0000
0000
0000
0000
0000
0001
0000
0000
0000
0000
0000
0000
0000
,  // measure 83
1000
0010
0100
0001
0010
0100
1000
0001
0010
0100
0010
0001
0100
0001
1000
0010
,  // measure 84
2010
3001
0000
0000
,  // measure 85
00M0
0000
0000
0000
,  // measure 86
00M0
0000
0000
0000
;

//---------------dance-single - ----------------
#NOTES:
     dance-single:
     :
     Hard:
     10:
     0.681909,0.926756,0.246668,0.433336,0.836672,716.000000,679.000000,37.000000,65.000000,17.000000,0.000000,0.681909,0.926756,0.246668,0.433336,0.836672,716.000000,679.000000,37.000000,65.000000,17.000000,0.000000:
// measure 0
0000
0000
0000
0000
,  // measure 1
0000
0000
0000
0000
,  // measure 2
0000
0000
0000
0000
,  // measure 3
0000
0000
0000
0000
,  // measure 4
0000
0000
0000
0000
,  // measure 5
0000
0000
0000
0000
,  // measure 6
0000
0000
0000
0000
,  // measure 7
0000
0000
0000
0000
,  // measure 8
0201
0000
0000
0000
0310
0000
0000
0000
1000
0100
0010
0001
1000
0000
0020
0000
,  // measure 9
0130
0000
0100
0000
0001
0000
0000
0000
1000
0001
0010
0000
0100
0000
0010
0000
,  // measure 10
0001
0000
0000
0101
0000
0000
0100
0010
1000
0002
0000
0000
,  // measure 11
0013
0000
0001
0000
1001
0000
1000
0000
0010
0000
0100
0000
0001
0100
0000
0000
,  // measure 12
2001
0000
0000
3000
1100
0000
0000
0000
0110
0000
0000
0000
0011
0000
0000
0000
,  // measure 13
0101
0000
0110
0000
1010
1000
0001
1000
,  // measure 14
0100
0000
0010
0000
0001
0000
1000
0010
0100
0000
0001
0000
0010
0000
0100
0010
,  // measure 15
0001
1000
0010
0100
0001
1000
0010
0100
0001
0000
1000
0001
0000
0001
0010
0100
,  // measure 16
2000
0000
0000
0000
,  // measure 17
0000
0000
0000
3000
,  // measure 18
0000
0000
0000
0000
0000
0000
0001
0100
0000
0010
1000
0000
0001
0010
0100
0010
,  // measure 19
0000
0100
1000
0000
0001
1000
0010
0100
0000
0001
1000
0000
0200
0000
0300
0000
,  // measure 20
0110
0000
0010
0000
0001
1000
0010
0100
0000
0010
0100
0000
0001
1000
0100
0010
,  // measure 21
0000
0100
0010
0000
0001
1000
0001
0010
0000
0010
0100
0000
1000
0100
0000
1000
,  // measure 22
0000
0001
1000
0000
0010
0100
0001
0100
0000
0001
0100
0000
0010
1000
0001
0010
,  // measure 23
0000
0001
0010
0000
0100
1000
0001
0100
0000
0100
0010
0000
1000
0010
0000
1000
,  // measure 24
0001
0000
0010
0000
0001
0000
1000
0001
0100
0000
0010
0000
0100
0000
0010
1000
,  // measure 25
0100
0000
0010
0000
0100
0000
0010
0001
0100
0000
0010
0000
0100
0000
0010
1000
,  // measure 26
0001
0010
0100
0010
0001
1000
0001
0100
0010
1000
0001
0010
0001
1000
0100
0010
,  // measure 27
0001
0100
0001
1000
0010
0100
0001
1000
0400
0000
0300
0000
0040
0000
0030
0000
,  // measure 28
0012
0000
0000
0003
1001
0000
1000
0000
0010
0100
000M
0100
2000
0000
0000
0000
,  // measure 29
3100
0010
0001
1000
0010
0000
0100
0010
0000
0010
1000
0001
0010
0000
0010
0100
,  // measure 30
2000
0000
0000
0000
0000
0000
0000
0000
0000
3000
0000
0000
1001
0000
0000
0000
0000
0000
0001
0000
0000
0000
0000
0000
0010
0000
0000
0000
0100
0000
0000
0000
1000
0000
0000
0000
0200
0000
0000
0000
0000
0000
0000
0000
0000
0300
0000
0000
,  // measure 31
0011
0000
0000
0000
0101
0000
0000
0000
1010
0000
0000
0110
0000
0000
1001
0000
,  // measure 32
0021
0000
0000
0030
0110
0000
0100
0000
1000
0010
0M00
0010
0002
0000
0000
0000
,  // measure 33
0103
0010
0100
0001
1000
0000
0100
1000
0000
1000
0100
0010
0001
0000
0001
0100
,  // measure 34
0020
0000
0000
0032
0000
0000
2003
0000
0000
3200
0000
0000
0310
0000
1000
0000
0001
0000
2001
0000
0000
0000
0000
0000
,  // measure 35
3100
0000
0000
0000
0000
0000
0000
0000
0000
0000
0000
0000
0000
0000
0000
0000
0000
0000
1000
0001
1000
0001
1000
0001
,  // measure 36
0200
0000
0000
0000
0010
0000
0000
0000
0001
0000
0000
0301
1000
0000
0100
0000
,  // measure 37
0010
0000
0200
0000
1000
0000
0000
0000
1000
0000
0000
1300
0001
0000
0100
0000
,  // measure 38
0010
0000
2000
0000
0001
0000
0000
0000
0100
0000
0000
3100
0010
0000
0001
0000
,  // measure 39
0000
0000
0000
0000
0000
0000
0001
0000
0000
0000
0000
0000
0101
0000
0000
0000
0000
0000
0000
0000
0000
0000
0000
0000
1000
0000
0000
0000
0000
0000
0000
0000
0000
1000
0000
0000
0001
0000
0010
0000
0001
0000
0010
0000
0001
0000
0010
0000
,  // measure 40
0200
0000
0000
0000
1000
0000
0000
0000
1000
0000
0000
0310
0001
0000
0100
0000
,  // measure 41
0010
2000
0010
0000
3001
0010
0100
0010
,  // measure 42
0100
0000
0100
0000
0100
0000
0100
0000
1000
0000
1000
0001
0100
0000
0100
0000
,  // measure 43
0010
1000
0001
0100
0010
1000
0001
0010
0400
0000
0000
0000
0000
0000
0300
0000
,  // measure 44
2100
0000
0000
0000
3001
0000
0001
0000
0100
0010
M000
0010
0002
0000
0000
0000
,  // measure 45
1003
0000
0001
0000
0100
00M0
0100
0000
1000
0000
0000
0000
0010
0000
0100
0000
0010
0000
1000
0000
0001
0000
0010
0000
0100
0000
0000
0000
0100
0000
1000
0000
,  // measure 46
0020
0000
0000
0000
0130
0000
0100
0000
0101
0000
0001
0000
0020
0000
0000
0130
,  // measure 47
1000
0000
0001
0000
0101
0000
0400
0000
0310
1000
0001
0010
0100
1000
0010
1000
,  // measure 48
0002
0000
0000
0000
1003
0000
1000
0000
0100
0010
000M
0010
2000
0000
0000
0000
,  // measure 49
3100
0000
1000
0000
0010
0M00
0010
0000
0001
0000
0000
0000
0100
0000
0001
0000
0010
0000
0100
0000
0010
0000
0100
0000
1000
0000
0000
0000
1000
0000
0001
0000
,  // measure 50
0200
0000
0000
0000
0320
0000
0000
0000
0230
0000
0000
0302
0000
0000
2003
0000
,  // measure 51
3200
0000
0320
0000
0230
0000
0000
0000
0302
0000
0000
0203
0000
0000
0320
0000
,  // measure 52
0032
0000
0000
0000
0003
0000
1000
0000
0010
0000
0000
0100
0000
0000
0001
0000
,  // measure 53
2000
0000
3100
0020
,  // measure 54
0230
0000
0000
0000
0300
0000
1000
0000
0010
0000
0000
0100
0000
0000
0001
0000
,  // measure 55
0010
0000
0000
0100
0000
0000
0010
0000
2000
0000
0000
0000
3020
0000
0000
0000
,  // measure 56
0032
0000
0000
0000
0003
0000
0100
0000
0010
0000
0000
0100
0000
0000
0001
0000
,  // measure 57
2000
0000
3100
0020
,  // measure 58
0032
0000
0000
0000
0000
0000
1003
0000
0001
0000
0000
0010
0000
0000
0100
0000
,  // measure 59
0010
0000
0000
0100
0000
0000
0001
0000
0100
0000
1000
0001
0100
0010
1000
0001
,  // measure 60
0200
0000
0010
0000
0310
1000
0001
1000
0000
0100
1000
0000
0100
0010
0001
1000
,  // measure 61
0000
0010
1000
0000
0001
0010
0100
0010
0000
0001
0010
0000
0001
0100
0000
0010
,  // measure 62
0000
1000
0010
0000
0100
0001
1000
0100
0000
0010
0100
0000
0010
0001
1000
0010
,  // measure 63
0000
0100
0010
0000
1000
0001
0010
0100
0000
0010
0001
0000
1000
0010
0100
0001
,  // measure 64
1000
0100
1000
0100
0010
0001
0010
0100
1000
0001
1000
0001
0100
0010
1000
0001
,  // measure 65
0010
0100
0010
0100
1000
0001
0100
0010
0100
0001
0100
0001
1000
0100
0010
0100
,  // measure 66
1000
0001
0100
0010
0100
0001
1000
0100
0010
0100
1000
0010
1000
0001
0010
0100
,  // measure 67
0010
0000
0000
0000
0004
0003
1001
0000
,  // measure 68
1000
0010
0100
000M
0100
1000
0001
0000
0010
0001
0100
00M0
0100
1000
0001
0000
,  // measure 69
1000
0010
0100
000M
0100
0010
0001
1000
0000
1000
0010
0100
0001
0000
1000
0000
,  // measure 70
0100
1000
0010
0M00
0010
0001
1000
0000
0001
0100
0010
M000
0010
0001
1000
0000
,  // measure 71
0100
1000
0010
0M00
0010
0001
1000
0100
0000
0100
1000
0001
0000
0000
0001
0000
,  // measure 72
0010
0001
0100
00M0
0100
1000
0001
0000
0010
0001
0100
00M0
0100
1000
0001
0000
,  // measure 73
1000
0010
0100
000M
0100
0010
0001
1000
0000
1000
0010
0100
0001
0000
1000
0000
,  // measure 74
0100
0000
0000
1000
0000
0000
0004
0000
0000
0000
0000
0000
0103
0000
0000
0000
0000
0000
0004
0000
0000
0000
0000
0000
1003
0000
0000
0000
0000
0000
0040
0000
0000
0000
0000
0000
0130
0000
0000
0000
0001
0000
0000
0000
0010
0000
0000
0000
,  // measure 75
0100
0000
0001
0000
0100
1000
0020
0000
1030
0001
1000
0001
0010
0000
0000
0000
,  // measure 76
0210
0000
0000
0000
1300
0000
0001
0000
0100
0010
M000
0010
0002
0000
0000
0000
,  // measure 77
0013
0100
1000
0001
0100
0000
0010
0100
0000
0100
0001
0000
1001
0000
1001
0000
,  // measure 78
0012
0000
0000
0000
0000
0000
0000
0000
0000
0003
0000
0000
1001
0000
0000
0000
0000
0000
1000
0000
0000
0000
0000
0000
0010
0000
0000
0000
0100
0000
0000
0000
0001
0000
0000
0000
2000
0000
0000
0000
0000
0000
0000
0000
0000
3000
0000
0000
,  // measure 79
1002
0000
0000
0000
0023
0000
0100
0000
0230
0000
0000
2300
0000
0000
3010
0000
,  // measure 80
0110
0000
0000
0000
2001
0000
0000
0000
3001
0100
00M0
0100
1000
0000
0010
0000
,  // measure 81
0100
0001
1000
0100
0010
0000
0010
0001
0000
1000
0001
1000
0100
0000
0100
0000
,  // measure 82
0220
0000
0000
0000
0000
0000
0330
0000
0000
0000
0000
0000
0022
0000
0000
0000
0000
0000
0033
0000
0000
0000
0000
0000
0001
0000
0000
0000
0000
0000
0000
0000
0000
1000
0000
0000
0000
0000
0000
0000
0000
0000
0001
0000
0100
0000
0001
0000
,  // measure 83
0100
0010
1000
0001
1000
0100
1000
0100
0010
0100
1000
0100
0010
0001
1000
0010
,  // measure 84
0200
0301
0000
0000
;

//---------------dance-single - ----------------
#NOTES:
     dance-single:
     :
     Medium:
     9:
     0.502860,0.589316,0.153334,0.486670,0.356669,528.000000,505.000000,23.000000,73.000000,0.000000,0.000000,0.502860,0.589316,0.153334,0.486670,0.356669,528.000000,505.000000,23.000000,73.000000,0.000000,0.000000:
// measure 0
0000
0000
0000
0000
,  // measure 1
0000
0000
0000
0000
,  // measure 2
0000
0000
0000
0000
,  // measure 3
0000
0000
0000
0000
,  // measure 4
0000
0000
0000
0000
,  // measure 5
0000
0000
0000
0000
,  // measure 6
0000
0000
0000
0000
,  // measure 7
0000
0000
0000
0000
,  // measure 8
0102
0000
0000
0000
1003
0000
0000
0000
1000
0100
0010
0000
0100
0000
0000
0000
,  // measure 9
0010
0000
0010
0000
0001
0000
0000
0000
1000
0001
0010
0000
0100
0000
0010
0000
,  // measure 10
0100
0000
0000
1100
0000
0000
1000
0001
1000
0200
0000
0000
,  // measure 11
0310
0000
1000
0000
0010
0000
1000
0000
0010
0000
0001
0000
0000
0001
0000
0000
,  // measure 12
2010
3001
0010
0100
,  // measure 13
1000
0000
0100
0000
0010
0001
1000
0001
,  // measure 14
0100
0000
0010
0000
1000
0000
0100
0010
0100
0000
1000
0000
0010
0000
0100
0010
,  // measure 15
0100
0000
0001
0000
0100
0000
0001
0000
1000
0000
0000
0001
0000
0000
0001
0000
,  // measure 16
0012
0000
0000
0000
,  // measure 17
0000
0000
0000
0000
,  // measure 18
0003
0000
0000
0000
0000
0000
1000
0001
0000
1000
0010
0000
0100
0000
0001
0010
,  // measure 19
0000
0001
1000
0000
0010
0000
0100
0010
0000
0100
0001
0000
2000
0000
3000
0000
,  // measure 20
1100
0000
0100
0000
0010
0001
0000
1000
0000
0000
1000
0000
0001
0100
0000
0010
,  // measure 21
0000
0000
0010
0000
1000
0001
0000
0010
0000
0010
0100
0000
1000
0000
0000
0010
,  // measure 22
0000
1000
0010
0000
0100
0001
0000
1000
0000
0000
1000
0000
0100
0010
0000
0001
,  // measure 23
0000
0000
0001
0000
1000
0010
0000
0100
0000
0100
0001
0000
1000
0000
0000
0000
,  // measure 24
1000
1000
0100
0010
0001
0001
0100
0010
,  // measure 25
1000
1000
0010
0100
0001
0001
0010
0100
,  // measure 26
1000
1000
0001
0001
0100
0100
0010
0010
,  // measure 27
1000
0001
1000
0001
1000
0001
1000
0001
0040
0000
0030
0000
0400
0000
0300
0000
,  // measure 28
2100
0000
0000
0000
3001
0000
0100
0000
0001
1000
0000
1000
0200
0000
0000
0000
,  // measure 29
0310
0100
1000
0000
1001
0000
0000
0000
0001
0000
1000
0100
1000
0000
0001
0000
,  // measure 30
0020
0000
0000
0000
0000
0000
0130
0000
0000
0010
0000
0000
0001
0000
1000
0000
0001
0000
0200
0000
0000
0000
0000
0000
,  // measure 31
2300
0000
0000
0000
3200
0000
0000
0000
0320
0000
0000
0230
0000
0000
0301
0000
,  // measure 32
0002
0000
0000
0000
0013
0000
0100
0000
1000
0001
0000
0001
0200
0000
0000
0000
,  // measure 33
0310
1000
0001
0000
0011
0000
0000
0000
0010
0000
0100
1000
0100
0000
1000
0000
,  // measure 34
0020
0000
0000
2030
0000
0000
3002
0000
0000
0103
0000
0000
0010
0000
1000
0000
0100
0000
0020
0000
0000
0000
0000
0000
,  // measure 35
0130
0000
0000
2000
,  // measure 36
3002
0000
0100
0000
0100
0000
1003
0100
,  // measure 37
0010
0200
1000
0000
1000
0000
1300
0001
,  // measure 38
0100
0020
0100
0000
0100
0000
1030
0001
,  // measure 39
0000
0000
0001
0000
0010
0000
0000
0000
0100
0000
0000
0100
0010
0000
0001
0000
,  // measure 40
0200
0000
0010
0000
0010
0000
0301
1000
,  // measure 41
0100
0020
0100
0000
0130
1000
0001
0100
,  // measure 42
0010
1000
0010
1000
0001
0010
0001
0010
,  // measure 43
0100
1000
0100
1000
0001
1000
0001
1000
0010
0000
0000
0000
0000
0000
0000
0000
,  // measure 44
2010
0000
0000
0000
3001
0000
0010
0000
0100
1000
0000
1000
0020
0000
0000
0000
,  // measure 45
1030
0000
0001
0000
0100
0000
0001
1000
0001
0000
0010
0100
1000
0000
0001
0000
,  // measure 46
0200
0000
1300
0100
0010
1000
0002
0000
,  // measure 47
0013
0000
0100
0002
2003
0000
3020
0000
,  // measure 48
0032
0000
0000
0000
0103
0000
0010
0000
1000
0001
0000
0001
0020
0000
0000
0000
,  // measure 49
0130
0000
1000
0000
0001
0000
0100
0010
0100
0000
0001
1000
0100
0000
0010
0000
,  // measure 50
0200
0000
0000
0000
0320
0000
0000
0000
0230
0000
0000
2300
0000
0000
3002
0000
,  // measure 51
0203
0000
0320
0000
0230
0000
0000
0000
0302
0000
0000
0023
0000
0000
0230
0000
,  // measure 52
2300
0000
0000
0000
3000
0000
1000
0000
0010
0000
0000
0100
0000
0000
0001
0000
,  // measure 53
2000
0000
3100
0020
,  // measure 54
0230
0000
0000
0000
0300
0000
1000
0000
0001
0000
0000
1000
0000
0000
0001
0000
,  // measure 55
0100
0000
0000
0010
0000
0000
0100
0000
0002
0000
0000
0000
0023
0000
0000
0000
,  // measure 56
0230
0000
0000
0000
0300
0000
0100
0000
1000
0000
0000
0001
0000
0000
1000
0000
,  // measure 57
0020
0000
0130
0002
,  // measure 58
2003
0000
0000
0000
0000
0000
3100
0000
0010
0000
0000
0100
0000
0000
0010
0000
,  // measure 59
0001
0000
0000
1000
0000
0000
0010
0000
0100
0000
0001
1000
0000
0001
1000
0000
,  // measure 60
0100
0000
0010
0000
0001
0000
0000
1000
0000
0000
0010
0000
1000
0000
0000
0100
,  // measure 61
0000
0000
0010
0000
0100
0000
0000
1000
0000
0001
1000
0000
0010
0000
0000
0000
,  // measure 62
1000
0000
0001
0000
0010
0000
0000
0100
0000
0000
1000
0000
0010
0000
0000
0100
,  // measure 63
0000
0000
0001
0000
1000
0000
0000
0100
0000
0010
0100
0000
0010
0000
0000
0000
,  // measure 64
0011
0101
1010
1100
,  // measure 65
0110
1100
1010
0011
,  // measure 66
0101
0000
0001
0000
0010
0000
0100
0000
1000
0000
1000
0000
0001
0010
0100
1000
,  // measure 67
0001
0000
0000
0000
0004
0003
1001
0000
,  // measure 68
1000
0010
0100
0000
0001
0000
0010
0000
0100
1000
0010
0000
0100
0000
0010
0000
,  // measure 69
1000
0100
0010
0000
0100
0000
1000
0001
0000
0000
0000
0000
0001
0000
0100
0000
,  // measure 70
0001
0010
0100
0000
1000
0000
0010
0000
0100
0001
0010
0000
0100
0000
0010
0000
,  // measure 71
0100
1000
0010
0000
0100
0000
0001
1000
0000
0000
0000
0001
1000
0000
0100
0000
,  // measure 72
0010
0001
0100
0000
0010
0000
1000
0000
0010
1000
0100
0000
0010
0000
0001
0000
,  // measure 73
0010
0001
0100
0000
0010
0000
1000
0010
0000
0000
0000
0000
0010
0000
1000
0000
,  // measure 74
0100
0000
0000
0040
0000
0000
0130
0000
0000
4000
0000
0000
3010
0000
0000
0400
0000
0000
0301
0000
1000
0000
0001
0000
,  // measure 75
0010
0000
0100
0002
0103
0000
2000
0000
,  // measure 76
3200
0000
0000
0000
0310
0000
0001
0000
1000
0010
0000
0010
0200
0000
0000
0000
,  // measure 77
0301
1000
0001
0000
0011
0000
0000
0010
0000
0000
0100
0000
0100
0000
0100
0000
,  // measure 78
2000
0000
0000
0000
0000
0000
3001
0000
0000
0100
0000
0000
0001
0000
1000
0000
0100
0000
0020
0000
0000
0000
0000
0000
,  // measure 79
2030
0000
0000
0000
3020
0000
0000
0000
0230
0000
0000
0320
0000
0000
0031
0000
,  // measure 80
1000
0000
0000
0000
1020
0000
0000
0000
0130
0001
0000
0001
1000
0000
1000
0000
,  // measure 81
0100
0010
0100
0000
2000
0000
3001
0000
0010
0100
0010
0000
0002
0000
1003
0000
,  // measure 82
0020
0000
0000
0030
0220
0000
0000
0330
0001
0000
0000
0001
0000
0000
0004
0000
,  // measure 83
0013
0000
0000
0000
,  // measure 84
2200
0000
0000
3300
0000
0000
0000
0000
0000
0000
0000
0000
0000
0000
0000
0000
;

//---------------dance-single - ----------------
#NOTES:
     dance-single:
     :
     Easy:
     6:
     0.286669,0.392586,0.226668,0.200001,0.000000,301.000000,267.000000,34.000000,30.000000,0.000000,0.000000,0.286669,0.392586,0.226668,0.200001,0.000000,301.000000,267.000000,34.000000,30.000000,0.000000,0.000000:
// measure 0
0000
0000
0000
0000
,  // measure 1
0000
0000
0000
0000
,  // measure 2
0000
0000
0000
0000
,  // measure 3
0000
0000
0000
0000
,  // measure 4
0000
0000
0000
0000
,  // measure 5
0000
0000
0000
0000
,  // measure 6
0000
0000
0000
0000
,  // measure 7
0000
0000
0000
0000
,  // measure 8
0002
1003
0100
1000
,  // measure 9
0001
0100
0001
0000
1000
0000
1000
0000
,  // measure 10
1000
0001
0100
0020
,  // measure 11
1030
0001
0000
0001
0000
0001
0000
0000
,  // measure 12
2000
3100
0100
1000
,  // measure 13
1000
0000
0001
0000
0100
0010
0100
0010
,  // measure 14
0100
0100
0001
0001
,  // measure 15
0010
0100
0000
0100
0000
0100
0000
0000
,  // measure 16
1001
0000
0000
0000
,  // measure 17
0000
0000
0000
0000
0000
0000
0000
0001
,  // measure 18
0000
0001
0000
0010
0000
0010
0000
0001
,  // measure 19
0000
0001
0000
1000
0000
1000
0000
0000
,  // measure 20
0110
0000
1001
0000
,  // measure 21
1001
0000
1100
0000
,  // measure 22
1001
0000
0110
0000
,  // measure 23
1001
0000
0011
0000
,  // measure 24
0001
0100
0001
0000
0001
1000
0001
0000
,  // measure 25
1000
0100
1000
0000
1000
0001
1000
0000
,  // measure 26
0001
0000
0001
0000
0001
0010
0100
1000
,  // measure 27
0002
0000
1003
0000
,  // measure 28
0010
0000
0100
0001
0100
0000
0010
0000
,  // measure 29
1000
0001
1000
0000
0100
0000
0010
0000
,  // measure 30
0100
0000
1000
0001
1000
0000
0010
0000
,  // measure 31
2000
0000
3200
0000
0320
0000
0000
0031
,  // measure 32
0001
0000
1000
0000
0010
0100
0010
0000
,  // measure 33
1000
0000
0001
0000
0010
0100
0010
0000
,  // measure 34
0001
0100
1001
0000
,  // measure 35
2000
0000
0000
3000
,  // measure 36
0020
0000
0000
0130
,  // measure 37
0001
0002
0000
0000
0000
0000
0013
0000
,  // measure 38
0100
0200
0000
0000
0000
0000
0300
0000
,  // measure 39
0000
1000
1000
0000
0001
0000
1000
0000
,  // measure 40
0020
0000
0000
0130
,  // measure 41
0001
0002
0000
0000
0000
0000
1003
0000
,  // measure 42
0200
0000
0000
0320
0000
0000
0230
0000
,  // measure 43
2300
0000
3001
0000
,  // measure 44
0101
0100
0001
1000
,  // measure 45
0100
0010
0100
0000
1000
0001
1000
0000
,  // measure 46
0010
0000
0100
0001
0100
0000
0010
0000
,  // measure 47
1000
1000
0200
0000
,  // measure 48
0310
0001
0001
0010
,  // measure 49
0100
1000
0100
0000
1000
0001
1000
0000
,  // measure 50
0020
0230
0320
0230
,  // measure 51
0301
1000
0001
0000
0010
0000
0000
0100
,  // measure 52
0100
0000
0100
0000
,  // measure 53
2000
0000
3000
0001
,  // measure 54
0100
0000
0001
0000
,  // measure 55
0010
0000
0200
0000
,  // measure 56
1300
0000
1000
0000
,  // measure 57
0020
0000
0030
0100
,  // measure 58
0010
0000
1000
0000
,  // measure 59
0100
0000
0010
0010
,  // measure 60
0001
0000
0001
0000
,  // measure 61
1000
0000
1000
0000
,  // measure 62
0010
0000
0010
0000
,  // measure 63
0100
0000
0100
0000
,  // measure 64
0001
0000
0001
1000
0001
0000
0001
0000
,  // measure 65
1000
0000
1000
0100
1000
0000
1000
0000
,  // measure 66
0100
0010
0100
0010
0100
0010
0100
0010
,  // measure 67
0100
0000
0000
0010
,  // measure 68
1001
0110
1001
0110
,  // measure 69
1001
0001
0001
0000
,  // measure 70
1100
0011
1100
0011
,  // measure 71
1100
1000
1000
0000
,  // measure 72
1010
0110
1010
0110
,  // measure 73
1010
1000
1000
0000
,  // measure 74
0011
1001
1000
0010
,  // measure 75
0110
0000
0200
0300
0000
0000
0000
0000
,  // measure 76
0001
0000
0010
0100
0010
0000
0001
0000
,  // measure 77
1000
0010
1000
0000
0000
1000
0001
1000
,  // measure 78
0001
0010
0100
0100
,  // measure 79
0020
0000
0031
0000
,  // measure 80
0110
1001
1000
0010
,  // measure 81
0010
0100
0010
0000
1000
0000
0100
0010
,  // measure 82
0100
0110
0001
0000
,  // measure 83
0201
0000
0000
0000
0000
0000
0000
0300
,  // measure 84
2002
3003
0000
0000
0000
0000
0000
0000
;

//---------------dance-single - ----------------
#NOTES:
     dance-single:
     :
     Beginner:
     1:
     0.065715,0.168001,0.040000,0.026667,0.000000,69.000000,63.000000,6.000000,4.000000,0.000000,0.000000,0.065715,0.168001,0.040000,0.026667,0.000000,69.000000,63.000000,6.000000,4.000000,0.000000,0.000000:
// measure 0
0000
0000
0000
0000
,  // measure 1
0000
0000
0000
0000
,  // measure 2
0000
0000
0000
0000
,  // measure 3
0000
0000
0000
0000
,  // measure 4
0000
0000
0000
0000
,  // measure 5
0000
0000
0000
0000
,  // measure 6
0000
0000
0000
0000
,  // measure 7
0000
0000
0000
0000
,  // measure 8
0001
0000
0000
0000
,  // measure 9
0000
0000
0000
0000
,  // measure 10
0001
0000
0000
0000
,  // measure 11
1000
0000
0000
0000
,  // measure 12
0001
0000
0000
0000
,  // measure 13
0001
0000
0000
0000
,  // measure 14
1000
0000
0000
0000
,  // measure 15
2000
0000
0000
0000
,  // measure 16
3001
0000
0000
0000
,  // measure 17
0000
0000
0000
0000
,  // measure 18
0000
0000
0000
0000
,  // measure 19
0000
0000
0000
0000
,  // measure 20
0100
0000
0000
0000
,  // measure 21
0100
0000
0000
0000
,  // measure 22
0010
0000
0000
0000
,  // measure 23
0010
0000
0000
0000
,  // measure 24
1000
0000
0000
0000
,  // measure 25
1000
0000
0000
0000
,  // measure 26
1000
0000
1000
0000
,  // measure 27
1000
0000
0000
0000
,  // measure 28
1001
0000
0000
0000
,  // measure 29
0001
0000
0000
0000
,  // measure 30
0001
0000
0000
0000
,  // measure 31
0010
0000
0000
0000
,  // measure 32
0001
0000
0000
0000
,  // measure 33
0001
0000
0000
0000
,  // measure 34
0001
0000
0000
0000
,  // measure 35
0000
0000
0000
0000
,  // measure 36
2001
0000
0000
0000
,  // measure 37
0000
0000
0000
0000
,  // measure 38
0000
0000
0000
0000
,  // measure 39
3000
0000
0000
0000
,  // measure 40
1002
0000
0000
0000
,  // measure 41
0000
0000
0000
0000
,  // measure 42
2003
0000
0000
0000
,  // measure 43
0000
0000
3000
0000
,  // measure 44
0010
0000
0000
0000
,  // measure 45
0010
0000
0000
0000
,  // measure 46
0100
0000
0000
0000
,  // measure 47
0100
0000
0000
0000
,  // measure 48
0010
0000
0000
0000
,  // measure 49
0010
0000
0000
0000
,  // measure 50
0100
0000
0000
0000
,  // measure 51
0100
0000
0000
0000
,  // measure 52
0001
0000
0000
0000
,  // measure 53
0001
0000
0000
0000
,  // measure 54
0000
0000
0000
0000
,  // measure 55
0000
0000
0000
0000
,  // measure 56
0001
0000
0000
0000
,  // measure 57
0001
0000
0000
0000
,  // measure 58
0000
0000
0000
0000
,  // measure 59
0000
0000
0000
0000
,  // measure 60
1000
0000
0000
0000
,  // measure 61
0000
0000
0000
0000
,  // measure 62
0001
0000
0000
0000
,  // measure 63
0000
0000
0000
0000
,  // measure 64
0010
0000
0000
0000
,  // measure 65
0010
0000
0000
0000
,  // measure 66
0010
0000
0010
0000
,  // measure 67
0010
0000
0000
0000
,  // measure 68
0001
0000
0000
0000
,  // measure 69
1000
0000
0000
0000
,  // measure 70
0010
0000
0000
0000
,  // measure 71
0100
0000
0000
0000
,  // measure 72
0001
0000
0000
0000
,  // measure 73
1000
0000
0000
0000
,  // measure 74
0010
0000
0000
0000
,  // measure 75
0010
0000
0000
0000
,  // measure 76
1000
0000
0000
0000
,  // measure 77
1000
0000
0000
0000
,  // measure 78
0001
0000
0000
0000
,  // measure 79
0001
0000
0000
0000
,  // measure 80
0000
1000
0000
0000
,  // measure 81
1000
0000
0000
0000
,  // measure 82
0110
0000
0000
0000
,  // measure 83
1001
0000
0000
0000
,  // measure 84
1001
0000
0000
0000
;
