#TITLE:Fork Funeral;
#SUBTITLE:;
#ARTIST:Virtual Riot;
#TITLETRANSLIT:;
#SUBTITLETRANSLIT:;
#ARTISTTRANSLIT:;
#GENRE:;
#CREDIT:;
#BANNER:forkfuneral-bn.png;
#BACKGROUND:forkfuneral-bg-wide.png;
#LYRICSPATH:;
#CDTITLE:;
#MUSIC:Fork Funeral.ogg;
#OFFSET:-0.015000;
#SAMPLESTART:35.639000;
#SAMPLELENGTH:20.000000;
#SELECTABLE:YES;
#BPMS:0.000000=128.000000
;
#STOPS:
;
#BGCHANGES:;
#KEYSOUNDS:;
#ATTACKS:;

//---------------dance-single - ----------------
#NOTES:
     dance-single:
     :
     Challenge:
     11:
     0.790134,0.866583,0.292768,0.522235,0.941605,699.000000,662.000000,37.000000,66.000000,15.000000,4.000000,0.790134,0.866583,0.292768,0.522235,0.941605,699.000000,662.000000,37.000000,66.000000,15.000000,4.000000:
0000
0000
0000
0000
,
0000
0000
0000
0000
,
0000
0000
0000
0000
,
0000
0000
0000
0000
,
1001
0000
1000
0000
0010
0000
0100
0000
0001
0000
1000
0001
0010
0000
0100
0000
,
0010
0000
0001
0000
1000
0000
0010
0000
0100
0000
0010
1000
0001
0000
0010
0000
,
0001
0000
1000
0000
0001
0000
1000
0000
0100
0000
0010
0100
1000
0000
0001
0000
,
0100
0000
0000
0010
0000
0000
1000
0000
0000
0001
0000
0000
0100
0000
0000
0010
0000
0000
0100
0000
0000
0001
0000
0000
1000
0000
0001
0000
1000
0000
0100
0000
0010
0000
0001
0000
1000
0000
0100
0000
1000
0000
0001
0000
0100
0000
0001
0000
,
1000
0000
0000
0000
0010
0100
0000
0010
0000
1000
0000
0001
0010
0000
0100
0000
,
0100
0000
0100
0000
0010
0001
0000
1000
0000
0010
0000
0100
0001
0000
0000
0000
,
2000
0000
0000
0000
3100
0010
0000
0100
0000
1000
0000
0001
0100
0000
0010
0000
,
0010
0000
0000
0000
0010
0000
0000
0000
0100
0000
0001
0000
0000
0000
1000
0000
0000
0000
0001
0010
0001
0000
0000
0000
1000
0000
0100
0000
0000
0000
1000
0000
,
1001
0000
0000
0000
0001
0100
0000
0010
0000
0100
0000
0001
1000
0000
0100
0000
,
0100
0000
0100
0000
1000
0001
0000
0010
0100
1000
0000
0001
1000
0100
1010
0000
,
0101
0000
1000
0000
0001
0100
0000
0010
0000
1000
0000
0001
0010
0000
0001
0000
,
1000
0000
0010
0000
0100
0010
0000
1000
0000
0001
0010
0001
1000
0000
0010
0100
,
0001
1000
0100
0010
0100
1000
0001
0100
0010
1000
0001
0010
0001
1000
0010
0100
,
0004
0000
0000
0000
0000
0000
0000
1103
,
0011
0000
0000
0000
0000
0000
0000
0000
1000
0000
0001
0000
0000
0000
0100
0000
0000
0000
0001
0000
0000
0000
1000
0000
0010
0000
0000
0000
1000
0001
1000
0000
,
0100
0010
0000
0001
1000
0010
0000
0100
0001
1000
0100
1000
0001
0100
0002
0000
,
2013
0000
3001
0000
1000
0100
00M0
0100
0001
0010
0M00
0010
1000
0000
0001
0000
,
0101
0000
0100
0000
0001
0010
0M00
0010
1000
0001
0100
0010
1000
0100
0100
0100
,
2010
0000
3001
0000
1000
0100
00M0
0100
0001
0010
0M00
0010
1000
0000
0100
0000
,
0210
0000
0310
0000
0004
1000
0000
0103
0040
1000
0000
0130
0004
1000
0000
0013
,
0102
0000
1003
0000
0001
0100
00M0
0100
1000
0010
0M00
0010
0001
0000
1000
0000
,
1100
0000
0100
0000
1000
0010
0M00
0010
0001
1000
0100
1000
0001
0100
0100
0100
,
0012
0000
1003
0000
0001
0100
00M0
0100
1000
0010
0M00
0010
0001
0000
0100
0000
,
0210
0000
0000
0000
0310
0000
0000
0000
4000
0000
0001
0000
0000
0000
3100
0000
0010
0000
0001
1000
0001
0000
0100
0000
0040
0000
1000
0000
0000
0000
0130
0000
,
0012
0000
1003
0000
0001
0010
0100
0001
2000
0000
3020
0000
0031
0100
0010
0001
,
2000
0000
3200
0000
0301
0010
0100
0001
2000
0000
3020
0000
0031
0100
0100
0100
,
0012
0000
1003
0000
0001
0100
0010
0001
2000
0000
3200
0000
0301
1000
0010
1000
,
0200
0000
2300
0000
3040
0100
0000
1030
0004
0010
0000
1003
0400
0010
0000
1300
,
0102
0000
1003
0000
0001
0010
0100
0001
2000
0000
3020
0000
0031
0100
0010
0001
,
2000
0000
3200
0000
0301
0010
0100
0001
2000
0000
3020
0000
0031
0100
0100
0100
,
0012
0000
1003
0000
0001
0100
0010
0001
2000
0000
3200
0000
0301
1000
0100
0010
,
0001
0000
0000
0100
0000
0000
0100
0000
0000
1000
0000
0000
0002
0000
0000
0000
0000
0000
0013
0000
0000
0010
0000
0000
1000
0000
0000
0100
0000
0000
0100
0000
0000
0001
0000
0000
1000
0000
0001
0000
0010
0000
0100
0000
1000
0000
0001
0000
,
0100
0000
0010
0000
0100
0000
0001
0000
1000
0000
0100
0010
0001
0000
1000
0000
,
0010
0000
0100
0000
0010
0000
1000
0000
0001
0000
0010
0001
1000
0000
M010
0000
,
0001
0000
1000
0000
0010
0000
0100
0000
0001
0000
1000
0001
0100
0000
0010
0000
,
0100
0000
0001
0000
1000
0000
0100
0000
0010
0000
0001
1000
0010
0000
00M1
0000
,
0100
0001
0100
0001
1000
0100
1000
0100
,
0010
0100
0010
0001
1000
0001
1000
0010
,
1000
0000
0000
0001
0000
0000
0100
0000
0000
0010
0000
0000
0100
0000
0000
0001
0000
0000
1000
0000
0000
0100
0000
0000
0010
0000
0001
0000
1000
0000
0100
0000
1000
0000
0001
0000
0100
0000
0010
0000
1000
0000
0001
0000
0010
0000
0001
0000
,
1000
0010
1000
0010
0100
0001
0100
0001
4000
0000
0000
0000
0000
0000
3002
0000
,
1013
0000
0100
0000
1010
0000
0001
0000
1100
0000
0010
1000
0101
0000
0010
0000
,
0101
0000
1000
0000
0011
0000
0100
0000
0011
0000
1000
0100
1010
0000
0001
0000
,
0100
0001
0010
0000
0101
0000
1000
0000
0101
0000
0010
0001
1100
0000
0010
0000
,
1000
0000
0000
0000
0000
0000
0000
0000
0001
0000
0000
0000
0000
0000
0000
0000
0001
0000
1000
0100
1000
0000
0000
0000
0001
0000
0000
0000
0010
0000
0001
0000
,
2002
0000
0000
3003
0000
0000
0000
0000
1000
0000
0000
0000
0001
0000
0000
0000
0100
0000
0000
0000
0010
0000
0000
0000
1000
0000
0000
0000
0001
0000
1000
0000
,
0010
0010
0100
0100
0001
0000
1000
0000
0100
0000
0010
0001
1000
0000
M010
0000
,
2020
0000
0000
3030
0000
0000
0000
0000
1000
0000
0000
0000
0001
0000
0000
0000
0010
0000
0100
0000
1000
0000
0000
0000
0001
0000
0000
0000
1000
0000
0001
0000
,
0100
0100
0010
0010
0100
0100
1000
0000
0010
0000
1000
0000
0100
0000
0M01
0000
,
0022
0000
0000
0033
0000
0000
0000
0000
0001
0000
0000
0000
0100
0000
0000
0000
0010
0000
0000
0000
1000
0000
0000
0000
0001
0000
0000
0000
1000
0000
0001
0000
,
0010
0010
0100
0100
1000
0000
0001
0000
0100
0000
0002
0000
0013
0000
01M0
0000
,
2020
0000
0000
3030
0000
0000
0000
0000
1000
0000
0000
0000
0001
0000
0000
0000
0010
0000
0100
0000
0010
0000
0000
0000
0001
0000
0000
0000
1000
0000
0001
0000
,
0100
0000
0000
0000
0000
0000
0010
0000
0000
0000
0000
0000
1000
0000
0000
0000
0000
0000
0001
0000
0000
1000
0000
0000
0010
0000
0000
0000
0000
0000
1000
0000
0001
0000
1000
0000
0001
0000
0000
0010
0000
0000
0200
0000
0000
0000
0000
0000
,
2310
0000
3001
0000
1000
0010
0100
1000
0002
0000
0023
0000
1030
0100
0010
1000
,
0002
0000
0203
0000
1300
0010
0100
1000
0002
0000
0023
0000
1030
0100
0100
0100
,
2010
0000
3001
0000
1000
0100
0010
1000
0002
0000
0203
0000
1300
0001
0010
0001
,
0200
0000
0302
0000
0043
0100
0000
0031
4000
0010
0000
3001
0400
0010
0000
0301
,
2100
0000
3001
0000
1000
0010
0100
1000
0002
0000
0023
0000
1030
0100
0010
1000
,
0002
0000
0203
0000
1300
0010
0100
1000
0002
0000
0023
0000
1030
0100
0100
0100
,
2010
0000
3001
0000
1000
0100
0010
1000
0002
0000
0203
0000
1300
0001
0100
0010
,
1000
0000
0000
0100
0000
0000
0100
0000
0000
0001
0000
0000
2000
0000
0000
0000
0000
0000
3010
0000
0000
0010
0000
0000
0001
0000
0000
0100
0000
0000
0100
0000
0000
1000
0000
0000
0001
0000
1000
0000
0010
0000
0100
0000
0001
0000
1000
0000
,
0100
1000
0020
0130
0001
0001
1000
1000
,
0100
0000
0000
0000
0100
0000
0000
0000
0000
0010
0000
0000
0000
0000
0001
0000
0000
0000
0000
0000
4000
0000
0000
0000
0000
0000
0000
0000
0000
0000
0000
0000
,
0000
0000
0000
3000
0000
0000
0000
0000
;

//---------------dance-single - ----------------
#NOTES:
     dance-single:
     :
     Hard:
     9:
     0.573102,0.600570,0.245292,0.482671,0.466846,507.000000,476.000000,31.000000,61.000000,16.000000,0.000000,0.573102,0.600570,0.245292,0.482671,0.466846,507.000000,476.000000,31.000000,61.000000,16.000000,0.000000:
0000
0000
0000
0000
,
0000
0000
0000
0000
,
0000
0000
0000
0000
,
0000
0000
0000
0000
,
0001
0000
0000
0000
0100
0000
0000
0000
0010
0000
1000
0001
0010
0000
0100
0000
,
0010
0000
0000
0000
0001
0000
0000
0000
1000
0000
0010
0100
0001
0000
1000
0000
,
0100
0000
0010
0000
0100
0000
0010
0000
0001
0000
1000
0001
0100
0000
0010
0000
,
1000
0001
0010
0100
1000
0001
0100
0001
4000
0000
0000
0000
0000
0000
0000
0000
,
3001
0000
0000
0000
0100
0010
0000
1000
0000
0001
0000
1000
0100
0000
0020
0000
,
0000
0000
0030
0000
0001
1000
0000
0010
0000
0100
0000
0001
1000
0000
0000
0000
,
0000
0000
0000
0000
0001
0010
0000
0100
0000
1000
0000
0001
0100
0000
0020
0000
,
0000
0000
0030
0000
0100
0001
0000
1000
0000
0001
0000
1000
0100
0000
0000
1000
,
0010
0000
0000
0000
0100
0001
0000
1000
0000
0100
0000
0010
0100
0000
2000
0000
,
0000
0000
3000
0000
0001
1000
0000
0010
0000
0100
0000
0001
1000
0000
1010
0000
,
1001
0000
0000
0000
0001
0010
0000
0100
0000
1000
0000
0001
0100
0000
0002
0000
,
0000
0000
0003
0000
0100
0010
0000
1000
0000
0001
0000
0010
0100
0000
0010
0001
,
1000
0010
0100
0001
1000
0100
0010
0001
,
4000
0000
0000
0000
0000
0000
0000
0000
0000
0000
0000
0000
0000
3000
1100
0000
,
1001
0000
0000
0000
0001
1000
0000
0010
0000
0100
0000
0001
1000
0000
0200
0000
,
0310
0000
0001
0000
1000
0010
0100
0001
,
2001
0000
3001
0000
1000
0100
00M0
0100
0000
0010
0M00
0010
0001
0000
0100
0000
,
0110
0000
0010
0000
1000
0010
0M00
0010
0000
0001
0000
0001
0000
0010
0100
1000
,
0002
0000
1003
0000
0001
0100
00M0
0100
0000
0010
0M00
0010
1000
0000
0100
0000
,
0210
0000
0310
0000
0004
0000
0000
0000
4003
0000
0000
0000
3040
0000
0000
0030
,
2010
0000
3001
0000
1000
0100
00M0
0100
0000
0010
0M00
0010
0001
0000
0100
0000
,
0110
0000
0010
0000
1000
0010
0M00
0010
0000
0001
0000
0001
0000
1000
0100
0010
,
0002
0000
1003
0000
0001
0100
00M0
0100
0000
0010
0M00
0010
1000
0000
0001
0000
,
0102
1003
0004
0000
4003
0000
3400
0000
,
0310
0000
0001
0000
1000
0010
0100
0000
2000
0000
3200
0000
0301
0010
0100
0000
,
0002
0000
0203
0000
1300
0010
0100
0000
2000
0000
3200
0000
0301
1000
0001
1000
,
0200
0000
0310
0000
0001
0100
0010
0000
0002
0000
0023
0000
1030
0000
0100
0000
,
0110
0000
0010
0000
0004
0000
0000
0000
4003
0000
0000
0000
3040
0000
0000
0030
,
2010
0000
3001
0000
1000
0100
0010
0000
2000
0000
3020
0000
0031
0100
0010
0000
,
0002
0000
0023
0000
1030
0100
0010
0000
2000
0000
3020
0000
0031
1000
0001
1000
,
0020
0000
1030
0000
0001
0010
0100
0000
0002
0000
0203
0000
1300
0000
0010
0000
,
0110
0000
0010
0000
1000
0000
0100
0010
0100
0000
1000
0000
0004
0000
0000
0000
,
0103
0000
0000
0000
0010
0000
0000
0000
1000
0000
0001
0010
0100
0000
1000
0000
,
0001
0000
0000
0000
0100
0000
0000
0000
0010
0000
0100
0001
1000
0000
M100
0000
,
0001
0000
0000
0000
1000
0000
0000
0000
0100
0000
0010
0001
1000
0000
0010
0000
,
0100
0000
0000
0000
0010
0000
0000
0000
1000
0000
0001
0010
0100
0000
0M01
0000
,
1000
0010
1000
0010
0100
0001
0100
0001
,
1000
0100
1000
0100
0010
0001
0010
0001
,
1000
0001
0100
0010
0100
0001
1000
0100
0040
0000
0000
0000
0000
0000
0000
0000
,
0031
0001
1000
1000
0040
0000
0000
1030
,
1010
1010
1001
1001
,
1100
0000
1100
0000
0110
0000
0010
0001
,
0200
0310
1010
0000
1001
0000
0011
0010
,
0001
0000
0001
0000
1000
0010
0100
0001
,
2001
3000
1000
0001
0010
0001
1000
0001
,
0100
00M0
0100
0000
1000
0000
0001
0000
0100
0000
0000
0000
0010
0000
0000
0000
0100
0000
0000
0000
0001
0000
0000
0000
1000
0000
0000
0000
M010
0000
0000
0000
,
2020
0000
0000
3030
0000
0000
0000
0000
1000
0000
0000
0000
0001
0000
0000
0000
0010
0000
0000
0000
0001
0000
0000
0000
0100
0000
0000
0000
0010
0000
0000
0000
,
1000
0000
0010
0000
1000
0000
0001
0000
0100
00M0
0100
0000
1000
0000
0000
0000
0010
0000
0000
0000
1000
0000
0000
0000
0100
0000
0000
0000
0010
0000
0000
0000
,
0022
0000
0000
0033
0000
0000
0000
0000
0001
0000
0000
0000
1000
0000
0000
0000
0010
0000
0000
0000
0100
0000
0000
0000
0001
0000
0000
0000
1000
0000
0000
0000
,
0100
00M0
0100
0000
0001
0000
1000
0000
0100
0000
0000
0000
1000
0000
0000
0000
0001
0000
0000
0000
0200
0000
0000
0000
0310
0000
0000
0000
1000
0000
0000
0000
,
2020
0000
0000
3030
0000
0000
0000
0000
1000
0000
0000
0000
0001
0000
0000
0000
0010
0000
0000
0000
0100
0000
0000
0000
1000
0000
0000
0000
0001
0000
0000
0000
,
0100
0000
0000
0000
0000
0000
0001
0000
1000
0000
0100
0010
0001
0000
1000
0000
,
1002
0000
1003
0000
0001
0010
0100
0000
0002
0000
0203
0000
1300
0010
0100
0000
,
2000
0000
3200
0000
0301
0010
0100
0000
0002
0000
0203
0000
1300
0001
1000
0001
,
0200
0000
0310
0000
1000
0100
0010
0000
2000
0000
3020
0000
0031
0000
0100
0000
,
0110
0000
0010
0000
4000
0000
0000
0000
3004
0000
0000
0000
0043
0000
0000
0030
,
0012
0000
1003
0000
0001
0100
0010
0000
0002
0000
0023
0000
1030
0100
0010
0000
,
2000
0000
3020
0000
0031
0100
0010
0000
0002
0000
0023
0000
1030
0001
1000
0001
,
0020
0000
0031
0000
1000
0010
0100
0000
2000
0000
3200
0000
0301
0000
0010
0000
,
0110
0000
0010
0000
0001
0000
0100
0010
0100
0000
0001
0000
4000
0000
0000
0000
,
3200
0000
0320
0030
0004
0000
0000
0000
,
0000
0000
0000
0000
,
0003
0000
0000
0000
;

//---------------dance-single - ----------------
#NOTES:
     dance-single:
     :
     Medium:
     7:
     0.430674,0.466450,0.110777,0.474759,0.158253,381.000000,367.000000,14.000000,60.000000,0.000000,0.000000,0.430674,0.466450,0.110777,0.474759,0.158253,381.000000,367.000000,14.000000,60.000000,0.000000,0.000000:
0000
0000
0000
0000
,
0000
0000
0000
0000
,
0000
0000
0000
0000
,
0000
0000
0000
0000
,
0001
0000
0100
0000
0010
1000
0001
0010
,
0100
0000
1000
0000
0001
0100
0010
0100
,
0001
0001
1000
1000
0100
0100
0010
0001
,
1000
1000
0010
0010
0400
0000
0000
0000
,
0301
0000
0000
0000
1000
0000
0000
0100
0000
0010
0000
0000
0100
0000
2000
0000
,
0000
0000
3000
0000
0001
0000
0000
0100
0000
0001
0000
0000
1000
0000
0000
0000
,
0000
0000
0000
0000
0001
0000
0000
0100
0000
0010
0000
0000
1000
0000
0002
0000
,
0000
0000
0003
0000
0010
0000
0000
0100
0000
0010
0000
0000
0001
0000
0000
0000
,
1001
0000
0000
0000
1000
0000
0000
0010
0000
0100
0000
0000
0001
0000
2000
0000
,
0000
0000
3000
0000
0100
0000
0000
0010
0000
0100
0000
0000
1000
0000
0001
0000
,
0100
0000
0000
0000
0010
0000
0000
1000
0000
0001
0000
0000
0010
0000
0200
0000
,
0000
0000
0300
0000
0010
0000
0000
0001
0000
1000
0000
0000
0010
0000
0000
0000
,
1000
0000
0000
0000
0001
0000
0000
0010
0000
0001
0000
0000
1000
0000
0010
0000
,
0400
0000
0000
0000
0000
0000
0000
0000
0000
0000
0000
0000
0000
0300
0001
0000
,
1000
0000
0000
0000
0100
0000
0000
0010
0000
0001
0000
0000
1000
0000
0010
0000
,
0000
0000
0000
0000
,
2000
0000
3001
0000
0010
0000
0000
0001
0000
1000
0000
1000
0000
0000
0010
0000
,
0200
0000
0301
0000
1000
0000
0000
0100
0000
0010
0000
0010
0000
0004
0000
0000
,
1003
0000
0010
0000
0100
0000
0000
0010
0000
1000
0000
1000
0000
0000
0001
0000
,
0020
0130
2000
0000
3002
0000
0203
0000
,
0320
0000
1030
0000
0001
0000
0000
0010
0000
0100
0000
0100
0000
0000
0010
0000
,
0002
0000
1003
0000
0010
0000
0000
0100
0000
0001
0000
0001
0000
4000
0000
0000
,
3002
0000
0013
0000
0100
0000
0000
1000
0000
0001
0000
0001
0000
0000
0100
0000
,
0002
1003
0002
0000
0203
0000
0320
0000
,
1030
0001
1000
0100
0002
0103
1000
0010
,
0002
0013
1000
0100
0002
0103
4000
0000
,
3002
1003
0001
0100
2000
3100
0001
1000
,
0200
0300
2000
0000
3002
0000
0203
0000
,
0302
1003
0001
0100
2000
3100
0001
0010
,
2000
3010
0001
0100
2000
3100
0004
0000
,
2003
3001
1000
0100
0002
0103
1000
0010
,
0200
0301
1000
0100
0100
0010
0002
0000
,
1003
0000
0010
0000
0100
0001
1000
0001
,
0010
0000
0100
0000
1000
0001
0100
0010
,
1000
0000
0001
0000
0010
0100
0010
0001
,
1000
0000
0010
0000
0100
0001
1000
0100
,
1000
0001
0100
0010
,
1000
0001
0010
0100
,
1000
1000
0001
0001
0400
0000
0000
0000
,
0310
1000
0010
1000
0004
0000
0000
1003
,
1001
1001
1001
1001
,
1100
0000
1100
0000
1100
0000
1000
0001
,
0200
0310
1010
0000
1010
0000
1010
0000
,
1000
0000
0001
0000
0001
1000
0001
0010
,
0200
0300
1000
1000
0001
0001
0100
0010
,
1000
0001
1000
0001
0010
0100
1000
0001
,
2002
3003
1000
1000
0100
1000
0010
0100
,
0001
1000
0001
1000
0001
0100
0010
1000
,
2002
3003
0001
0001
0010
0010
0100
1000
,
0001
0100
0001
0100
0001
1000
0100
0010
,
0022
0033
0001
0001
1000
0010
0100
0001
,
1000
0000
0000
0000
1000
0000
0001
0010
,
0002
1003
0001
0100
2000
3100
0001
0010
,
2000
3010
0001
0100
2000
3100
0004
0000
,
2003
3001
1000
0100
0002
0103
1000
0001
,
0200
0300
0002
0000
2003
0000
3200
0000
,
2300
3001
1000
0100
0002
0103
1000
0010
,
0002
0013
1000
0100
0002
0103
4000
0000
,
3002
1003
0001
0100
2000
3100
0001
0010
,
0200
1300
0001
0100
0100
0010
2000
0000
,
3001
0010
0400
0000
,
0000
0000
0300
0000
;

//---------------dance-single - ----------------
#NOTES:
     dance-single:
     :
     Easy:
     4:
     0.290507,0.312154,0.000000,0.166166,0.000000,257.000000,257.000000,0.000000,21.000000,0.000000,0.000000,0.290507,0.312154,0.000000,0.166166,0.000000,257.000000,257.000000,0.000000,21.000000,0.000000,0.000000:
0000
0000
0000
0000
,
0000
0000
0000
0000
,
0000
0000
0000
0000
,
0000
0000
0000
0000
,
0001
0000
0100
0000
0010
1000
1000
0000
,
0001
0000
0010
0000
0100
1000
1000
0000
,
0001
0000
0100
0000
0010
0100
0100
0000
,
0002
0000
2003
0000
,
3001
0000
0100
0000
0000
0000
0010
1000
,
0000
0001
0010
0001
,
0000
0000
1000
0000
0000
0000
0001
0100
,
0000
0001
0010
0100
,
1000
0001
0100
0010
,
0100
0000
0001
0000
1000
0000
0100
0010
,
0010
0001
1000
0010
,
0100
0001
1000
0100
,
1000
0000
0001
0000
,
0100
0000
0000
0000
0010
0000
1000
0001
,
0001
0000
0000
0000
,
1000
0000
0001
0000
0100
0010
0100
0000
,
0001
1000
0100
0100
,
0010
0000
0001
0000
1000
0000
0010
0100
,
0001
0000
1000
0000
0100
0000
0010
0100
,
1000
0000
0002
0003
0200
0300
0020
0030
,
1000
0001
1000
1000
,
0100
0000
0010
0000
0001
0000
1000
0010
,
0100
0000
0001
0000
0010
0000
0010
0001
,
1000
0000
0020
0030
0200
0300
0002
0003
,
1000
0000
0010
0100
0001
0000
1000
0100
,
1000
0000
0001
0100
0010
0000
1000
0000
,
1000
0000
0001
0010
0001
0000
1000
0010
,
0100
0000
0002
0003
2000
3000
0200
0300
,
0010
0000
0001
1000
0001
0000
0100
0010
,
1000
0000
0001
0010
0100
0000
1000
0000
,
1000
0000
0001
0100
0010
0000
0100
0001
,
1000
0100
0010
0001
,
1000
0000
0001
0000
,
0100
0000
0000
0000
0010
0000
1000
0001
,
0010
0000
0100
0000
,
0010
0000
0000
0000
0001
0000
1000
0010
,
0100
0001
1000
0100
,
1000
0001
0100
0010
,
2000
0000
3002
0000
,
0023
0000
0230
0000
,
1300
1000
0001
0001
,
0100
0100
0010
0010
,
1000
0001
0001
0010
,
0010
0000
0000
0000
0000
0001
1000
0000
,
0020
0030
0100
0000
0001
0000
1000
0000
,
0100
0000
0010
0000
0100
0000
1000
0001
,
0100
0000
0010
0000
1000
0001
1000
0000
,
0100
0000
0010
0000
0001
0000
1000
0010
,
0100
0001
1000
0001
,
0010
0100
1000
0000
0001
0000
0100
0010
,
1000
0001
0010
0001
,
1000
0000
0010
0100
,
0001
0000
0010
0100
1000
0000
0001
0100
,
0001
0000
1000
0100
0010
0000
0001
0000
,
0001
0000
1000
0010
1000
0000
0001
0010
,
0100
0000
2000
3000
0002
0003
0200
0300
,
0010
0000
1000
0001
1000
0000
0100
0010
,
0001
0000
1000
0010
0100
0000
0001
0000
,
0001
0000
1000
0100
0010
0000
0100
1000
,
0001
0100
0010
1000
,
0001
0000
2000
3000
0002
0000
0000
0000
,
0000
0000
0000
0003
;

//---------------dance-single - ----------------
#NOTES:
     dance-single:
     :
     Beginner:
     1:
     0.065562,0.078038,0.000000,0.007913,0.000000,58.000000,58.000000,0.000000,1.000000,0.000000,0.000000,0.065562,0.078038,0.000000,0.007913,0.000000,58.000000,58.000000,0.000000,1.000000,0.000000,0.000000:
// measure 0
0000
0000
0000
0000
,  // measure 1
0000
0000
0000
0000
,  // measure 2
0000
0000
0000
0000
,  // measure 3
0000
0000
0000
0000
,  // measure 4
0000
0000
0000
0000
,  // measure 5
0000
0000
0000
0000
,  // measure 6
0000
0000
0000
0000
,  // measure 7
0000
0000
0000
0000
,  // measure 8
1000
0000
0000
0000
,  // measure 9
0001
0000
0000
0000
,  // measure 10
0010
0000
0000
0000
,  // measure 11
0100
0000
0000
0000
,  // measure 12
1000
0000
0000
0000
,  // measure 13
0001
0000
0000
0000
,  // measure 14
0100
0000
0000
0000
,  // measure 15
0010
0000
0000
0000
,  // measure 16
1000
0000
0000
0000
,  // measure 17
0001
0000
0000
0000
,  // measure 18
0010
0000
0000
0000
,  // measure 19
0100
0000
0000
0000
,  // measure 20
0010
0000
0000
0000
,  // measure 21
0001
0000
0000
0000
,  // measure 22
1000
0000
0000
0000
,  // measure 23
0010
0000
0000
0000
,  // measure 24
0100
0000
0000
0000
,  // measure 25
0001
0000
0000
0000
,  // measure 26
1000
0000
0000
0000
,  // measure 27
0100
0000
0000
0000
,  // measure 28
1000
0000
0000
0000
,  // measure 29
0001
0000
0000
0000
,  // measure 30
0100
0000
0000
0000
,  // measure 31
0010
0000
0000
0000
,  // measure 32
0100
0000
0000
0000
,  // measure 33
0001
0000
0000
0000
,  // measure 34
1000
0000
0000
0000
,  // measure 35
0100
0000
0000
0000
,  // measure 36
0010
0000
0000
0000
,  // measure 37
0100
0000
0000
0000
,  // measure 38
1000
0000
0000
0000
,  // measure 39
0001
0000
0000
0000
,  // measure 40
0100
0000
0000
0000
,  // measure 41
0010
0000
0000
0000
,  // measure 42
1000
0000
0000
0000
,  // measure 43
0001
0000
0000
0000
,  // measure 44
0010
0000
0000
0000
,  // measure 45
0100
0000
0000
0000
,  // measure 46
1000
0000
0000
0000
,  // measure 47
0001
0000
0000
0000
,  // measure 48
0100
0000
0000
0000
,  // measure 49
0001
0000
0000
0000
,  // measure 50
1000
0000
0000
0000
,  // measure 51
0100
0000
0000
0000
,  // measure 52
0010
0000
0000
0000
,  // measure 53
0100
0000
0000
0000
,  // measure 54
1000
0000
0000
0000
,  // measure 55
0001
0000
0000
0000
,  // measure 56
0100
0000
0000
0000
,  // measure 57
0010
0000
0000
0000
,  // measure 58
1000
0000
0000
0000
,  // measure 59
0001
0000
0000
0000
,  // measure 60
0010
0000
0000
0000
,  // measure 61
0100
0000
0000
0000
,  // measure 62
1000
0000
0000
0000
,  // measure 63
0001
0000
0000
0000
,  // measure 64
0100
0000
0000
0000
,  // measure 65
0002
0000
0000
0003
;
