#TITLE:Fixed On You;
#SUBTITLE:(ft. Violet Days);
#ARTIST:Hotel Garuda;
#TITLETRANSLIT:;
#SUBTITLETRANSLIT:;
#ARTISTTRANSLIT:;
#GENRE:;
#CREDIT:loodee;
#BANNER:bn.png;
#BACKGROUND:bg.png;
#LYRICSPATH:;
#CDTITLE:loodeecdtitle.png;
#MUSIC:music.ogg;
#OFFSET:-0.157000;
#SAMPLESTART:48.980000;
#SAMPLELENGTH:27.172001;
#SELECTABLE:YES;
#DISPLAYBPM:118.000000;
#BPMS:0.000000=118.000000
,92.750000=177.000000
,94.000000=118.000000
;
#STOPS:92.750000=0.085000,
93.250000=0.042000,
93.500000=0.042000,
93.750000=0.042000
;
#BGCHANGES:;
#KEYSOUNDS:;
#ATTACKS:;

//---------------dance-single - ----------------
#NOTES:
     dance-single:
     :
     Hard:
     8:
     0.390843,0.473299,0.092351,0.427123,0.606054,237.000000,229.000000,8.000000,37.000000,7.000000,0.000000,0.390843,0.473299,0.092351,0.427123,0.606054,237.000000,229.000000,8.000000,37.000000,7.000000,0.000000:
0000
0000
0000
0000
,
0000
0000
0000
0000
,
0000
0000
0000
0000
,
0000
0000
0000
0000
,
0000
0000
0000
0000
,
0000
0000
0000
0000
,
0000
0000
0000
0000
,
0000
0000
0000
0000
,
0001
0000
0001
0000
0100
0100
0001
0000
,
1000
0001
1000
0001
0010
0000
0010
0000
0001
1000
0001
1000
0010
0000
0000
0010
,
0000
0200
0000
0000
0000
0000
0300
0000
0001
1000
0001
1000
0100
0000
0000
0010
,
0000
0200
0000
0000
0000
0000
0300
0000
0000
0000
0000
0000
0000
0000
0000
0000
,
1000
0000
0000
0000
1000
0000
0000
0000
0010
1000
0010
1000
0100
0000
0000
0000
,
0100
0010
0100
0010
0001
0000
0001
0000
0001
0000
0100
0000
0010
0000
0000
0010
,
0000
2000
0000
0000
0000
3000
0000
0000
0100
0010
0100
1000
0100
0000
0000
1000
,
0000
0002
0000
0000
0000
0000
0000
0000
0003
0000
0000
0000
0001
0000
0100
0000
,
2000
0000
0000
0000
0000
0000
0000
3200
0000
0000
0000
0000
0301
0000
0010
0000
,
0200
0000
0000
0000
0300
0000
0000
0000
0000
0000
0000
0000
1000
0100
1000
0000
,
0020
0000
0000
0000
0032
0000
0000
0000
0023
0000
0000
0000
1030
0001
1000
0000
,
0100
0000
0000
0020
0000
0000
0000
0000
0030
0000
0000
0000
0001
0000
0010
0000
,
2000
0000
0000
0000
0000
0000
0000
3020
0000
0000
0000
0000
0130
1000
0100
0000
,
2000
0000
0000
0000
3000
0000
0000
0000
0000
0000
0000
0000
0001
0100
0010
0000
,
0200
0000
0000
0000
2300
0000
0000
0000
3200
0000
0000
0000
0310
1000
0001
0000
,
2000
0000
0000
3001
0000
0001
0010
0001
0200
0000
0000
2300
0000
3100
0010
0100
,
0002
0000
0000
0003
1001
0000
1000
0100
0000
0100
0000
0100
0000
0010
0100
0000
,
2000
0000
0000
3000
1001
0000
0001
0100
0000
0100
0000
0100
0000
0010
1000
0000
,
0200
0000
0000
0300
0110
0000
0010
0100
0000
0100
0000
0100
0000
0010
1000
0000
,
0020
0000
0000
0030
0011
0000
0001
1000
0000
1000
0000
1000
0000
0010
0001
0000
,
0020
0000
0000
0030
0110
0000
0100
0001
0000
0001
0000
0001
0000
1000
0100
0000
,
0020
0000
0000
0030
0110
0000
0100
1000
0000
1000
0000
1000
0000
0001
0010
0000
,
0200
0000
0000
0300
1100
0000
1000
0001
0000
0001
0000
0001
0000
0100
1000
0000
,
0200
0000
0000
0300
0110
0000
0010
1000
0000
1000
0000
1000
0000
0100
0001
0100
,
0000
0000
0000
0000
0200
0000
0000
1300
0000
0010
0000
0001
0000
0010
1000
0001
,
0020
0000
0000
0000
0130
0000
1000
0001
0000
0100
00M0
0100
0000
1000
0001
1000
,
0200
0000
0000
0000
0310
0000
0100
1000
0000
0010
0M00
0010
0000
0001
0010
0100
,
2000
0000
0000
0000
3010
0000
1000
0001
0000
0010
0M00
0010
0000
1000
0100
0010
,
0002
0000
0000
0000
0103
0000
0010
1000
0000
0100
00M0
0100
0000
0001
0100
0001
,
2000
0000
0000
0000
3100
0000
0010
0001
0000
0010
0M00
0010
0000
0000
1000
0000
,
0002
0000
0000
0000
0013
0000
0100
0010
0000
0100
M000
0100
0000
0001
0010
0001
,
2000
0000
0000
0000
3010
0000
0100
0001
0000
0010
000M
0010
0000
1000
0100
0010
,
0200
0000
0000
0000
,
0300
0000
0000
0000
;

//---------------dance-single - ----------------
#NOTES:
     dance-single:
     :
     Challenge:
     10:
     0.519475,0.738087,0.115439,0.438667,0.929282,315.000000,305.000000,10.000000,38.000000,6.000000,0.000000,0.519475,0.738087,0.115439,0.438667,0.929282,315.000000,305.000000,10.000000,38.000000,6.000000,0.000000:
0000
0000
0000
0000
,
0000
0000
0000
0000
,
0000
0000
0000
0000
,
0000
0000
0000
0000
,
0000
0000
0000
0000
,
0000
0000
0000
0000
,
0000
0000
0000
0000
,
0000
0000
0000
0000
0000
0000
0000
0000
0000
0000
0000
0000
0001
1000
0100
1000
,
0020
0030
0020
0030
1000
1000
0020
0030
,
1000
1000
0100
0010
0001
0001
0100
0000
0010
0010
1000
0001
1000
0000
1000
0100
,
0000
0200
0000
0000
0000
0000
0300
0000
0010
0010
0100
1000
0001
0000
0001
0100
,
0000
0200
0000
0000
0000
0000
0300
0000
0000
0000
0000
0000
0100
0001
0010
0100
,
2000
0000
3000
0000
2000
0000
3000
0000
0001
0001
0100
0010
0200
0000
0300
0000
,
0010
0010
0100
0001
1000
1000
0100
0010
0100
0000
0100
0000
0100
0000
0010
0001
,
0000
0002
0000
0000
0000
0000
0003
0000
1000
1000
0010
0100
0001
0000
0001
1000
,
0000
2000
0000
0000
0000
0000
3000
0000
0000
0000
0000
0000
0100
1000
0001
0100
,
2000
0000
0000
0000
0000
0000
3100
0020
0000
0000
0000
0000
0031
0010
1000
0001
,
0020
0000
0000
0000
0000
0000
0030
0000
0000
0000
0000
0000
1000
0010
0100
1000
,
0200
0000
0000
0300
0200
0000
0000
0300
0200
0000
0000
0300
0001
0100
0010
0001
,
2000
0000
0000
3020
0000
0000
0000
0000
0030
0000
0000
0000
0100
0001
1000
0100
,
0002
0000
0000
0000
0000
0000
0103
0020
0000
0000
0000
0000
1030
0010
0001
1000
,
0020
0000
0000
0000
0000
0000
0030
0000
0000
0000
0000
0000
0001
0010
0100
0010
,
1000
0001
0010
0100
1000
0001
0100
0010
1000
0100
1000
0001
0100
0010
0100
0001
,
2000
0000
0000
3200
0000
0310
0100
0010
1000
0001
0100
1000
0001
0001
1000
1000
,
0020
0000
0000
0000
0000
0000
0030
0000
0110
0000
0000
0000
1000
0000
1000
0000
0000
0000
1000
0000
0000
0000
1000
0000
0000
0000
0100
0000
0001
M000
0001
0000
,
0020
0000
0000
0000
0000
0000
0030
0000
0110
0000
0000
0000
0001
0000
0001
0000
0000
0000
0001
0000
0000
0000
0001
0000
0000
0000
0100
0000
1000
000M
1000
0000
,
0020
0000
0000
0000
0000
0000
0030
0000
0110
0000
0000
0000
0100
0000
0100
0000
0000
0000
0100
0000
0000
0000
0100
0000
0000
0000
0010
0000
0001
0M00
0001
0000
,
2000
0000
0000
3000
1100
0000
0100
0100
0000
0100
0000
0100
0000
0010
1000
0001
,
0200
0000
0000
0000
0310
0000
0000
0000
0011
0000
0000
0000
0001
0000
0001
0000
0000
0000
0001
0000
0000
0000
0001
0000
0000
0000
0100
0000
1000
000M
1000
0000
,
0020
0000
0000
0000
0130
0000
0000
0000
1010
0000
0000
0000
1000
0000
1000
0000
0000
0000
1000
0000
0000
0000
1000
0000
0000
0000
0100
0000
0001
M000
0001
0000
,
0020
0000
0000
0000
0031
0000
0000
0000
0101
0000
0000
0000
0010
0000
0010
0000
0000
0000
0010
0000
0000
0000
0010
0000
0000
0000
0100
0000
1000
00M0
1000
0000
,
0002
0000
1003
0000
1100
0000
0100
0100
0000
0100
0000
0100
0010
0001
0100
1000
,
0000
0000
0000
0000
0200
0000
0000
0310
0000
0101
0000
0011
0000
0001
0010
0100
,
2000
0000
0000
3001
0100
0001
0010
0100
0000
0001
0000
0001
0000
0100
1000
0001
,
0200
0000
0000
0310
0100
0001
1000
0010
0000
0001
0000
0001
0000
0010
0100
0100
,
0002
0000
0000
1003
0010
0100
0001
0010
0000
1000
0000
1000
0000
0100
1000
0010
,
0002
0000
0000
0103
0010
1000
0001
0100
0000
1000
0000
1000
0000
0100
0010
0010
,
2000
0000
0000
3001
1000
0100
0010
0100
0000
0001
0000
0001
0000
0100
0010
0001
,
1000
0010
0100
0001
1000
0100
0010
0100
0010
0001
0100
0010
0100
0001
0010
0001
,
0100
0010
1000
0001
0010
0100
1000
0010
0000
0010
0000
0010
0100
0001
0010
1000
,
0020
0000
0000
0000
,
0000
0030
0000
0000
;

//---------------dance-single - loodee----------------
#NOTES:
     dance-single:
     :
     Medium:
     6:
     0.275404,0.331309,0.126983,0.288597,0.305913,167.000000,156.000000,11.000000,25.000000,0.000000,0.000000,0.275404,0.331309,0.126983,0.288597,0.305913,167.000000,156.000000,11.000000,25.000000,0.000000,0.000000:
0000
0000
0000
0000
,
0000
0000
0000
0000
,
0000
0000
0000
0000
,
0000
0000
0000
0000
,
0000
0000
0000
0000
,
0000
0000
0000
0000
,
0000
0000
0000
0000
,
0000
0000
0000
0000
,
1000
0000
0000
1000
0000
0000
1000
0000
0010
0000
0000
0000
1010
0000
0000
0000
,
0001
0000
0000
0001
0000
0000
0001
0000
0010
0000
0000
0000
0011
0000
0000
0000
,
0100
0000
0000
0100
0000
0000
0100
0000
0000
0000
0000
0000
1001
0000
0000
0000
,
0100
0000
0000
0100
0000
0000
0100
0000
0000
0000
0000
0000
1001
0000
0000
0000
,
0001
0000
0000
0001
0000
0000
0001
0000
1000
0000
0000
0000
1010
0000
0000
0000
,
0100
0000
0000
0100
0000
0000
0100
0000
0001
0000
0000
0000
1001
0000
0000
0000
,
1000
0000
0000
1000
0000
0000
1000
0000
0000
0000
0000
0000
0110
0000
0000
0000
,
0001
0000
0000
0001
0000
0000
0001
0000
1000
0000
0100
0000
0010
0000
0100
0000
,
0002
0000
0000
0000
0000
0000
0000
0203
0000
0000
0000
0000
1300
0000
0001
0000
,
2000
0000
3000
0000
0000
0000
0001
0100
,
0020
0000
2030
0000
3020
0000
0031
0010
,
0200
0000
0000
0000
0300
0000
0001
0010
,
0200
0000
0000
0000
0000
0000
0000
0320
0000
0000
0000
0000
1030
0000
0010
0000
,
0200
0000
0300
0000
0000
0000
1000
0001
,
4000
3040
0430
0304
,
2003
0000
0000
3200
0000
0000
0000
0000
0300
0000
0000
0000
0000
0000
0000
0000
,
2001
0000
0000
0000
3100
0000
0010
0000
0000
0010
0000
0010
0000
0000
0000
0000
,
0012
0000
0000
0000
1003
0000
0010
0000
0000
0010
0000
0010
0000
0000
0000
0000
,
0210
0000
0000
0000
0301
0000
1000
0000
0000
1000
0000
1000
0000
0000
0000
0000
,
1200
0000
0000
0000
0310
0000
0001
0000
0000
0001
0000
0001
0000
0000
0000
0000
,
0100
0000
0010
0000
1000
0000
0010
0000
0000
0010
0000
0010
0000
0000
0000
0000
,
0010
0000
1000
0000
0100
0000
0010
0000
0000
0010
0000
0010
0000
0000
0000
0000
,
0010
0000
0001
0000
1000
0000
0001
0000
0000
0001
0000
0001
0000
0000
0000
0000
,
0001
0000
1000
0000
0010
0000
1000
0000
0000
1000
0000
1000
0000
0100
0000
0000
,
0000
0000
0000
0000
0020
0000
0000
0001
0000
0001
0000
0031
0000
0000
0000
0000
,
2000
0000
0000
0000
3100
0000
0000
0001
0000
0001
0000
0001
0000
0000
0000
0000
,
0200
0000
0000
0000
0310
0000
0000
0001
0000
0001
0000
0001
0000
0000
1000
0000
,
0002
0000
0000
0000
0103
0000
0000
1000
0000
1000
0000
1000
0000
0000
0000
0000
,
0200
0000
0000
0000
0310
0000
0000
1000
0000
1000
0000
1000
0000
0000
0001
0000
,
0020
0000
0000
0000
0130
0000
0000
0001
0000
0001
0000
0001
0000
0000
0000
0000
,
0200
0000
0000
0000
1300
0000
0000
0001
0000
0001
0000
0001
0000
0000
0100
0000
,
0020
0000
0000
0000
0130
0000
0000
1000
0000
1000
0000
1000
0000
0100
0000
0000
,
0002
0000
0000
0000
,
0003
0000
0000
0000
;

//---------------dance-single - ----------------
#NOTES:
     dance-single:
     :
     Easy:
     4:
     0.216035,0.277053,0.069263,0.380948,0.005772,131.000000,125.000000,6.000000,33.000000,0.000000,0.000000,0.216035,0.277053,0.069263,0.380948,0.005772,131.000000,125.000000,6.000000,33.000000,0.000000,0.000000:
// measure 0
0000
0000
0000
0000
,  // measure 1
0000
0000
0000
0000
,  // measure 2
0000
0000
0000
0000
,  // measure 3
0000
0000
0000
0000
,  // measure 4
0000
0000
0000
0000
,  // measure 5
0000
0000
0000
0000
,  // measure 6
0000
0000
0000
0000
,  // measure 7
0000
0000
0000
0000
,  // measure 8
1000
0000
1000
0000
0100
0010
0100
0000
,  // measure 9
2000
3010
2000
3010
,  // measure 10
0200
0000
0300
0000
0001
0010
0001
0000
,  // measure 11
0200
0300
0000
0000
,  // measure 12
0010
0000
0010
0000
1000
0001
1000
0000
,  // measure 13
0200
0310
0200
0310
,  // measure 14
0002
0000
0003
0000
0100
0010
0100
0000
,  // measure 15
0002
0003
0000
0000
,  // measure 16
1002
0000
0000
0000
0000
0000
0013
0010
,  // measure 17
0200
0300
0000
1000
,  // measure 18
0002
0000
0203
0000
0302
0000
1003
1000
,  // measure 19
0200
0000
0300
0010
,  // measure 20
0002
0000
0000
0000
0000
0000
0103
0100
,  // measure 21
0020
0030
0000
1000
,  // measure 22
0200
0320
0230
0320
,  // measure 23
0002
0000
0033
0000
,  // measure 24
2100
3100
0010
0010
,  // measure 25
1002
1003
0010
0010
,  // measure 26
0201
0301
1000
1000
,  // measure 27
1200
1300
0001
0010
,  // measure 28
0100
0100
1000
0000
0001
0000
0001
0000
,  // measure 29
0010
0010
0001
0000
1000
0000
1000
0000
,  // measure 30
0010
0010
0100
0000
0010
0000
0010
0000
,  // measure 31
1000
1000
0001
0000
0010
0000
0100
0010
,  // measure 32
0000
0000
0000
0000
0002
0000
0000
1003
0000
0000
0000
0000
0000
0000
0000
0000
,  // measure 33
0010
0100
0010
0200
0000
0300
0001
0000
,  // measure 34
1000
0001
1000
0002
0000
0003
0010
0000
,  // measure 35
0001
0100
0001
0200
0000
0300
1000
0000
,  // measure 36
0100
0010
0100
0020
0000
0030
1000
0000
,  // measure 37
0001
0010
0001
0020
0000
0030
0100
0000
,  // measure 38
1000
0100
1000
0200
0000
0300
1000
0000
,  // measure 39
0010
0100
0010
0200
0000
0300
0001
0000
,  // measure 40
0011
0000
0000
0000
;

//---------------dance-single - ----------------
#NOTES:
     dance-single:
     :
     Beginner:
     1:
     0.095649,0.189320,0.000000,0.057719,0.000000,58.000000,58.000000,0.000000,5.000000,0.000000,0.000000,0.095649,0.189320,0.000000,0.057719,0.000000,58.000000,58.000000,0.000000,5.000000,0.000000,0.000000:
// measure 0
0000
0000
0000
0000
,  // measure 1
0000
0000
0000
0000
,  // measure 2
0000
0000
0000
0000
,  // measure 3
0000
0000
0000
0000
,  // measure 4
0000
0000
0000
0000
,  // measure 5
0000
0000
0000
0000
,  // measure 6
0000
0000
0000
0000
,  // measure 7
0000
0000
0000
0000
,  // measure 8
0001
0000
0000
0000
,  // measure 9
1000
0000
1000
0000
,  // measure 10
0001
0000
0000
0000
,  // measure 11
0001
0000
0000
0000
,  // measure 12
0010
0000
0000
0000
,  // measure 13
0100
0000
0100
0000
,  // measure 14
0010
0000
0000
0000
,  // measure 15
0010
0000
0000
0000
,  // measure 16
0002
0000
0000
0000
,  // measure 17
1003
0000
0000
0000
,  // measure 18
0010
0000
0000
0000
,  // measure 19
0100
0000
0000
0000
,  // measure 20
0002
0000
0000
0000
,  // measure 21
1003
0000
0000
0000
,  // measure 22
0200
0000
0000
0000
,  // measure 23
0320
0000
0030
0000
,  // measure 24
0001
0001
0000
0000
,  // measure 25
1000
1000
0000
0000
,  // measure 26
0010
0010
0000
0000
,  // measure 27
0100
0100
0000
0000
,  // measure 28
0001
0001
0000
0000
,  // measure 29
0010
0010
0000
0000
,  // measure 30
0100
0100
0000
0000
,  // measure 31
1000
1000
0000
0000
,  // measure 32
0000
0010
0000
0000
,  // measure 33
0010
0010
0010
0000
,  // measure 34
0100
0100
0100
0000
,  // measure 35
0010
0010
0010
0000
,  // measure 36
1000
1000
1000
0000
,  // measure 37
0001
0001
0001
0000
,  // measure 38
1000
1000
1000
0000
,  // measure 39
0100
0100
0100
0100
,  // measure 40
0020
0000
0000
0000
,  // measure 41
0030
0000
0000
0000
;
