#TITLE:Feelin Sky;
#SUBTITLE:(Camellia's "200step" Self-remix);
#ARTIST:Camellia;
#TITLETRANSLIT:;
#SUBTITLETRANSLIT:;
#ARTISTTRANSLIT:;
#GENRE:;
#CREDIT:;
#BANNER:feelin sky-bn.png;
#BACKGROUND:feelin sky-bg.png;
#LYRICSPATH:;
#CDTITLE:;
#MUSIC:Feelin Sky.ogg;
#OFFSET:-0.004000;
#SAMPLESTART:57.589001;
#SAMPLELENGTH:19.200000;
#SELECTABLE:YES;
#DISPLAYBPM:200.000000;
#BPMS:0.000000=200.000000
,192.000000=249.999985
,192.500000=142.856995
,192.750000=200.000000
,352.000000=249.999985
,352.500000=142.856995
,352.750000=200.000000
,353.000000=249.999985
,353.500000=142.856995
,353.750000=200.000000
,368.000000=249.999985
,368.500000=142.856995
,368.750000=200.000000
,369.000000=249.999985
,369.500000=142.856995
,369.750000=200.000000
,384.000000=249.999985
,384.500000=142.856995
,384.750000=200.000000
;
#STOPS:
;
#BGCHANGES:;
#KEYSOUNDS:;
#ATTACKS:;

//---------------dance-single - sangyule----------------
#NOTES:
     dance-single:
     sangyule:
     Beginner:
     1:
     0.096411,0.234311,0.075829,0.000000,0.000000,89.000000,79.000000,10.000000,0.000000,0.000000,0.000000,0.096411,0.234311,0.075829,0.000000,0.000000,89.000000,79.000000,10.000000,0.000000,0.000000,0.000000:
0000
0000
0000
0000
,
0000
0000
0000
0000
,
0000
0000
0000
0000
,
0000
0000
0000
0000
,
0000
0000
0000
0000
,
0000
0000
0000
0000
,
0000
0000
0000
0000
,
0000
0000
0000
0000
,
1000
0000
0000
0000
,
0000
0000
0000
0000
,
1000
0000
0000
0000
,
0000
0000
0000
0000
,
0001
0000
0000
0000
,
0001
0000
0000
0000
,
0010
0000
0000
0000
,
0010
0000
0000
0000
,
0001
0000
0000
0000
,
0001
0000
0000
0000
,
1000
0000
0000
0000
,
1000
0000
0000
0000
,
0010
0000
0000
0000
,
0010
0000
0000
0000
,
1000
0000
0000
0000
,
1000
0000
0000
0000
,
0100
0000
0000
0000
,
0100
0000
0000
0000
,
0100
0000
0000
0000
,
0100
0000
0000
0000
,
0100
0000
0000
0000
,
0100
0000
0000
0000
,
0100
0000
0000
0000
,
0000
0000
0000
0000
,
1001
0000
0000
0000
,
1000
0000
0000
0000
,
0001
0000
0000
0000
,
1000
0000
0000
0000
,
0010
0000
0000
0000
,
0100
0000
0000
0000
,
0010
0000
0000
0000
,
0000
0000
0000
0000
,
1001
0000
0000
0000
,
1000
0000
0000
0000
,
0001
0000
0000
0000
,
0010
0000
0000
0000
,
0100
0000
0000
0000
,
0000
0000
0000
0000
,
1000
0000
0000
0000
,
0000
0000
0000
0000
,
0000
1001
0000
0000
,
0001
0000
0000
0000
,
0100
0000
0000
0000
,
0000
0000
0000
0000
,
0010
0000
0000
0000
,
1000
0000
0000
0000
,
0001
0000
0000
0000
,
0000
0000
0000
0000
,
1001
0000
0000
0000
,
1001
0000
0000
0000
,
0110
0000
0000
0000
,
0110
0000
0000
0000
,
0000
0001
0000
0000
,
0000
0001
0000
0000
,
0000
1000
0000
1000
,
0000
0000
0000
0000
,
0001
0000
0000
0000
,
0000
0000
0000
0000
,
0100
0000
0000
0000
,
0000
0000
0000
0000
,
0010
0000
0000
0000
,
0000
0000
0000
0000
,
1000
0000
0000
0000
,
0000
0000
0000
0000
,
0001
0000
0000
0000
,
0001
0000
0000
0000
,
1000
0000
0000
0000
,
1000
0000
0000
0000
,
0100
0000
0000
0000
,
0010
0000
0000
0000
,
0001
0000
0000
0000
,
1000
0000
0000
0000
,
1001
0000
0000
0000
,
0000
0000
0000
0000
,
0000
0000
0000
0000
,
0000
0000
0000
0000
,
0100
0000
0000
0000
,
0100
0000
0000
0000
,
0100
0000
0000
0000
,
0000
0000
0000
0000
,
0110
0000
0000
0000
,
0001
0000
0000
0000
,
1000
0000
0000
0000
,
0001
0000
0000
0000
,
0010
0000
0000
0000
,
0010
0000
0000
0000
,
0100
0000
0000
0000
,
0100
0000
0000
0000
,
0000
1001
0000
0000
,
0000
0000
0000
0000
,
0001
0000
0000
0000
,
0001
0000
0000
0000
,
0100
0000
0000
0000
,
0100
0000
0000
0000
,
0100
0000
0000
0000
,
0100
0000
0000
0000
;

//---------------dance-single - sangyule----------------
#NOTES:
     dance-single:
     sangyule:
     Easy:
     4:
     0.242652,0.321514,0.068246,0.204738,0.000000,224.000000,215.000000,9.000000,27.000000,0.000000,0.000000,0.242652,0.321514,0.068246,0.204738,0.000000,224.000000,215.000000,9.000000,27.000000,0.000000,0.000000:
0000
0000
0000
0000
,
0000
0000
0000
0000
,
0000
0000
0000
0000
,
0000
0000
0000
0000
,
0000
0000
0000
0000
,
0000
0000
0000
0000
,
0000
0000
0000
0000
,
0000
0000
0000
0000
,
1001
0000
0000
0000
,
0000
0000
0000
0000
,
0110
0000
0000
0000
,
0000
0000
0000
0000
,
1001
0000
0000
0000
,
1001
0000
0000
0000
,
1100
0000
0100
0000
,
0010
0000
0002
0000
,
1003
0000
1000
0000
,
0010
0000
0010
0000
,
0100
0000
0100
0000
,
0001
0000
0001
2000
,
3001
0000
0001
0000
,
0010
0000
0010
0000
,
0100
0000
0100
0000
,
1000
0001
1000
0001
,
0200
0000
0000
0000
,
0000
0000
0000
0300
,
0200
0000
0000
0000
,
0000
0000
0000
0300
,
0100
0000
0000
0000
,
0100
0000
0000
0000
,
0001
1000
0100
1000
,
0001
0000
0000
0000
0000
0001
0000
0000
,
1000
0001
0000
1000
,
0000
0010
0000
0100
,
0001
1000
0000
0100
,
0000
0010
0000
0001
,
1000
0001
0000
0100
,
0000
0010
0000
1000
,
0100
1000
0000
0001
,
0010
0100
2000
0000
,
3001
0100
0000
0010
,
0000
1000
0000
0001
,
0010
0001
0000
1000
,
0010
0010
0020
0000
,
0130
0000
0101
0000
,
0000
0001
0000
0000
0011
0000
0000
0000
,
1000
0000
1100
0000
,
0001
0001
0001
0001
,
2000
3010
0000
0010
,
0100
0001
0000
0001
,
2000
0100
0000
0100
,
0000
0001
0000
3001
,
0010
0001
0000
0001
,
1000
0010
0000
0010
,
0200
0001
0000
0001
,
0000
0310
2000
0000
,
3001
0001
0001
0000
,
1000
1000
1000
0000
,
0100
0100
0100
0000
,
0010
0010
0010
0000
,
0001
2000
0000
3000
,
0010
0200
0000
0300
,
0001
2000
3100
2000
,
3002
0000
0000
0000
,
0103
0000
0010
0000
,
0000
1000
0000
0000
0001
0000
0000
0000
,
1000
0000
0000
0000
0001
0000
0000
0010
,
0000
0000
0001
0000
,
0100
0000
0010
0000
,
0000
1000
0000
0000
0010
0000
0000
0000
,
0100
0000
0000
0000
0001
0000
0000
1000
,
0000
1000
0000
0000
0001
0000
0001
0000
,
0010
0100
0000
1000
,
0000
0001
0000
0100
,
0010
0100
0000
0001
,
0000
1000
0000
0001
,
0010
0001
0000
1000
,
0000
0010
0000
0100
,
0001
1000
0000
0100
,
0010
0000
0000
0010
0000
0000
0001
0000
,
0200
0000
0000
0000
,
0000
0000
0000
0000
,
0300
0000
0000
0000
,
0000
0000
0000
0000
,
0100
0000
0100
0000
,
0100
0000
0100
0000
,
0100
0100
0100
0100
,
0000
0000
0000
0000
,
0001
0000
1000
1000
,
0100
0100
0010
0002
,
1003
0000
0010
0010
,
0100
0100
0001
1000
,
0001
0000
0020
0000
,
0032
0000
1003
0010
,
0100
0000
0001
0000
,
1000
0000
0000
1000
0000
0000
1000
0000
,
0000
0001
1000
1000
,
0001
0001
0010
0100
,
2000
3000
0001
0001
,
1000
1000
0010
0010
,
0100
0200
0000
0000
,
0300
0200
0000
0000
,
0300
0200
0300
0200
,
0302
0000
0003
0000
,
2002
0000
0000
0000
,
0000
0000
0000
0000
,
3003
0000
0000
0000
;

//---------------dance-single - sangyule----------------
#NOTES:
     dance-single:
     sangyule:
     Medium:
     8:
     0.493970,0.683218,0.447390,0.288149,0.155449,456.000000,397.000000,59.000000,38.000000,8.000000,0.000000,0.493970,0.683218,0.447390,0.288149,0.155449,456.000000,397.000000,59.000000,38.000000,8.000000,0.000000:
0000
0000
0000
0000
,
0000
0000
0000
0000
,
0000
0000
0000
0000
,
0000
0000
0000
0000
,
0000
0000
0000
0000
,
0000
0000
0000
0000
,
0000
0000
0000
0000
,
0000
0000
0000
0000
,
1001
0000
0000
1001
0000
0000
0000
0000
,
0000
0000
0000
0000
,
0110
0000
0000
0110
0000
0000
0000
0000
,
0001
0000
1000
0100
0000
0100
0010
0000
,
0011
0000
0000
0011
0000
0000
0100
0000
,
1010
0000
0000
1010
0000
0000
0001
0000
,
1000
0000
0000
0001
0000
0000
1000
0000
0100
0000
0000
0010
0000
0000
0100
0000
,
1000
0000
0000
0001
0000
0000
1000
0000
0040
0000
0000
0000
0000
0000
0000
0000
,
0130
0000
0001
0000
0100
0010
2000
0000
,
3001
0000
0010
0000
0100
1000
0200
0000
,
0310
0000
0001
0000
1000
0001
0200
0000
,
0310
0000
1000
0000
0100
0010
0002
0000
,
1003
0000
0001
0000
0100
0010
2000
0000
,
3100
0000
0010
0000
0001
1000
0200
0000
,
0310
0000
0001
0000
0010
0001
0200
0000
,
0310
0000
1000
1000
0001
0000
0100
0000
,
0110
0110
0101
0101
,
1100
1100
0110
M001
,
0101
0101
1100
1100
,
0101
0101
0110
100M
,
0110
1001
1100
1001
,
0410
0000
0000
0300
,
0001
0000
0000
1000
0000
0000
0001
0000
0010
0000
0000
0100
0000
0000
0010
0000
,
0001
0000
0000
0000
0000
1000
0000
0000
,
1001
0000
0000
0001
0000
0000
0100
0000
0010
0000
0000
1000
0000
0000
0001
0000
,
1000
0000
0000
0001
0000
0000
0010
0000
0100
0000
0000
1000
0000
0000
0001
0000
,
1000
0000
0000
0010
0000
0000
0100
0000
0010
0000
0000
1000
0000
0000
0100
0000
,
0010
0000
0000
0001
0000
0000
0100
0000
0010
0000
0000
1000
0000
0000
0001
0000
,
1000
0000
0000
0001
0000
0000
0010
0000
0100
0000
0000
1000
0000
0000
0010
0000
,
0100
0000
0000
0001
0000
0000
0100
0000
0010
0000
0000
1000
0000
0000
0001
0000
,
0010
0000
0000
0001
0000
0000
1000
0000
0000
0010
0000
0000
0100
0000
0001
0000
,
1000
0000
0000
0001
0000
0000
1000
0000
0001
0000
0000
0010
0000
0000
0001
0000
,
1001
0000
0000
1000
0000
0000
0010
0000
0100
0000
0000
0010
0000
0000
1000
0000
,
0001
0000
0000
0010
0000
0000
0100
0000
0010
0000
0000
0001
0000
0000
0100
0000
,
0001
0000
0000
1000
0000
0000
0100
0000
1000
0000
0000
0001
0000
0000
0100
0000
,
0010
0000
0000
0000
0010
0000
0000
0000
0010
0000
0000
1000
0000
0000
1000
0000
,
0001
0000
0000
0001
0010
0000
0000
0000
,
0000
0100
0000
0100
1000
0001
0000
0000
,
0101
0000
0000
0100
0010
0000
1000
1000
,
0001
0000
0001
0000
0001
1000
0100
0010
,
0002
0000
1003
0000
0000
0100
0001
0200
,
0000
0000
1300
0000
0000
0100
1000
0020
,
0000
0100
0000
1030
,
0001
0010
0001
1000
,
0200
0000
1300
0000
0000
0010
0001
0020
,
0000
0000
1030
0000
0000
0100
1000
0002
,
0000
0010
0000
1003
,
0010
0000
0000
0000
0100
0000
0001
0000
1000
0000
0000
0001
0000
0000
1000
0000
,
1001
0001
0001
0000
,
0110
0100
0100
0000
,
1001
1000
1000
0000
,
0011
0000
0000
0010
0000
0000
0010
0000
0100
0000
0000
0000
0000
0000
0000
0000
,
2000
0000
3002
0000
0000
0103
1000
0001
,
0020
0000
2030
0000
0000
3001
0010
0001
,
1000
0020
0130
0002
,
2003
0000
0000
0000
,
3100
0000
0000
0100
0010
0001
0000
1000
,
2000
0000
0000
0000
3000
0000
0000
0010
,
0100
0000
0010
1000
0000
0001
0000
0010
,
0020
0000
0000
0030
,
0100
0000
0000
0100
1000
0001
0000
1000
,
2000
0000
0000
0000
3000
0000
0000
0100
,
0001
0000
0000
0100
0000
0000
1000
0000
0000
0000
0020
0000
0000
0000
0230
0000
,
0000
0000
0000
0000
0301
1000
0001
1000
,
0001
0101
1000
1100
,
0001
0011
1000
1001
,
0001
0011
0100
1010
,
0100
0011
0100
1010
,
0001
0011
1000
1010
,
0001
0101
1000
1100
,
0010
0110
0001
1001
,
1000
0000
0000
0010
0000
0000
0100
0000
0000
0001
0000
0000
1000
0000
0000
0000
,
1200
0000
0000
0000
,
0000
0000
0000
0000
,
0300
0000
0000
0000
,
0000
0000
0000
0000
,
1100
1100
0101
0101
,
0110
0110
0101
0101
,
0400
0000
0000
0000
,
030M
M000
000M
M000
000M
0000
0M00
0000
,
1001
0000
1000
0000
0001
0100
0001
1000
,
0001
0100
0001
1000
0001
0100
0020
0000
,
1030
0000
0000
0001
0000
0000
1000
0000
0001
0000
0100
0000
,
0010
0000
0000
0000
1000
0000
0000
0000
0100
0000
0000
0000
1000
0000
0000
0001
0000
0000
1000
0000
0000
0001
0000
0000
,
0200
0000
0310
0000
1000
0001
0000
0010
,
0000
0100
0000
1000
0000
0001
1000
0001
,
0200
0310
2000
3001
,
0010
0001
0001
0100
0010
0010
1000
0001
,
0001
0000
0100
0000
0001
1000
0010
1000
,
0001
1000
0010
1000
0001
1000
0200
0000
,
0320
0000
0000
0031
0000
0000
1000
0000
0100
0000
0010
0000
,
0001
0000
0000
0000
0100
0000
0000
0000
0000
0000
0010
0000
1000
0000
0000
0001
0000
0000
1000
0000
0000
0001
0000
0000
,
0100
0020
0000
0000
,
1030
0002
0000
0000
,
0013
0200
1300
0002
,
1003
0000
0000
0000
,
0220
0000
0000
0000
,
0000
0000
0000
0000
,
0330
0000
0000
0000
;

//---------------dance-single - sangyule----------------
#NOTES:
     dance-single:
     sangyule:
     Hard:
     10:
     0.707374,0.964542,0.310898,0.288149,0.462556,653.000000,608.000000,41.000000,38.000000,15.000000,5.000000,0.707374,0.964542,0.310898,0.288149,0.462556,653.000000,608.000000,41.000000,38.000000,15.000000,5.000000:
// measure 0
0000
0000
0000
0000
,  // measure 1
0000
0000
0000
0000
,  // measure 2
0000
0000
0000
0000
,  // measure 3
0000
0000
0000
0000
,  // measure 4
0000
0000
0000
0000
,  // measure 5
0000
0000
0000
0000
,  // measure 6
0000
0000
0000
0000
,  // measure 7
0000
0000
0000
0000
,  // measure 8
1001
0000
0000
1201
0000
0301
0010
0200
,  // measure 9
0000
0000
0000
0000
0300
1000
0001
0010
,  // measure 10
0011
0000
0000
0121
0000
0000
0000
0000
,  // measure 11
0030
0000
0000
0000
,  // measure 12
1001
0000
0000
1021
0000
1030
0100
0010
,  // measure 13
0110
0000
0000
2110
0000
3001
0100
0010
,  // measure 14
1100
0000
0000
1100
0000
0000
1100
0000
0011
0000
0000
0011
0000
0000
0011
0000
,  // measure 15
1010
0000
0000
1010
0000
0000
1010
0000
0004
0000
0000
0000
0000
0000
0000
0000
,  // measure 16
1003
0001
1000
0100
1000
0001
0200
0000
,  // measure 17
0310
1000
0010
0100
0001
1000
0002
0000
,  // measure 18
0013
0100
0010
0100
1000
0001
0200
0000
,  // measure 19
0301
1000
0010
1000
0001
0010
2000
0000
,  // measure 20
3010
0001
1000
0001
0010
0100
2000
0000
,  // measure 21
3001
0100
0010
0100
0001
1000
0200
0000
,  // measure 22
0310
0000
0001
0000
1000
0000
0001
0000
0100
0000
0010
0000
2000
0000
0000
3000
,  // measure 23
0101
0000
0000
0000
0000
0000
0000
0000
0000
0000
0000
0000
0004
0000
0000
0000
0000
0000
0000
0000
0000
0003
0000
0000
1010
0000
0000
0000
0000
0000
0000
0000
0000
0000
0000
0000
1000
0000
0000
0000
0001
0000
0000
0000
0010
0000
0000
0000
,  // measure 24
0100
1000
0100
0010
0100
1000
0001
0100
,  // measure 25
0010
1000
0001
1000
0100
0010
0002
0000
,  // measure 26
0103
0010
1000
0001
0010
0100
0010
0001
,  // measure 27
1000
0010
0100
0001
1000
0100
1000
0000
,  // measure 28
0010
0100
0001
0010
0100
1000
0010
0100
,  // measure 29
0104
0000
0000
0000
,  // measure 30
1003
0000
0100
1000
0000
0000
0001
1000
0001
0000
0100
0010
0000
0000
1000
0010
,  // measure 31
2000
0000
0000
0000
0000
3001
0000
0000
,  // measure 32
1000
0100
0000
0010
0000
0000
0001
0000
1000
0010
0000
0100
0000
0010
1000
0000
,  // measure 33
0100
0010
0000
0001
0000
0000
1000
0000
0001
1000
0000
0010
0000
0100
0001
1000
,  // measure 34
0001
0010
0000
0100
0000
0000
1000
0000
0001
0100
0000
0010
0000
1000
0100
0000
,  // measure 35
0010
0001
0000
0010
0000
0000
0100
0000
1000
0001
0000
0100
0000
0010
1000
0010
,  // measure 36
0100
0001
0000
1000
0000
0000
0100
1000
0001
1000
0000
0010
0000
0000
0001
0000
,  // measure 37
0010
0100
0000
0001
0000
0000
1000
0001
0010
0100
0000
1000
0000
0001
1000
0001
,  // measure 38
0100
0010
0000
0100
0000
0000
0001
0000
1000
0100
0000
1000
0000
0010
0100
0000
,  // measure 39
0001
1000
0000
0100
0000
0000
0010
0001
0010
0000
0000
0001
0000
0000
1000
0000
,  // measure 40
0010
1000
0000
0001
0000
0000
1000
0000
0100
0010
0000
0001
0000
0100
0010
0000
,  // measure 41
1000
0001
0000
0010
0000
0000
0100
0000
0010
0001
0000
1000
0000
0010
0100
0010
,  // measure 42
1000
0001
0000
1000
0000
0000
0100
0000
0010
0001
0000
1000
0000
0001
0100
0000
,  // measure 43
0110
0000
0000
0000
0110
0000
0000
0000
0110
0000
0000
0010
0000
0000
1000
0000
,  // measure 44
1001
0000
0000
0000
0000
0000
0001
0010
0100
0000
0000
0000
0000
0000
0000
0000
,  // measure 45
0000
1000
0000
1000
1001
0001
0000
0000
,  // measure 46
0101
0000
0000
0000
0000
0000
0100
0010
1000
0000
0000
0000
0001
0000
0001
0000
,  // measure 47
0010
0000
0001
0100
0010
0000
1000
0100
0010
0000
0010
0000
0001
0000
0001
0000
,  // measure 48
0200
0000
0311
1000
0001
0100
0001
0010
,  // measure 49
0100
1000
0001
1000
0100
0010
0001
0100
,  // measure 50
0010
1000
0100
0010
0001
0100
0010
1000
,  // measure 51
0001
0010
0100
1000
0001
1000
0010
0100
,  // measure 52
0001
1000
0001
0010
0001
0100
0010
1000
,  // measure 53
0100
1000
0001
1000
0010
0100
0001
1000
,  // measure 54
0100
0010
0100
1000
0100
0010
0100
1000
,  // measure 55
0001
0000
1000
0000
0010
0000
0100
0001
1000
0000
0000
0001
0000
0000
1000
0000
,  // measure 56
1001
1001
2002
3M03
,  // measure 57
0011
0011
0022
M033
,  // measure 58
0101
0101
0202
03M3
,  // measure 59
1100
0000
0000
0101
0000
0000
1100
0000
0001
1000
0000
0010
0000
1000
0001
0000
,  // measure 60
0020
0000
0130
1000
0010
0100
0001
0010
,  // measure 61
0200
0000
1300
0100
0010
0001
0100
0010
,  // measure 62
2000
0000
0000
0000
3001
0100
0001
0100
0002
0000
0000
0000
1003
0100
1000
0100
,  // measure 63
2000
0000
00M0
0000
,  // measure 64
3010
0000
0000
0000
0000
0000
1000
0001
0010
0000
0000
0000
0000
0000
0000
0000
,  // measure 65
0000
0100
0000
0100
1000
0001
0000
0000
,  // measure 66
1000
0000
0000
0000
0000
0000
0001
1000
0010
0000
0000
0000
0100
0000
0001
0000
,  // measure 67
0000
0001
0000
0001
0010
0000
0000
0000
,  // measure 68
0100
0000
0000
0000
0000
0000
1000
0100
0010
0000
0000
0000
0000
0000
0000
0000
,  // measure 69
0000
0001
0000
0001
1000
0010
0000
0000
,  // measure 70
1000
0000
0000
0000
0000
0000
0001
0010
0100
0000
0000
0000
1000
0000
0010
0000
,  // measure 71
0000
0010
0000
0010
0100
0100
0001
0001
,  // measure 72
1000
0100
0010
0001
1000
0010
0100
0010
,  // measure 73
1000
0001
1000
0100
1000
0001
1000
0010
,  // measure 74
0100
0001
1000
0100
0010
0001
0100
0010
,  // measure 75
1000
0100
1000
0001
0100
0010
0100
0001
,  // measure 76
1000
0001
0010
0100
1000
0001
0100
0010
,  // measure 77
1000
0001
1000
0100
1000
0001
0010
0100
,  // measure 78
1000
0001
0100
0010
1000
0001
0010
0001
,  // measure 79
0100
0000
0010
1000
0000
0010
1000
0000
0001
0010
0000
0001
0100
0000
0010
0000
,  // measure 80
0200
0000
0000
0000
,  // measure 81
0000
0000
0000
0000
,  // measure 82
0300
0000
0000
0000
,  // measure 83
0000
0000
0000
0000
,  // measure 84
0001
0001
1000
1000
,  // measure 85
0100
0100
0010
0010
,  // measure 86
0001
0010
0100
1000
0010
0100
0001
0010
,  // measure 87
M200
000M
M000
000M
M000
0000
0300
0000
,  // measure 88
20M0
0000
0000
0000
3001
0000
0000
0000
1000
0000
0100
00M0
0100
0000
0001
0000
,  // measure 89
1000
0000
0010
0M00
0010
0000
0001
0000
0100
0000
0010
0000
4000
0000
0000
0000
,  // measure 90
3001
0000
0000
0010
0000
0000
0001
0100
0001
1000
0100
1000
,  // measure 91
0001
0000
0010
0000
0001
0000
1000
0000
0010
0000
1000
0000
0001
0000
0000
0100
0000
0000
0010
0000
0000
0100
0000
0000
,  // measure 92
0001
0000
0000
0000
1000
0000
0000
0000
0100
00M0
0200
0000
0000
0000
0301
0000
,  // measure 93
0000
0100
0010
0000
0000
0000
0010
0000
0100
0000
0001
1000
0000
1000
0001
0000
,  // measure 94
1001
0000
0000
0000
1000
0000
0000
0000
0100
0000
0010
0001
0000
0000
1000
0000
,  // measure 95
0010
0000
0100
0001
0100
0000
0010
0000
1000
0001
1000
0000
0100
0000
0010
0000
,  // measure 96
0002
0000
0000
0000
0103
0000
0000
0000
0001
0000
0010
0M00
0010
0000
1000
0000
,  // measure 97
0001
0000
0100
00M0
0100
0000
1000
0000
0010
0000
0100
0000
0004
0000
0000
0000
,  // measure 98
1003
0000
0000
0100
0000
0000
1000
0010
0100
0001
0010
0100
,  // measure 99
1000
0001
0100
0010
1000
0100
0020
0000
0000
0000
0000
0000
,  // measure 100
0031
0000
1000
0100
0010
0001
0100
0010
,  // measure 101
2000
0000
3100
1000
0010
0100
0001
0010
,  // measure 102
0200
0000
0000
0000
1300
0001
1000
0001
2000
0000
0000
0000
3010
0100
0010
0100
,  // measure 103
0020
0000
0000
0030
,  // measure 104
2200
0000
0000
0000
,  // measure 105
0000
0000
0000
0000
,  // measure 106
3300
0000
0000
0000
;

//---------------dance-single - Maxx----------------
#NOTES:
     dance-single:
     Maxx:
     Challenge:
     13:
     1.020439,1.351269,0.303315,0.682459,1.050229,942.000000,894.000000,40.000000,90.000000,10.000000,11.000000,1.020439,1.351269,0.303315,0.682459,1.050229,942.000000,894.000000,40.000000,90.000000,10.000000,11.000000:
0000
0000
0000
0000
,
0000
0000
0000
0000
,
0000
0000
0000
0000
,
0000
0000
0000
0000
,
0000
0000
0000
0000
,
0000
0000
0000
0000
,
0000
0000
0000
0000
,
0000
0000
0000
0000
,
2022
0000
3033
1011
0000
1000
0001
0100
,
0010
0000
1000
0001
0000
0001
1000
0000
,
2202
0000
3313
1101
0000
0001
1000
0000
,
0100
0000
0010
0100
0000
0100
0010
0000
,
2202
0000
3313
1101
0000
1000
0010
0000
,
2022
0000
0000
0000
3133
0000
1011
0000
0000
0000
0001
0000
0020
0000
0000
0030
,
0101
0000
0000
1010
0000
0000
0001
0000
1100
0000
0000
0011
0000
0000
1000
0000
,
0101
0000
0000
1010
0000
0000
0001
0000
1000
0000
0001
1000
0001
0010
0100
1000
,
0001
0100
0010
1000
0001
0010
0002
0100
,
1003
0010
0100
0001
0010
0100
2000
0010
,
3001
0100
0010
1000
0001
0010
0002
0100
,
1003
0010
0100
0001
0010
0100
0002
0000
,
0103
0010
0001
1000
0010
0100
0002
0010
,
1003
0010
0100
0001
0010
0100
2000
0010
,
3001
0100
0010
1000
0100
0010
0001
1000
,
1001
0000
0000
0000
0001
1000
0001
1000
0100
0000
0010
0000
0002
0000
0000
0000
,
1003
0010
1000
0001
0010
0001
1000
0001
0100
0010
1000
0001
0010
0100
1000
0001
,
0100
0001
1000
0100
1000
0001
1000
0010
0100
0001
1000
0001
0010
0000
001M
0000
,
1000
0001
0010
0001
1000
0001
0100
0010
1000
0100
0010
0001
1000
0010
1000
0001
,
0010
0001
1000
0001
0100
0010
1000
0001
0010
0100
1000
0001
0100
0000
010M
0000
,
4000
0000
3004
0000
,
0403
0000
0340
0000
,
1030
0001
0100
0010
0000
1000
0001
1000
0100
0010
0001
1000
0000
0001
0100
0001
,
1000
0100
0000
1000
0000
0001
1000
0001
0100
0010
1000
0001
1000
0100
0020
0000
,
0031
0100
0000
0010
0000
1000
0001
1000
0200
0000
0000
0310
0000
0001
1000
0001
,
0020
0000
0000
0130
0000
1000
0001
1000
0010
0000
0001
0000
1000
0000
0100
0000
,
0001
1000
0000
0100
0000
1000
0001
1000
0020
0000
0000
0130
0000
0001
1000
0001
,
0020
0000
0000
0130
0000
1000
0001
1000
0100
0000
0001
0000
1000
0000
0010
0000
,
0002
0000
0000
0103
0000
0001
1000
0001
0010
0000
0100
0000
1000
0000
0010
0000
,
0001
1000
0100
0010
1000
0001
0010
0100
,
2000
0000
0000
3010
0000
1000
0001
1000
0100
0000
0010
0000
0001
0000
0100
0000
,
1000
0000
0001
0000
0010
0000
1000
0001
0010
0000
0000
0010
0000
0000
0010
0000
,
0001
1000
0000
0010
0000
1000
0001
1000
0200
0000
0000
0310
0000
0001
1000
0001
,
0020
0000
0000
0130
0000
1000
0001
1000
0010
0000
0001
0000
1000
0000
0100
0000
,
0001
1000
0000
0100
0000
1000
0001
1000
0020
0000
0000
0130
0000
0001
1000
0001
,
1100
0000
0000
0000
1100
0000
0001
0000
0100
0010
0000
1000
0000
0100
0010
0000
,
0001
1000
0001
0010
0100
0000
1000
0001
1000
0100
0010
0001
1000
0000
0001
1000
,
0001
0000
1000
0010
1000
0000
0001
0100
0001
0000
0100
0000
0010
0000
1000
0000
,
0100
0010
0100
1000
0001
0000
0100
0001
0100
0000
0010
0000
1000
0001
1000
0100
,
0010
0000
0001
0010
0001
0000
1000
0001
1000
0000
0010
0000
0010
0000
0010
0000
,
2000
0000
0000
0000
3001
0010
0001
1000
0001
0100
0010
1000
0001
0010
0100
1000
,
0001
1000
0010
0100
0001
1000
0100
1000
0001
0100
0010
1000
0001
0010
0100
1000
,
0001
0100
0010
1000
0100
0010
0001
1000
0010
0100
0001
1000
0100
1000
0001
1000
,
0010
0100
0001
1000
0100
0010
0100
1000
0001
0010
0001
1000
0001
0100
0010
1000
,
0100
0010
0100
1000
0001
0100
0001
1000
0001
0010
0100
1000
0001
0100
0010
0100
,
0001
1000
0100
0010
0001
1000
0100
1000
0001
0100
0001
1000
0100
0010
0100
1000
,
0001
0100
0010
1000
0001
1000
0100
0010
0001
1000
0100
1000
0001
0100
0010
1000
,
0001
0010
0001
1000
0100
0010
0001
1000
0010
0000
0000
0010
0000
0000
0010
0000
,
2020
0000
0000
3030
2020
0000
0000
3030
2020
0000
0000
0000
3030
0000
0000
0000
,
0022
0000
0000
0033
0022
0000
0000
0033
0022
0000
0000
0000
0033
0000
0000
0000
,
2200
0000
0000
3300
2200
0000
0000
3300
2200
0000
0000
0000
3300
0000
0000
0000
,
0101
0000
0000
0101
0000
0000
0001
1000
0001
0010
0100
1000
0000
0001
1000
0010
,
0200
0000
0000
0000
0301
1000
0010
1000
0001
0010
0001
1000
0001
0100
0010
1000
,
0002
0000
0000
0000
1003
0001
0010
0001
1000
0010
1000
0001
1000
0100
0010
0001
,
2000
0000
0000
0000
3001
1000
0010
1000
0002
0000
0000
0000
1003
0001
0010
0001
,
2000
0000
0000
0000
0000
0000
0000
3000
,
1001
0000
0001
0000
0000
0000
1000
0001
0100
0000
0010
0000
0000
0000
2000
0000
,
0000
0001
0000
3001
1000
0100
0000
0010
,
0001
0000
0100
0000
0010
0000
1000
0001
0010
0000
0100
0000
1000
0000
0002
0000
,
0000
1000
0000
1003
0010
0100
0001
1000
,
0100
0000
0010
0000
0000
0000
0100
1000
0001
0000
0100
0000
0000
0000
0002
0000
,
0000
1000
0000
1003
0001
0010
0000
0100
,
1000
0000
0001
0000
0100
0000
0010
1000
0001
0000
0010
0000
0100
0000
2000
0000
,
0000
0001
0000
3001
1000
0010
0010
0010
,
1000
0001
0010
0001
1000
0010
0100
0001
,
1000
0001
0010
0001
1000
0010
0100
0001
,
1000
0100
0010
0100
1000
0001
0100
0010
,
1000
0100
0010
0100
1000
0001
0100
0010
,
1000
0100
0010
0001
1000
0010
0100
0010
,
1000
0100
0010
0001
1000
0010
0100
0010
,
1000
0001
0010
0100
1000
0001
0100
0010
,
0110
0000
0010
1000
0000
1000
0001
0000
0010
0001
0000
0001
1000
0000
0001
0000
,
1000
0010
0100
0001
2000
0100
3002
0000
,
1003
0000
0100
0000
0010
0000
0001
0000
2000
0000
0010
0000
3002
0000
0000
0003
,
0001
1000
0100
0010
0002
0100
2003
0000
,
3001
0000
0100
0000
0010
0000
1000
0000
0002
0000
0010
0000
2003
0000
0000
3000
,
1000
0100
1000
0100
0010
0001
0010
0001
,
1000
0010
1000
0010
0100
0001
0100
0001
,
1000
0001
1000
0100
1000
0001
0100
0010
1000
0001
0010
0001
1000
0001
0100
0010
,
1000
0000
0001
0000
1000
0000
0001
0000
0020
0000
0000
0000
0230
0000
0000
0300
,
2200
0000
0000
3300
2002
0000
0000
3003
1000
0001
1000
0100
0010
0001
1000
0010
,
1000
0001
1000
0100
0010
0001
0100
0001
1000
0100
0010
0001
2000
0000
0010
0000
,
3002
0000
0000
0100
0000
0000
2003
0000
0000
0000
0000
0000
3001
0000
0100
0000
010M
0000
1000
0000
0100
0000
M100
0000
,
0001
0000
0010
0000
001M
0000
1000
0000
0010
0000
M010
0000
0001
0000
0000
0100
0000
0000
0001
0000
0000
0100
0000
0000
,
2020
0000
0000
3030
2002
0000
0000
3003
1000
0001
0000
0001
1000
0000
0001
0000
,
1000
0010
1000
0000
0001
0000
0100
0000
1000
0000
0100
0010
0100
0010
1000
0000
,
0101
0000
1000
0000
0101
0000
1000
0000
0001
1000
0000
1000
0001
0000
1000
0000
,
0101
0000
0010
0001
0010
0000
0101
0000
1000
0001
1000
0000
0010
0000
0100
0000
,
0001
0000
0000
0000
2002
0000
0000
3003
0001
0010
0001
1000
0001
0100
0010
1000
,
0001
0010
0001
1000
0001
0100
0010
1000
0001
0010
0100
1000
0002
0000
0100
0000
,
2003
0000
0000
0010
0000
0000
3002
0000
0000
0000
0000
0000
1003
0000
0100
0000
M100
0000
0001
0000
0100
0000
010M
0000
,
1000
0000
0000
0000
0010
0000
0000
0000
M010
0000
0000
0000
0001
0000
0000
0000
0010
0000
0000
0000
001M
0000
0000
0000
1000
0000
0000
0001
0000
0000
1000
0000
0000
0001
0000
0000
1000
0000
0000
0100
0000
0000
0010
0000
0000
0001
0000
0000
,
2000
0000
0000
0000
3001
1000
0001
0010
0001
1000
0010
0100
0001
1000
0100
0010
,
0002
0000
0000
0000
1003
0001
1000
0010
1000
0001
0010
0100
1000
0001
0100
0010
,
2000
0000
0000
0000
3001
1000
0010
1000
0002
0000
0000
0000
1003
0001
0010
0001
,
1000
0000
0001
1000
0000
0000
0001
0000
1000
0000
0100
0000
0010
0000
0000
0000
,
2002
0000
0000
0000
,
0000
0000
0000
0000
,
0000
0000
0000
0000
,
0000
0000
0000
0000
,
3003
0000
0000
0000
;
