#TITLE:Fatalism;
#SUBTITLE:;
#ARTIST:Endorfin.;
#TITLETRANSLIT:;
#SUBTITLETRANSLIT:;
#ARTISTTRANSLIT:;
#GENRE:;
#CREDIT:sangyule;
#MUSIC:Fatalism.ogg;
#BANNER:Fatalism-bn.png;
#BACKGROUND:Fatalism-bg.png;
#CDTITLE:;
#SAMPLESTART:77.923;
#SAMPLELENGTH:24.935;
#SELECTABLE:YES;
#OFFSET:0.009;
#BPMS:0.000=154.000
,71.000=308.000
,71.750=61.600
,72.000=154.000
,87.000=77.000
,87.250=231.000
,88.000=154.000
,103.000=61.600
,103.250=308.000
,104.000=154.000
,135.000=77.000
,135.250=231.000
,136.000=154.000
,167.000=77.000
,167.250=231.000
,168.000=154.000
,271.000=308.000
,271.750=61.600
,272.000=154.000
;
#STOPS:;
#DISPLAYBPM:154.000;
#BGCHANGES:;
#FGCHANGES:;

//--------------- dance-single - ----------------
#NOTES:
     dance-single:
     :
     Beginner:
     1:
     0.093003,0.155273,0.029932,0,0,87,83,4,0,0,0,0.093003,0.155273,0.029932,0,0,87,83,4,0,0,0:
0000
0000
0000
0000
,
0000
0000
0000
0000
,
0000
0000
0000
0000
,
0000
0000
0000
0000
,
0000
0000
0000
0000
,
0000
0000
0000
0000
,
0000
0000
0000
0000
,
0000
0000
0000
0000
,
0000
0000
0000
0000
,
0000
0000
0000
0000
,
1000
0000
0000
0000
,
0001
0000
0000
0000
,
1000
0000
0000
0000
,
0000
0000
0010
0000
,
0010
0000
0000
0000
,
0100
0000
0000
0000
,
0010
0000
0000
0000
,
0000
0000
0000
0000
,
1001
0000
0000
0000
,
0001
0000
0001
0000
,
1000
0000
0000
0000
,
0100
0000
0100
0000
,
0100
0000
0000
0000
,
0010
0000
0000
0000
,
0001
0000
0000
0000
,
0000
0000
0000
0000
,
1001
0000
0000
0000
,
1000
0000
0000
0000
,
0010
0000
0000
0000
,
0100
0000
0000
0000
,
0001
0000
0000
0000
,
1000
0000
0000
0000
,
0100
0000
0000
0000
,
0010
0000
0010
0000
,
0001
0000
0000
0000
,
1000
0000
0000
0000
,
0010
0000
0000
0000
,
0100
0000
0000
0000
,
0001
0000
0000
0000
,
1000
0000
0000
0000
,
0100
0000
0000
0100
,
0000
0000
0010
0000
,
0110
0000
0000
0000
,
1000
0000
0000
0000
,
0001
0000
0000
0000
,
0100
0000
0000
0000
,
0010
0000
0000
0000
,
1000
0000
0000
0000
,
0001
0000
0000
0000
,
1000
0000
1000
0000
,
0001
0000
0000
0000
,
1000
0000
0000
0000
,
0100
0000
0000
0000
,
1000
0000
1000
0000
,
0010
0000
0000
0000
,
0100
0000
0000
0000
,
0001
0000
0000
0000
,
1000
0000
1000
0000
,
0001
0000
0000
0000
,
1000
0000
0000
0000
,
0100
0000
0000
0000
,
0010
0000
0010
0000
,
0001
0000
0000
0000
,
0100
0000
0000
0000
,
0010
0000
0000
0000
,
1000
0000
1000
0000
,
0001
0000
0000
0000
,
0001
0000
0001
0000
,
1000
0000
0000
0000
,
1000
0000
0000
0000
,
0010
0000
0000
0000
,
0010
0000
0000
0000
,
0100
0000
0000
0000
,
0001
0000
0000
0000
,
1000
0000
0000
0000
,
0001
0000
0001
0000
,
1001
0000
0000
0000
,
1000
0000
0000
0000
,
0100
0000
0000
0000
,
0010
0000
0000
0000
,
0001
0000
0000
0000
,
1000
0000
0000
0000
,
0010
0000
0000
0000
,
0100
0000
0000
0000
;

//--------------- dance-single - ----------------
#NOTES:
     dance-single:
     :
     Easy:
     5:
     0.315356,0.381634,0.119728,0.209524,0.037415,295,279,16,28,0,0,0.315356,0.381634,0.119728,0.209524,0.037415,295,279,16,28,0,0:
0000
0000
0000
0000
,
0000
0000
0000
0000
,
1000
0000
0000
0000
,
0001
0000
0000
0000
,
0010
0000
0000
0000
,
0100
0000
0200
0000
,
0310
0000
0000
0000
,
0001
0000
0000
0000
,
1000
0000
0000
0000
,
0001
0000
0001
0000
,
1001
0000
1000
0000
,
0010
0000
0100
0100
,
0001
0000
1000
0000
,
0100
0000
0010
0010
,
0001
0000
1000
0000
,
0010
0000
0100
0000
,
0001
0001
0001
0001
,
2000
0000
0000
3000
,
1001
0001
0010
0001
,
1000
0000
0000
0000
0100
0000
0000
0000
1000
0000
0000
0001
0000
0000
1000
0000
,
0010
0100
0010
1000
,
0001
0000
0000
1000
0000
0000
0001
0000
2000
0000
0000
0000
3100
0000
0000
0000
,
0010
0001
0010
0001
,
0100
0010
0100
0001
,
1000
0001
1000
0001
,
0040
0000
0000
0030
,
0110
0000
0000
0000
1000
0000
0001
0000
0000
1000
0000
0000
0010
0000
0000
0000
,
0100
0001
1000
2000
,
3000
0110
0000
1001
,
0000
0000
0001
0000
0010
0000
0100
0010
,
0100
0000
1000
0000
0001
0000
1000
0001
,
0100
0010
0100
0100
,
0001
1000
0001
0002
,
0013
0010
0100
0200
,
1300
0000
0000
0000
0001
0000
1000
0000
0000
0001
0000
0000
0010
0000
0000
0000
,
0100
0010
0001
0002
,
0003
0110
0000
1001
,
0000
0000
0000
0000
1000
0000
0000
0001
0000
0000
1000
0000
0001
0000
0000
0000
,
0200
0000
0310
0000
1000
0000
0001
1000
,
0100
1000
0001
1000
,
1001
0000
0000
1001
0000
0000
0220
0000
,
0000
0330
0110
0000
,
1001
0000
0000
0000
0001
0000
0000
0000
0100
0000
0000
0010
0000
0000
0200
0000
,
0000
0301
1000
2000
,
3000
1001
0000
0110
,
0000
0000
0000
0000
0001
0000
0000
1000
0000
0000
0001
0000
0200
0000
0000
0000
,
0301
0000
0000
0000
1000
0000
0000
0000
0001
0000
0000
1000
0000
0000
0002
0000
,
0000
0013
0100
0200
,
1300
0001
1000
0001
,
0100
0100
0010
0020
,
1030
0000
0001
0000
0010
0000
0001
1000
,
0001
0000
0100
0000
0010
0000
1000
0001
,
0010
0000
0100
0000
0010
0000
0100
1000
,
0100
1000
0010
0100
,
0001
0000
1000
0000
0100
0000
0010
0100
,
0010
0000
0001
0000
1000
0000
0001
1000
,
0010
0100
0010
0100
,
0001
0000
0000
0000
1000
0000
0000
0001
0000
0000
1000
0000
0000
0001
0000
0000
,
1000
0000
0001
0000
0010
0000
0001
0010
,
0001
0000
1000
0000
0100
0000
1000
0001
,
0100
0000
0010
0000
0100
0000
0010
1000
,
0001
1000
0100
0010
,
0001
0000
1000
0000
0010
0000
0100
0010
,
0100
0000
0001
0000
1000
0000
0001
1000
,
0100
0010
0001
0010
,
0001
1000
0010
0100
,
0002
0000
0000
0000
,
2003
0000
0000
3000
,
1001
0001
0000
0010
,
0000
0200
0300
1000
,
0000
0001
0000
0100
,
0000
0010
1000
0010
,
0200
0301
0000
1000
,
0000
0001
0000
0010
,
0002
1003
0000
0001
,
0000
0100
0000
0010
,
0110
1000
0001
1000
,
0001
0010
0100
1000
,
0010
1000
0001
0200
,
0310
0200
0310
1000
,
0002
1003
0001
0100
,
0010
1000
0002
0013
,
0002
1003
0200
1300
,
0010
1000
0001
0200
,
0000
0000
0000
0000
,
0300
0000
0000
0000
;

//--------------- dance-single - ----------------
#NOTES:
     dance-single:
     :
     Medium:
     8:
     0.483189,0.572451,0.164626,0.344219,0.220749,452,430,22,46,3,0,0.483189,0.572451,0.164626,0.344219,0.220749,452,430,22,46,3,0:
0000
0000
0000
0000
,
0000
0000
0000
0000
,
0000
1000
0001
1000
,
0100
0010
0000
0010
,
0001
1000
0000
1000
,
0020
0000
0230
0000
,
0300
0001
1000
0001
,
0100
0010
0000
0010
,
1000
0001
0000
0001
,
0020
0000
0230
0000
,
0300
1000
0001
1000
,
0010
0100
0000
0100
,
0010
1000
0000
1000
,
0002
0000
0023
0000
,
0031
0100
0001
1000
,
0100
0010
0100
1000
,
0001
0100
0001
0100
0010
1000
0001
0010
,
0400
0000
0000
0300
,
110M
0000
1000
0001
0100
0000
0010
1000
,
0000
0000
0001
0000
0010
0000
0001
0000
1000
0000
0000
0100
0000
0000
1000
0000
,
0010
1000
0000
0001
0010
0000
0100
1000
,
0010
0000
0000
0100
0000
0000
0001
0000
1000
0000
0100
0000
0020
0000
0000
0000
,
0031
1000
0001
0100
0010
0100
0001
0010
,
0100
1000
0100
1000
0001
1000
0010
0100
,
0001
1000
0100
0010
0100
1000
0010
0100
,
0004
0000
0000
10M3
,
1100
0000
0000
0000
0100
0000
0010
0001
0000
1000
0000
0000
0001
0000
0100
0000
,
0010
0000
1000
0000
0001
0000
0010
0100
0000
1000
0100
0000
2000
0000
0000
0000
,
3010
0101
0010
1100
,
0000
0001
1000
0001
0010
0100
0010
0001
,
2000
0000
0000
0000
3001
0000
1000
0010
0000
0100
0000
0000
0001
0000
1000
0000
,
0000
0000
0001
1000
0001
0000
0010
0100
0000
0000
0010
0100
0000
0000
1000
0000
,
0002
0000
0000
0000
0103
0000
0010
1000
0000
0001
0000
0000
1000
0000
0000
0000
,
1100
0101
1010
2000
,
3001
0000
0000
0000
1000
0000
0100
0010
0000
0100
0000
0000
1000
0000
0001
0000
,
1000
0000
0100
0000
0010
0000
0100
0010
0000
0000
0001
0000
1000
0000
0000
0000
,
0010
0101
0010
1100
,
0001
0000
0000
0000
1010
0000
0000
1010
0000
0000
1010
0000
0001
0000
0000
0000
,
1000
0000
0000
0000
0001
0000
0010
0100
0000
0010
0000
0000
0001
0000
1000
0000
,
0001
0000
0100
0010
0100
0000
0001
0100
0000
0000
0010
0000
1000
0000
0001
0000
,
2001
0000
0000
3200
0000
0000
0320
0000
,
0000
0000
0000
0001
0000
0000
0000
0000
0000
0031
0000
0000
1000
0000
0001
0000
1000
0000
0001
0000
0000
0000
0000
0000
,
2000
0000
0000
0000
3020
0000
0000
0000
0130
0000
0000
0001
0000
0000
0100
0000
,
0010
0000
1000
0000
0001
0000
1000
0001
0000
0000
0010
0000
0200
0000
0000
0000
,
1300
0101
0010
1100
,
0001
0000
0000
0000
0101
0000
0000
0101
0000
0000
0101
0000
2000
0000
0000
0000
,
3001
0000
0000
0000
0020
0000
0000
0000
0031
0000
0000
1000
0000
0000
0100
0000
,
1000
0000
0001
1000
0001
0000
0100
0001
0000
0000
0100
0010
0000
0000
1000
0000
,
0002
0000
0013
0100
0010
0001
1000
0000
,
1010
0101
1100
0002
,
1003
0000
0000
0000
0001
0000
0000
0000
0010
0000
0000
0001
0000
0000
0200
0000
,
0000
0300
0000
0100
0000
0010
1000
0100
,
1000
0000
0000
0000
0000
0000
0000
0000
0000
0001
0000
0000
0000
0000
0000
0000
0000
0000
0002
0000
0000
0000
0000
0000
0000
0000
0000
0000
0000
0000
0000
0000
0000
0000
0000
0000
0003
0000
0000
0000
0100
0000
0000
0000
0001
0000
0000
0000
,
0100
0000
0000
0000
0000
0000
0010
0000
0020
0000
0000
2030
0000
0000
3100
0000
,
0020
0000
0000
0000
0030
0000
0001
0000
0001
0000
0100
0001
0000
0000
2000
0000
,
0000
0000
3000
0000
0000
0000
0100
0000
0100
0000
1000
0001
0000
0000
0200
0000
,
0000
0000
0310
0000
0010
0000
1000
0000
0002
0000
0000
2003
0000
0000
3100
0000
,
1000
0000
0000
0010
0000
0000
0020
0000
0000
0000
0000
0000
0130
0000
0000
0000
,
0001
0000
0000
0000
1000
0000
0000
0000
0001
0000
0000
0010
0000
0000
0200
0000
,
0000
0300
0000
0100
0000
1000
0001
0100
,
0010
0000
0000
0000
0000
0000
0000
0000
0000
1000
0000
0000
0000
0000
0000
0000
0000
0000
2000
0000
0000
0000
0000
0000
0000
0000
0000
0000
0000
0000
0000
0000
0000
0000
0000
0000
3000
0000
0000
0000
0010
0000
0000
0000
1000
0000
0000
0000
,
0010
0000
0000
1000
1000
0002
0000
0013
,
0200
0000
0000
0000
0300
0000
1000
0000
1000
0000
0001
0100
0000
0000
0020
0000
,
0000
0000
0000
0000
0030
0000
1000
0000
1000
0000
0001
0010
0000
0000
0200
0000
,
0000
0000
2300
0000
0000
0000
3001
0000
0100
0000
0010
0100
0000
0000
0001
0000
,
1000
0100
0000
0100
0000
0100
2000
0000
,
3000
0000
0001
0000
0100
0000
0010
1000
,
0001
1000
0100
0010
0001
1000
0001
0000
,
1M01
0000
0000
0000
1000
0000
0000
0000
0001
0000
0000
0001
0000
0000
0100
0000
,
0010
0000
1000
0000
0002
0000
0003
0000
1000
0000
0000
0100
0000
0000
1000
0000
,
0010
0000
1000
0000
0001
0000
0000
0000
1000
0000
0000
1000
0000
0000
0001
0000
,
0010
0000
0100
0000
0010
0000
0000
0000
0001
0000
1000
0010
0000
1000
0001
0000
,
0020
0000
0000
0000
0130
0000
0000
0000
1000
0000
0000
1000
0000
0000
0001
0000
,
0100
0000
0000
0000
0010
0000
0000
0000
1000
0000
0000
0001
0000
0000
1000
0000
,
0200
0000
0000
0000
0310
0000
0000
0000
0001
0000
0000
0001
0000
0000
1000
0000
,
0010
0100
0002
0000
1003
0100
0020
0000
,
0031
0000
1000
0010
0100
0001
0100
0000
,
0001
0000
1000
0000
0001
0000
0000
0000
0010
0000
0100
0000
0000
0100
0000
0000
,
1000
0000
0001
0000
0000
0001
0000
0000
0100
0000
0000
0000
0010
0000
1000
0000
,
0001
0000
0000
0000
1000
0000
0100
0000
0010
0000
0001
0000
0000
0001
0000
0000
,
0200
0000
0310
1000
0001
0000
0010
0100
,
1000
0000
0100
0000
0010
0000
0000
0000
0001
0000
1000
0000
0000
1000
0000
0000
,
0010
0000
0100
0000
0000
0100
0000
0000
0001
0000
1000
0000
0000
0000
0001
0000
,
0010
0100
0010
0000
0001
1000
0002
0000
,
0000
0000
0000
0000
,
0003
0000
0000
0000
;

//--------------- dance-single - ----------------
#NOTES:
     dance-single:
     :
     Hard:
     11:
     0.804958,0.890479,0.217007,0.434015,0.77075,753,724,29,58,1,1,0.804958,0.890479,0.217007,0.434015,0.77075,753,724,29,58,1,1:
0000
0000
0000
0000
,
0000
0000
0000
0000
,
2001
3001
0010
0001
,
0200
0310
0000
0010
,
2000
3100
0000
0100
,
0220
0000
0000
0330
0022
0000
0000
0033
,
1002
1003
0010
1000
,
0200
0310
0000
0010
,
0002
0103
0000
0100
,
2020
0000
0000
0000
3030
0000
1000
0010
0100
0010
1000
0001
0010
0100
1000
0010
,
0200
0000
0301
1000
0100
0000
0010
0000
,
0012
0000
0000
0000
0000
0000
1003
0000
0000
0001
1000
0001
1000
0000
0000
0000
0000
0000
0010
0000
0000
0100
0000
0000
,
0120
0000
1030
0000
0001
1000
0100
0000
,
0020
0000
0000
0000
0000
0000
0000
0000
0000
0000
0000
0000
0031
0000
0000
0000
0000
0000
1000
0000
0001
0000
1000
0000
0001
0000
0000
0000
0000
0000
0100
0000
0000
0000
0000
0000
0020
0000
0000
0000
0000
0000
0000
0000
0000
1030
0000
0000
,
0001
1000
0100
1000
0001
0100
0010
1000
,
1100
0100
0010
0001
0011
0010
0001
1000
,
0010
0100
0001
0100
0010
1000
0001
1000
0100
0010
0100
1000
0001
0100
0010
1000
,
0004
0000
0000
1003
,
0001
0000
0100
0000
0010
0000
1000
0000
0100
0000
0010
0000
0001
0010
0100
0000
,
1000
0000
0010
0100
0001
0000
1000
0000
0001
0000
1000
0100
0000
1000
0010
0100
,
0001
0010
0100
0000
1000
0000
0010
0100
0001
0000
1000
0000
0001
0010
0100
0000
,
1000
0000
0010
0100
0000
0010
1000
0000
0100
0010
0100
1000
0002
0000
0003
0000
,
1001
1000
0001
0010
0100
0010
0001
1000
,
1001
0001
0010
0100
1100
1000
0001
0100
,
0010
1000
0001
1000
0100
0010
0001
1000
0010
0100
0010
1000
0001
0010
0100
1000
,
0040
0000
0000
003M
,
1001
0000
1000
0000
0200
0000
1300
0000
0001
0010
0000
0100
1000
0000
0010
0100
,
0001
0000
0010
0001
1000
0001
0100
0020
0000
0130
0010
1000
0002
0000
0000
0000
,
0013
0100
0010
0000
0101
0000
1000
0000
0010
0100
0010
0000
1100
0000
0001
0000
,
1000
0100
1000
0000
0010
0000
0100
0001
1000
0100
0010
0100
1000
0001
0100
0010
,
1000
0000
0001
0000
0010
0000
0001
0000
1000
0000
0010
0100
0010
0000
1000
0001
,
1000
0000
0100
0010
0100
0000
1000
0010
0000
0100
0002
0000
0000
0000
0013
0000
,
0100
0000
0000
0000
0000
0000
1000
0000
0000
0000
0000
0000
0001
0000
0000
0100
0000
0000
0001
0000
0000
1000
0000
0000
0000
0000
0000
0010
0000
0000
1000
0000
0000
0001
0000
0000
0010
0000
0100
0000
1000
0000
0001
0000
0100
0000
0001
0000
,
2000
0000
0000
0000
3200
0000
0000
0000
0320
0000
0000
0000
0032
0000
0000
0003
,
1000
0000
0001
0000
0200
0000
0310
1000
0000
0100
0000
0010
0001
0000
1000
0001
,
0100
0000
0010
0000
1000
0001
0010
0200
0000
1300
0001
0100
0002
0000
0000
0000
,
0103
0010
0100
0000
0011
0000
1000
0000
0100
0010
0100
0000
1010
0000
0001
0000
,
1000
0010
0100
0000
0110
0000
0000
1001
0000
0000
0101
0000
0100
0000
0010
1000
,
0001
0000
1000
0000
0100
0000
0010
0100
0000
1000
0000
0001
0100
0000
0010
1000
,
0001
0000
0000
0000
0000
0000
0010
0000
0000
0100
0000
0000
1000
0000
0000
0000
0000
0000
0100
0000
0000
0010
0000
0000
0000
0000
0000
0001
0000
0000
1000
0000
0000
0010
0000
0000
0100
0000
0001
0000
1000
0000
0001
0000
0010
0000
0100
0000
,
2000
0000
3000
2000
0000
3000
0020
0000
,
0000
0000
0000
0000
0000
0000
0100
0000
0000
0000
0000
0000
0030
0000
0000
0000
0000
0000
0100
0000
0000
0010
0000
0000
1000
0000
0000
0000
0001
0000
0000
0000
1000
0000
0000
0000
0004
0000
0000
0000
0000
0000
0000
0000
0000
0000
0000
0000
,
1003
0000
0001
0000
0020
0000
0031
0000
0100
0010
0000
1000
0001
0000
0010
0100
,
1000
0000
0001
0000
0100
0010
0100
0002
0000
1003
0010
1000
0002
0000
0000
0000
,
0013
0100
0010
0000
0101
0000
1000
0000
0010
0100
0010
0000
1100
0000
0001
0000
,
1000
0100
0010
0000
0011
0000
0000
0101
0000
0000
1010
0000
1000
0001
0000
0010
,
0100
0000
1000
0000
0010
0000
0100
0000
0001
1000
0000
0100
1000
0000
0001
0010
,
0100
0000
0010
0001
1000
0000
0010
0100
0000
0000
0010
2000
0000
0000
3001
0000
,
1000
0000
0000
0000
0000
0000
0100
0000
0000
0000
0000
0000
0010
0000
0000
0100
0000
0000
1000
0000
0000
0001
0000
0000
0000
0000
0000
0100
0000
0000
0010
0000
0000
1000
0000
0000
0001
0000
1000
0000
0100
0000
0010
0000
0001
0000
1000
0000
,
0020
0230
0302
2003
,
3001
0010
0100
0010
0001
1000
0010
0100
,
0001
0000
1000
0000
0100
0010
0100
0000
1000
0000
0010
0100
0001
1000
0001
0010
,
0100
0000
1000
0000
0001
0100
0001
0000
1000
0000
0100
0000
0010
0001
0010
0000
,
0100
0000
1000
0000
0010
0000
0100
0000
0001
0000
0010
0100
1000
0001
0100
0010
,
1000
0000
0001
0000
0010
0100
0010
0000
0001
0000
1000
0000
0010
0100
0010
0000
,
1000
0000
0100
0000
0010
0001
0010
0000
0001
0000
0100
0001
1000
0100
0010
0100
,
1000
0000
0001
0000
0100
0010
0100
0000
0001
0000
0010
0000
0100
0000
1000
0000
,
0001
0000
2000
0000
3101
0000
0000
1010
0000
0000
0101
0000
0000
1010
0000
0000
,
0001
0000
1000
0000
0010
0100
0010
0000
1000
0000
0001
0000
0010
0100
0010
0000
,
0001
0000
1000
0000
0010
0000
1000
0000
0001
0000
0010
0100
1000
0001
1000
0010
,
0100
0000
0010
0000
1000
0001
1000
0000
0001
0000
0010
0000
0100
1000
0100
0000
,
1000
0000
0001
0000
0100
0000
0010
0000
1000
0000
0100
0010
0001
1000
0001
0100
,
0010
0000
0100
0000
0001
0010
0001
0000
1000
0000
0010
0000
1000
0001
1000
0000
,
0100
0000
0010
0000
0001
0100
0001
0000
1000
0000
0100
1000
0001
0100
0001
1000
,
0010
0000
1000
0000
0100
0000
1000
0000
0010
0000
0100
0001
1000
0000
0100
0000
,
0010
0000
0001
0000
1000
0001
1000
0000
0010
0000
0100
0010
1000
0001
0010
0100
,
2000
0000
0000
0000
3001
0000
1000
0001
2000
0000
3010
0100
0001
1000
0001
1000
,
0100
0010
0100
0010
0001
1000
0001
1000
0010
0100
0010
0100
0001
0000
0000
0000
,
0200
0000
0000
0000
0301
0000
0000
0000
1000
0000
0000
1000
0001
0000
0010
0100
,
0010
0000
0001
0000
1000
0000
0000
0000
0010
0000
0000
0100
0000
0000
0002
0000
,
0013
0000
0200
0000
1300
0000
0000
0000
0001
0000
0000
0001
1000
0000
0010
0100
,
0001
0000
0020
0000
0230
0000
0300
0000
0010
0000
0001
1000
0000
1000
0010
0000
,
0200
0000
0000
0000
0301
0000
0000
0000
1000
0000
0000
1000
0001
0000
0010
0100
,
1000
0000
0002
0000
0103
0000
0000
0000
0010
0000
0000
1000
0000
0000
0200
0000
,
2300
0000
0000
0000
3001
0000
0000
0000
1000
0000
0000
1000
0001
0000
0010
0001
,
1000
0000
0200
0000
0320
0000
0000
0000
0032
0000
1003
0000
0010
0200
0000
0000
,
0301
0000
1000
0000
0010
0000
0100
0000
0001
1000
0001
1000
0100
0000
0010
0000
,
0001
1000
0001
1000
0010
0000
0100
0000
0001
0000
1000
0000
0100
0010
0000
0000
,
0001
0000
0100
0000
0000
0010
0100
0000
0001
1000
0001
1000
0100
0000
1000
0000
,
0010
0100
0010
0100
0001
0000
1000
0000
0100
0000
0010
0000
0001
0010
0001
0000
,
0200
0000
0000
0000
0310
0000
1000
0000
0001
0010
0001
0010
0100
0000
1000
0000
,
0001
0100
0001
0100
0010
0000
1000
0000
0001
0000
0010
0000
0100
1000
0000
0000
,
0001
0000
0100
0000
0010
0100
0000
0000
0001
0000
0010
0000
0100
0010
0000
0000
,
0001
1000
0001
1000
0010
0000
0100
0000
0001
1000
0001
1000
0200
0000
0000
0000
,
0000
0000
0000
0000
,
0300
0000
0000
0000
;

//--------------- dance-single - sangyule ----------------
#NOTES:
     dance-single:
     sangyule:
     Challenge:
     13:
     1.061519,1.240309,0.411566,0.456464,1.500344,993,935,55,61,27,4,1.061519,1.240309,0.411566,0.456464,1.500344,993,935,55,61,27,4:
0000
0000
0000
0000
,
0000
0000
0000
0000
,
2001
3001
0010
0001
,
0200
0310
1000
0001
,
0020
0130
1000
0001
,
0202
0000
0000
0303
2020
0000
0000
3030
,
1002
1003
0010
1000
,
0200
0310
0100
1000
,
0020
0130
0001
1000
,
2002
0000
0000
0000
3003
0000
0001
0010
0001
1000
0010
1000
0100
0010
0001
1000
,
1002
0000
0000
1003
0100
0000
1000
0000
,
1200
0000
0000
0000
0000
0000
0000
0000
0000
0000
0000
0000
0000
0000
0000
0000
0000
0000
0000
0000
0000
0000
0000
0000
0310
0000
0000
0000
0000
0000
0000
0000
0000
0000
0000
0000
0001
0000
0000
0000
1000
0000
0000
0000
0001
0000
0000
0000
0100
0000
0000
0000
0000
0000
0000
0000
0000
0000
0000
0000
0000
0000
0000
0000
0000
0000
0000
0000
0000
0000
0000
0000
0010
0000
0000
0000
0000
0000
0000
0000
0000
0000
0000
0000
0100
0000
0000
00M0
0000
0000
0100
0000
0000
0000
0000
0000
,
2000
0000
3001
0000
0010
0100
1000
0000
,
2100
0000
0000
0000
0000
0000
0000
0000
0000
0000
0000
0000
3001
0000
0000
0000
0000
0000
1000
0000
0001
0000
0100
0000
0001
0000
0000
0000
0000
0000
1000
0000
0000
0000
0000
0000
0010
0000
0000
0000
0000
0000
0000
0000
0000
1000
0000
0000
,
1000
0001
0010
0001
0100
0010
1000
0001
,
0101
0100
0010
1000
1100
0100
0010
0001
,
0100
0010
1000
0001
0010
0100
1000
0001
0010
0001
0100
0010
1000
0100
0010
0001
,
1000
0000
0000
0000
0000
0000
0000
0000
0000
0000
0000
0000
0000
0000
0000
0000
0000
0000
0000
0000
0000
0000
0000
0000
0001
0000
0000
0000
0000
0000
0000
0000
0000
0000
0000
0000
0000
0000
0000
0000
0000
0000
0000
0000
0000
0000
0000
0000
1000
0000
0000
0000
0000
0000
0000
0000
0000
0000
0000
0000
0000
0000
0000
0000
0001
0000
0000
0000
0000
0000
0000
0000
0000
0000
0000
0000
0000
0000
1000
0000
0000
0000
0000
0000
0000
0000
0000
0000
0000
0000
0001
0000
0000
0000
0000
0000
0000
0000
0000
1000
0000
0000
0000
0000
0000
0000
0000
0000
0010
0000
0000
0000
0000
0000
0000
0000
0100
0000
0000
0000
0000
0000
0000
0000
0001
0000
0000
0000
0000
0000
0000
0000
1000
0000
0000
0000
0000
0000
0100
0000
0000
0000
0000
0000
0010
0000
0000
0000
0000
0000
0000
0000
0000
0000
0000
0000
0000
0000
0000
0000
0000
0000
0000
0000
0000
0000
0000
0000
0000
0000
0000
0000
0000
0000
0000
0000
0000
0000
0000
0000
0000
0000
0000
0000
0000
0000
0000
0000
0000
0000
0000
0000
,
1001
0000
0001
0100
0010
1000
0100
0010
0100
1000
0001
0000
0100
0010
1000
0000
,
0100
0000
0000
0000
0010
0000
0100
0000
1000
0000
0001
0000
0100
0000
0010
0000
0100
0000
0001
0000
0010
0000
0100
0000
1000
0000
0001
0000
0010
0M00
0010
0000
,
1000
0100
1000
0000
0001
0000
0010
0001
0100
0000
0010
0000
1000
0001
0010
0100
,
1000
0000
0010
0100
0001
0000
0100
0000
0010
1000
0100
1000
0002
0000
0003
0000
,
1001
1000
0010
0100
0001
0010
0100
1000
0010
0100
0001
0010
0100
0010
0001
1000
,
0010
1000
0100
0010
0001
1000
0010
0100
0001
1000
0100
0010
0001
1000
0010
0100
,
0001
0010
0001
1000
0010
1000
0100
0010
0001
0100
0001
1000
0010
1000
0100
0010
,
0001
1000
0010
0100
0010
1000
0001
0010
0100
1000
0001
0100
0010
0100
0001
1000
0100
1000
0002
0000
0000
0003
0000
0000
,
1101
0000
1000
0000
0020
0000
1030
0001
0000
0010
0M00
0010
1000
0000
0100
1000
,
0001
0100
0010
0100
0001
1000
0001
0020
0000
0130
1000
0001
0200
0000
0000
0000
,
0310
0000
0001
0000
0010
0000
0100
0000
0010
0000
0000
0000
1100
0000
0000
0000
0000
0000
0001
0000
0000
0010
0000
0000
0100
0000
0001
0000
0100
0000
0010
0000
0100
0000
0000
0000
1010
0000
0000
0000
0000
0000
0001
0000
0000
1000
0000
0000
,
0001
0100
0010
0100
0001
1000
0100
0010
0100
1000
0010
1000
0001
0100
1000
0100
,
0011
0000
1000
0000
0100
0000
1000
0001
0000
0010
0M00
0010
1000
0000
0100
0010
,
0001
0000
1000
0001
1000
0000
0001
0100
00M0
0100
1000
0020
0000
0000
0130
0000
,
0101
0000
0000
0000
0000
0000
0001
0000
0000
0000
0000
0000
1000
0000
0000
0100
0000
0000
1000
0000
0000
0010
0000
0000
0M00
0000
0000
0010
0000
0000
0001
0000
0000
1000
0000
0000
0010
0000
0100
0000
0001
0000
1000
0000
0100
0000
0010
0000
,
0202
0000
0303
0000
2020
0000
3030
0M00
0022
0000
0033
0000
2000
0000
3000
0000
,
1011
0000
1000
0000
0002
0000
1003
0001
0000
0100
00M0
0100
1000
0000
0010
0100
,
0001
1000
0100
1000
0010
0100
0001
2000
0000
3001
0010
0100
1000
0001
0100
0010
,
0100
0000
1000
0000
0100
0000
0010
0000
0100
0000
0000
0000
0011
0000
0000
0000
0000
0000
1000
0000
0000
0100
0000
0000
0010
0000
1000
0000
0010
0000
0100
0000
0010
0000
0000
0000
0101
0000
0000
0000
0000
0000
1000
0000
0000
0000
0000
0000
,
0100
0000
0000
0010
0000
0000
0001
0000
0000
1000
0000
0000
0011
0000
0000
0000
0000
0000
1000
0000
0000
0011
0000
0000
0000
0000
0000
1000
0000
0000
0011
0000
0100
0000
0001
0000
0100
0000
0000
0000
0000
0000
1000
0000
0000
0100
0000
0000
,
0011
0000
1000
0000
0001
0000
1000
0100
00M0
0100
0001
0100
0010
1000
0100
1000
,
0001
0000
0000
0000
0000
0000
0100
0000
0000
0010
0000
0000
1000
0000
0000
0000
0000
0000
0001
0000
0000
0010
0000
0000
0100
0000
0000
1000
0000
0000
0001
0000
0100
0000
0010
0000
0100
0000
0001
0000
1000
0000
0100
0000
0010
0000
0001
0000
,
2020
0000
0000
0000
3030
0M00
0022
0000
0000
0000
0033
0000
2200
0000
0000
0000
,
0000
0000
0000
0000
0000
0000
0001
0000
0000
0000
0000
0000
3300
0000
0000
0000
0000
0000
0001
0000
0000
0100
0000
0000
0011
0000
0000
0000
0100
0000
0000
0000
0010
0000
0000
0000
4000
0000
0000
0000
0000
0000
3000
0000
0000
0000
0000
0000
,
1011
0000
0001
0000
1000
0000
0001
0010
0000
0100
M000
0100
0001
0000
0010
0001
,
0100
0010
1000
0001
0010
0100
1000
0002
0000
1003
0100
0010
0200
0000
0000
0000
,
0310
0000
1000
0000
0010
0000
0100
0000
0010
0000
0000
0000
0101
0000
0000
0000
0000
0000
1000
0000
0000
0010
0000
0000
0100
0000
1000
0000
0100
0000
0010
0000
0100
0000
0000
0000
0011
0000
0000
0000
0000
0000
1000
0000
0000
0000
0000
0000
,
0100
0010
0001
1000
0011
0000
1000
0011
0000
1000
0011
0000
0100
4000
0000
3100
,
0011
0000
1000
0000
0100
0000
0010
0000
0001
0100
00M0
0100
1000
0000
0010
0100
,
0001
0000
0010
0100
1000
0000
0001
0100
00M0
0100
1000
0020
0000
0000
0130
0001
,
1001
0000
0000
0000
0000
0000
1000
0000
0000
0000
0000
0000
0100
0000
0000
0010
0000
0000
0001
0000
0000
1000
0000
0000
0010
0000
0000
0100
0000
0000
0001
0000
1000
0000
0100
0000
0010
0000
0001
0000
1000
0000
0010
0000
0100
0000
0010
0000
,
2200
0000
3300
0000
0022
0000
0033
0M00
2020
0000
3030
0000
0004
0000
0000
0003
,
1000
0010
0100
0010
1000
0001
0010
0100
1000
0010
1000
0001
0100
0001
0010
0100
,
1000
0001
0010
0001
0100
0010
1000
0001
1000
0010
0100
1000
0100
0010
1000
0001
,
0010
0001
1000
0010
0100
0010
1000
0100
1000
0001
0010
0001
1000
0010
0100
0001
,
0010
0100
1000
0001
0100
0010
1000
0001
1000
0100
0010
1000
0010
0100
1000
0001
,
1000
0100
0010
0001
0100
0010
1000
0001
0010
0100
0010
0001
0100
0010
1000
0100
,
1000
0010
0100
0001
0010
0100
0010
0001
1000
0010
0100
1000
0100
0010
1000
0001
,
0010
0100
1000
0001
0100
0010
1000
0001
0010
0100
0010
0001
0100
0001
1000
0010
,
0100
0001
1000
0100
1010
0000
0001
1010
0000
0001
1100
0000
0010
1100
0000
0001
,
1000
0100
0010
0100
1000
0001
0100
0010
1000
0100
1000
0001
0010
0001
0100
0010
,
1000
0001
0100
0001
0010
0100
1000
0001
1000
0010
0100
1000
0100
0010
1000
0001
,
0010
0100
0010
0001
0100
0001
1000
0100
1000
0001
0010
0001
1000
0010
0100
0001
,
0010
0100
1000
0001
0100
0010
0100
0001
1000
0100
0010
1000
0010
0100
1000
0001
,
1000
0010
0100
0001
0010
0100
1000
0001
0100
0010
0100
0001
1000
0001
0010
0001
,
0100
0010
1000
0001
0010
0100
1000
0001
0100
0010
0100
1000
0100
0010
1000
0100
,
0010
0001
1000
0010
1000
0001
0010
0001
0100
0010
1000
0100
1000
0001
0100
0010
,
1000
0001
0010
0100
1000
0001
0100
0001
1000
0100
0010
1000
0010
0100
1000
0001
,
0100
0000
0010
1000
0001
0000
0010
0100
2000
0000
3010
1000
0001
0010
0001
0010
,
0100
1000
0100
1000
0001
0100
0001
0100
0010
1000
0010
1000
0001
0000
0000
0000
,
1001
0000
2000
0000
3100
0000
0000
0000
1100
0000
00M0
0100
0001
0000
0010
0100
,
0010
0000
0002
0000
0203
0000
0300
0000
0110
0000
M000
0010
0001
0000
2000
0000
,
3100
0000
0020
0000
0031
0000
0000
0000
0011
0000
0M00
0010
1000
0000
0001
1000
,
0010
0000
0200
0000
0302
0000
0003
0000
1001
0000
1000
0100
0000
0100
1000
0001
,
0040
0000
000M
0000
2030
0000
3000
0000
1010
0000
0M00
0010
0001
0000
1000
0100
,
0010
0000
0002
0000
0103
0000
0000
0000
1010
0000
1000
0001
0000
0001
0020
0000
,
0034
0000
0000
0000
1003
0000
0000
0000
1010
0000
0M00
0010
0001
0000
1000
0100
,
0010
0000
0002
0000
0103
0000
0010
0000
2000
0000
3100
0000
0010
0100
0000
0000
,
1001
0000
0001
0000
0100
0000
0010
0100
0001
0010
0100
1000
0001
0000
0100
0001
,
1000
0100
0010
0100
1000
0000
0010
0000
0100
0000
0001
0100
00M0
0100
1000
0001
,
1000
0000
0010
0001
0M00
0001
0100
0000
0010
1000
0001
0010
0100
0000
1000
0100
,
0010
0001
0010
0001
0100
0000
0010
0000
1000
0000
0010
0100
000M
0100
1000
0000
,
0040
0000
M000
0000
0032
0000
0103
0000
0001
1000
0010
0100
0010
0000
1000
0000
,
0100
0010
0001
1000
0100
0000
1000
0001
0100
0001
1000
0010
0M00
0010
0001
0000
,
1000
0010
0100
1000
0M00
1000
0010
0100
0001
0000
1000
0100
00M0
0100
0001
0000
,
1000
0001
0100
0001
0010
0000
0001
0000
0100
0010
1000
0100
0020
0000
0000
0000
,
0000
0000
0000
0000
,
0030
0000
0000
0000
;
