#VERSION:0.83;
#TITLE:FUTURE GROOVE;
#SUBTITLE:;
#ARTIST:android52;
#TITLETRANSLIT:;
#SUBTITLETRANSLIT:;
#ARTISTTRANSLIT:;
#GENRE:;
#ORIGIN:;
#CREDIT:;
#BANNER:future groove-bn.png;
#BACKGROUND:future groove-bg.png;
#PREVIEWVID:;
#JACKET:future groove jacket.png;
#CDIMAGE:;
#DISCIMAGE:;
#LYRICSPATH:;
#CDTITLE:;
#MUSIC:FUTURE GROOVE.ogg;
#OFFSET:0.068000;
#SAMPLESTART:112.409004;
#SAMPLELENGTH:15.000000;
#SELECTABLE:YES;
#DISPLAYBPM:64.000000:128.000000;
#BPMS:0.000=128.000,
80.000=64.000,
88.000=128.000,
136.000=64.000,
144.000=128.000;
#STOPS:;
#DELAYS:;
#WARPS:;
#TIMESIGNATURES:0.000=4=4;
#TICKCOUNTS:0.000=4;
#COMBOS:0.000=1;
#SPEEDS:0.000=1.000=0.000=0,
64.000=0.500=0.000=0,
64.021=1.000=1.000=0,
86.000=0.250=0.000=0,
86.021=1.250=2.000=0,
88.000=1.000=0.150=0,
143.000=0.000=0.000=0,
143.021=1.250=1.000=0,
144.000=1.000=0.000=0;
#SCROLLS:0.000=1.000,
48.000=1.500,
48.500=0.500,
49.000=1.000,
64.000=0.750,
65.000=1.000,
101.000=0.500,
103.000=1.500,
103.500=0.500,
104.000=1.000,
191.000=0.500,
191.500=1.500,
192.000=1.000,
205.000=0.500,
207.000=1.500,
207.500=0.500,
208.000=1.000,
239.500=0.000,
239.750=1.250,
240.000=1.000;
#FAKES:;
#LABELS:0.000=Song Start;
#BGCHANGES:;
#KEYSOUNDS:;
#ATTACKS: TIME=22.43:LEN=0.10:MODS=2% confusion: TIME=29.93:LEN=0.10:MODS=2% confusion: TIME=73.06:LEN=0.50:MODS=50% stealth: TIME=76.81:LEN=1.20:MODS=50% stealth: TIME=80.56:LEN=1.20:MODS=50% stealth: TIME=84.31:LEN=1.20:MODS=50% stealth;

//---------------dance-single - Maxx----------------
#NOTEDATA:;
#CHARTNAME:Maxx;
#STEPSTYPE:dance-single;
#DESCRIPTION:Maxx;
#CHARTSTYLE:;
#DIFFICULTY:Challenge;
#METER:11;
#RADARVALUES:0.665866,0.990211,0.495106,0.926555,0.703757,659.000000,589.000000,70.000000,131.000000,25.000000,14.000000,5.000000,0.000000,0.000000,0.665866,0.990211,0.495106,0.926555,0.703757,659.000000,589.000000,70.000000,131.000000,25.000000,14.000000,5.000000,0.000000,0.000000;
#CREDIT:Maxx;
#ATTACKS:TIME=22.43:LEN=0.10:MODS=2% confusion:TIME=29.93:LEN=0.10:MODS=2% confusion:TIME=73.06:LEN=0.50:MODS=50% stealth:TIME=76.81:LEN=1.20:MODS=50% stealth:TIME=80.56:LEN=1.20:MODS=50% stealth:TIME=84.31:LEN=1.20:MODS=50% stealth:TIME=22.43:LEN=0.10:MODS=2% confusion:TIME=29.93:LEN=0.10:MODS=2% confusion:TIME=73.06:LEN=0.50:MODS=50% stealth:TIME=76.81:LEN=1.20:MODS=50% stealth:TIME=80.56:LEN=1.20:MODS=50% stealth:TIME=84.31:LEN=1.20:MODS=50% stealth:TIME=22.43:LEN=0.10:MODS=2% confusion:TIME=29.93:LEN=0.10:MODS=2% confusion:TIME=73.06:LEN=0.50:MODS=50% stealth:TIME=76.81:LEN=1.20:MODS=50% stealth:TIME=80.56:LEN=1.20:MODS=50% stealth:TIME=84.31:LEN=1.20:MODS=50% stealth:TIME=22.430000:LEN=0.100000:MODS=2% confusion:TIME=29.930000:LEN=0.100000:MODS=2% confusion:TIME=73.059998:LEN=0.500000:MODS=50% stealth:TIME=76.809998:LEN=1.200000:MODS=50% stealth:TIME=80.559998:LEN=1.200000:MODS=50% stealth:TIME=84.309998:LEN=1.200000:MODS=50% stealth:TIME=22.430000:LEN=0.100000:MODS=2% confusion:TIME=29.930000:LEN=0.100000:MODS=2% confusion:TIME=73.059998:LEN=0.500000:MODS=50% stealth:TIME=76.809998:LEN=1.200000:MODS=50% stealth:TIME=80.559998:LEN=1.200000:MODS=50% stealth:TIME=84.309998:LEN=1.200000:MODS=50% stealth:TIME=22.430000:LEN=0.100000:MODS=2% confusion:TIME=29.930000:LEN=0.100000:MODS=2% confusion:TIME=36.259998:LEN=0.500000:MODS=50% stealth:TIME=73.059998:LEN=0.500000:MODS=50% stealth:TIME=76.809998:LEN=1.200000:MODS=50% stealth:TIME=80.559998:LEN=1.200000:MODS=50% stealth:TIME=84.309998:LEN=1.200000:MODS=50% stealth;
#DISPLAYBPM:64.000000:128.000000;
#NOTES:
0000
0000
0000
0000
,
0000
0000
0000
0000
,
0000
0000
0000
0000
,
0000
0000
0000
0000
,
0002
0000
0000
1003
0100
0000
0020
0000
0001
0000
0130
0000
1000
0000
0001
0000
,
0200
0000
0000
0320
0000
0000
2030
0000
0001
0100
0001
0100
3001
0000
1000
0100
,
0020
0000
0000
0031
0100
0000
0020
0000
1000
0000
0130
0000
0001
0000
0010
0000
,
0100
0000
1000
0000
0100
0000
2000
0000
0001
0100
0001
0100
3001
0000
1000
0100
,
0040
0000
0000
0000
0000
0000
0000
0000
0001
0000
0000
0000
0000
0000
0000
0000
0000
0000
0000
0000
0000
0000
0000
0000
0100
0000
0000
0000
0000
0000
0000
0000
0000
0000
0000
0000
0000
0000
0000
0000
0031
0000
0000
0000
0000
0000
0000
0000
1000
0000
0000
0000
0000
0001
0000
0000
0100
0000
0000
0000
0000
0000
0000
0000
,
0010
0000
1000
0001
0010
0000
0002
0000
1000
0100
1000
0100
1003
0000
0001
1000
,
0040
0000
0000
0000
0000
0000
0000
0000
0100
0000
0000
0000
0000
0000
0000
0000
0000
0000
0000
0000
0000
0000
0000
0000
1000
0000
0000
0000
0000
0000
0000
0000
0000
0000
0000
0000
0000
0000
0000
0000
0130
0000
0000
0000
0000
0000
0000
0000
0001
0000
0000
0000
0000
1000
0000
0000
0100
0000
0000
0000
0000
0000
0000
0000
,
0010
0000
0001
0000
1000
0000
0020
0000
0000
1030
0100
0100
0001
0000
1000
0001
,
2001
0000
0000
0000
0000
0000
0000
0000
0000
0000
0000
0000
0000
0000
0000
0000
3011
0000
0000
0000
0000
0000
0000
0000
0200
0000
0000
0000
0000
0000
0000
0000
0000
0000
0000
0000
0300
0000
0000
0000
0100
0000
0000
0000
0000
0000
0000
0000
0101
0000
0000
0000
0000
0001
0000
0000
1000
0000
0000
0000
0000
0000
0000
0000
,
0200
0000
0000
0310
0001
0000
2000
0000
0000
3001
0010
0010
1000
0000
1000
0100
,
0020
0000
0000
0000
0000
0000
0000
0000
0000
0000
0000
0000
0032
0000
0000
0000
0000
0000
0000
0000
0000
0000
0000
0000
0203
0000
0000
0000
0000
0000
0000
0000
0000
0000
0000
0000
0300
0000
0000
0000
0100
0000
0000
0000
0000
0000
0000
0000
0101
0000
0000
0000
0000
0001
0000
0000
1000
0000
0000
0000
0000
0000
0000
0000
,
0200
0000
0000
0310
0001
0000
2000
0000
0000
3001
0100
0100
1000
0000
1000
0001
,
1004
0000
0000
0000
0000
0000
0000
0000
0000
0000
0000
0000
0000
0000
0000
0000
1103
0000
0000
0000
0000
0000
0000
0000
0020
0000
0000
0000
0000
0000
0000
0000
0000
0000
0000
0000
0030
0000
0000
0000
0010
0000
0000
0000
0000
0000
0000
0000
1010
0000
0000
0000
0000
1000
0000
0000
0001
0000
0000
0000
0000
0000
0000
0000
,
0020
0000
0000
0130
1000
0000
0002
0000
0000
1003
0010
0010
0001
0000
0001
0100
,
0020
0000
0000
0000
0000
0000
0000
0000
0000
0000
0000
0000
2030
0000
0000
0000
0000
0000
0000
0000
0000
0000
0000
0000
3200
0000
0000
0000
0000
0000
0000
0000
0300
0000
0000
0000
0000
0000
0000
0000
1000
0000
0000
0000
0000
0000
0000
0000
1001
0000
0000
0000
0000
0001
0000
0000
0100
0000
0000
0000
0000
0000
0000
0000
,
0020
0000
0000
1030
0001
0000
0010
0000
0200
0000
0000
0000
2300
0000
0000
0000
,
3001
0000
1000
0000
0100
0000
0010
0001
1000
0000
0001
0000
0100
0000
0010
1000
0001
0000
1000
0000
0100
0000
0010
0100
1000
0000
0010
0000
0100
0010
1000
0001
,
0010
0000
0100
0000
1000
0000
0001
1000
0010
0000
0100
0000
0001
1000
0001
1000
0400
0000
0000
0000
0000
0000
0000
0000
1300
0000
0001
0010
0000
0001
1000
0001
,
02M0
0000
0000
0000
0000
0000
0000
0000
0310
0000
0000
0000
0000
1000
0000
0000
0001
0000
0000
0000
0000
0000
0000
0000
1000
0000
0000
0000
0000
0000
0000
0000
0100
0000
0000
0000
0000
0000
0000
0000
1000
0000
0000
0000
0000
0001
0000
0000
0000
0000
0000
0000
0000
0001
0000
0000
1000
0000
0000
0000
0000
0000
0000
0000
,
0100
0000
0000
0000
0000
0000
0000
0000
0010
0000
0000
0000
0000
0001
0000
0000
1000
0000
0000
0000
0000
0000
0000
0000
0010
0000
0000
0000
0000
0000
0000
0000
0100
0000
0000
0000
0000
0000
0000
0000
0001
0000
0000
0000
0000
1000
0000
0000
0000
0000
0000
0000
1000
0000
0000
0000
0001
0000
0000
0000
0100
0000
0000
0000
,
0010
0000
0000
0000
0000
0000
0000
0000
1000
0000
0000
0000
0000
0001
0000
0000
0010
0000
0000
0000
0000
0000
0000
0000
0100
0000
0000
0000
0000
0000
0000
0000
1000
0000
0000
0000
0000
0000
0000
0000
0001
0000
0000
0000
0000
1000
0000
0000
0000
0000
0000
0000
0000
1000
0000
0000
0002
0000
0000
0000
0000
0000
0000
0000
,
1000
0100
1000
0100
2003
0000
0000
0000
3001
0000
0000
0001
2000
0000
0000
0000
,
3102
0000
0000
1003
0102
0000
0023
0000
0030
0000
0001
0000
1001
0000
0001
0000
,
2100
0000
0000
3010
2100
0000
3002
0000
0003
1000
0001
0010
0100
M000
0100
0001
,
2010
0000
0000
3001
2010
0000
3200
0000
0300
0000
1000
0000
1001
0000
1000
0000
,
0012
0000
0000
1003
0012
0000
0203
0000
0300
1000
0100
0010
1000
0000
0001
1000
,
0102
0000
0000
0013
0102
0000
2003
0000
3000
0000
0010
0000
1010
0000
0010
0000
,
2100
0000
0000
3010
2100
0000
3002
0000
0003
1000
0001
0010
0100
M000
0100
0001
,
2010
0000
0000
3001
2010
0000
3200
0000
0300
0000
1000
0000
1001
0000
1000
0000
,
0012
0000
0000
0103
0012
0000
2003
0000
0000
3002
0000
0003
2001
0000
0000
0000
,
30M1
1000
0100
0010
0001
1000
0001
1000
0010
0100
0001
1000
0100
0010
0001
1000
,
0010
0100
0010
1000
0100
0010
0100
0010
0001
0000
1000
0000
0010
0000
0000
0000
,
0220
0000
0330
0010
1000
0000
1002
0000
0000
0000
0000
0000
0000
0000
0000
0000
,
0000
1000
0010
0100
0010
1000
0010
1003
,
1002
0000
0000
0103
0000
0000
2010
0000
0000
0000
0000
0000
0000
0000
0000
0000
,
0000
0001
0100
0010
0100
0001
0100
3001
,
2001
0000
0000
3100
0000
0000
0012
0000
0000
0000
0000
0000
0000
0000
0000
0000
,
0000
1000
0100
0010
0100
1000
0100
1003
,
1002
0000
0000
0103
0000
0000
2010
0000
0000
0000
0000
0000
0000
0000
0000
0000
,
0001
0000
0000
0100
0000
0000
0100
0000
0001
0000
0000
0001
0100
0000
0000
3000
,
0002
0000
0000
0000
0000
0000
0000
0000
1003
0000
0000
0000
0000
0001
0000
0000
0100
0000
0000
0000
0000
0000
0000
0000
0002
0000
0000
0000
0000
0000
0000
0000
1003
0000
0000
0000
0000
0000
0000
0000
0100
0000
0000
0000
0000
0010
0000
0000
0001
0000
0000
0000
0000
0000
0000
0000
1000
0000
0000
0000
0000
0000
0000
0000
,
0020
0000
0000
0000
0000
0000
0000
0000
0130
0000
0000
0000
0000
0001
0000
0000
1000
0000
0000
0000
0000
0000
0000
0000
0002
0000
0000
0000
0000
0000
0000
0000
0103
0000
0000
0000
0000
0000
0000
0000
0010
0000
0000
0000
0000
0000
0000
0000
1000
0000
0000
0000
0000
0000
0000
0000
0001
0000
0000
0000
0001
0000
0000
0000
,
0020
0000
0000
0000
0000
0000
0000
0000
0130
0000
0000
0000
0000
1000
0000
0000
0001
0000
0000
0000
0000
0000
0000
0000
2000
0000
0000
0000
0000
0000
0000
0000
3010
0000
0000
0000
0000
0000
0000
0000
0100
0000
0000
0000
0000
0001
0000
0000
1000
0000
0000
0000
0000
0000
0000
0000
0001
0000
0000
0000
0000
0000
0000
0000
,
0040
0000
0000
0000
0000
0000
0000
0000
0000
0000
0000
0000
0000
0031
0000
0000
1000
0000
0000
0000
0000
0010
0000
0000
0100
0000
0000
0000
0000
0001
0000
0000
1000
0000
0000
0000
0000
0100
0000
0000
0010
0000
0000
0000
0000
0001
0000
0000
1000
0000
0000
0000
0000
0000
0000
0000
0000
0000
0000
0000
0000
0000
0000
0000
,
1001
1000
0100
0010
0001
0100
0001
0100
,
0010
1000
0001
1000
0100
0010
0001
1000
,
0020
0230
0302
0023
0230
2300
3200
2300
,
0001
0100
0001
0100
3002
0000
0000
0000
1003
0000
0000
1000
0002
0000
0000
0000
,
2103
0000
0000
0000
0000
0000
3010
0M00
0010
0000
0001
0000
2000
0000
0000
0000
3100
00M0
0100
0000
0002
0000
0000
0000
1013
0000
0000
0000
0100
00M0
0100
0000
,
0011
0000
0010
0000
0102
0000
2003
0000
3001
0000
0010
0001
0010
0001
1000
1000
,
0012
0000
0000
0000
0000
0000
0103
00M0
0100
0000
1000
0000
0002
0000
0000
0000
0013
0M00
0010
0000
2000
0000
0000
0000
3102
0000
0000
0000
0013
0000
0010
0000
,
1100
0000
0100
0000
2010
0000
3002
0000
0103
0000
0010
1000
0010
1000
0002
0000
,
2013
0000
0000
0000
0000
0000
3100
00M0
0100
0000
0001
0000
2000
0000
0000
0000
3010
0M00
0010
0000
0002
0000
0000
0000
1013
0000
0000
0000
0100
00M0
0100
0000
,
0011
0000
0010
0000
0102
0000
2003
0000
3010
0000
0100
0001
0100
0001
1000
1000
,
0102
0000
0000
0000
0000
0000
0013
0M00
0010
0000
1000
0000
0002
0000
0000
0000
0103
00M0
0100
0000
2000
0000
0000
0000
3012
0000
0000
0000
0103
0000
0100
0000
,
1010
0000
0010
0000
2100
0000
3002
0000
0003
0000
1000
0100
0100
0001
0000
0000
,
1002
0000
0000
0000
0000
0000
0103
00M0
0100
0000
1000
0000
0002
0000
0000
0000
0013
0M00
0010
0000
2000
0000
0000
0000
3101
0000
0000
0000
0010
0M00
0010
0000
,
1100
0000
0100
0000
2010
0000
3002
0000
1003
0000
0100
1000
0100
1000
0001
0001
,
2100
0000
0000
0000
0000
0000
3010
0M00
0010
0000
0001
0000
2000
0000
0000
0000
3100
00M0
0100
0000
0002
0000
0000
0000
2013
0000
0000
0000
3100
0000
0100
0000
,
0011
0000
0010
0000
0102
0000
2003
0000
3010
0000
0100
0001
0100
0001
2000
0000
,
3102
0000
0000
0000
0000
0000
0013
0M00
0010
0000
1000
0000
0002
0000
0000
0000
0103
00M0
0100
0000
2000
0000
0000
0000
3101
0000
0000
0000
0010
0000
0010
0000
,
1100
0000
0100
0000
2010
0000
3002
0000
0103
0000
0010
1000
0010
1000
0001
0001
,
2010
0000
0000
0000
0000
0000
3100
00M0
0100
0000
0001
0000
2000
0000
0000
0000
3010
0M00
0010
0000
0002
0000
0000
0000
2103
0000
0000
0000
3010
0M00
0010
0000
,
0101
0000
0100
0000
0012
0000
2003
0000
3200
0000
1300
0010
0010
0001
0000
0000
,
0200
0000
0000
0000
,
0300
0000
0000
0000
,
00M0
0000
0000
0000
;

//---------------dance-single - sangyule----------------
#NOTEDATA:;
#CHARTNAME:;
#STEPSTYPE:dance-single;
#DESCRIPTION:sangyule;
#CHARTSTYLE:;
#DIFFICULTY:Hard;
#METER:8;
#RADARVALUES:0.400126,0.480960,0.106094,0.424376,0.173287,396.000000,381.000000,15.000000,60.000000,9.000000,0.000000,1.000000,0.000000,0.000000,0.400126,0.480960,0.106094,0.424376,0.173287,396.000000,381.000000,15.000000,60.000000,9.000000,0.000000,1.000000,0.000000,0.000000;
#CREDIT:sangyule;
#ATTACKS:TIME=22.43:LEN=0.10:MODS=2% confusion:TIME=29.93:LEN=0.10:MODS=2% confusion:TIME=73.06:LEN=0.50:MODS=50% stealth:TIME=76.81:LEN=1.20:MODS=50% stealth:TIME=80.56:LEN=1.20:MODS=50% stealth:TIME=84.31:LEN=1.20:MODS=50% stealth;
#DISPLAYBPM:64.000000:128.000000;
#NOTES:
0000
0000
0000
0000
,
0000
0000
0000
0000
,
0000
0000
0000
0000
,
0000
0000
0000
0000
,
0000
0000
0000
0000
,
0000
0000
0000
0000
,
0000
0000
0000
0000
,
0000
0000
0000
0000
,
0002
1000
0000
0203
0000
0310
1000
0001
,
0010
0000
0000
0010
0000
0000
0200
0000
1000
0000
0000
0000
0310
0000
0001
0000
,
2000
0001
0000
3020
0000
1030
0100
0010
,
0002
0000
1000
0000
0000
0000
0103
0000
0000
0110
0000
0000
0100
0000
0001
0000
,
1001
0000
1000
0100
0000
0010
0010
0010
,
0001
0000
0000
0001
0000
0000
1000
0000
0000
0001
1000
0001
0000
0000
0100
0001
,
1000
0000
0000
1000
0000
0000
0001
0000
0000
0000
0100
0000
0100
0000
0100
0000
,
0010
0000
0000
0010
0000
0000
1000
0000
0000
0012
0000
0000
0000
0000
1003
0000
,
0010
0000
1010
1000
0000
0001
0001
0001
,
0010
0000
0000
0010
0000
0000
0100
0000
0000
1000
0001
1000
0000
0000
0010
1000
,
0001
0000
0000
0001
0000
0000
1000
0000
0000
0000
0100
0000
0100
0000
0100
0000
,
0010
0000
0000
0010
0000
0000
0001
0000
2000
0000
0000
3000
0020
0000
0000
0030
,
010M
0010
0100
0000
0001
0000
0001
0000
1000
0000
0100
0000
0000
0100
0010
0001
,
1000
0001
1000
0000
0010
0000
0010
0000
0100
0000
0001
0000
0010
0000
0100
0000
,
100M
0010
0100
0001
1000
0100
1000
0001
,
0010
0100
1000
0001
0100
0001
0010
1000
,
0010
0001
0100
0010
1000
0001
1000
0100
,
0040
M031
0000
0000
,
1001
0000
0000
1000
0010
0000
0100
0000
0000
0000
0001
0000
0001
0000
0001
0000
,
1000
0000
0000
1000
0100
0000
0010
0000
0000
0001
0010
0001
0000
0000
1000
0000
,
0010
0000
0000
0010
0100
0000
0001
0000
0000
0000
1000
0000
1000
0000
1000
0000
,
0001
0000
0000
0001
0010
0000
0100
0000
0000
1000
0001
1000
0000
0000
0010
0000
,
0100
0000
0000
0100
0001
0000
1000
0000
0000
0000
0100
0000
0100
0000
0100
0000
,
0010
0000
0000
0010
0001
0000
1000
0000
0000
0001
1000
0001
0000
0000
0100
0010
,
1000
0000
0000
1000
0001
0000
0010
0000
0000
0000
0100
0000
0100
0000
0100
0000
,
1000
0000
0000
1000
0010
0000
0100
0000
0002
0000
0000
0000
2003
0000
0000
0000
,
3100
0010
0100
0000
1000
0000
1000
0000
0001
0000
0100
0000
0000
0100
0001
0010
,
0100
0100
1000
0000
0002
0003
0002
0003
0200
0300
0020
0030
0000
0000
0000
0000
,
1000
0000
0000
1000
0000
0000
0020
0000
0000
0000
0000
0000
0030
0000
0100
0000
,
0100
0001
1000
0100
0020
0031
0010
0100
,
1000
0000
0000
1000
0000
0000
0002
0000
0000
0000
0000
0000
0003
0000
1000
0000
,
1000
0010
0100
0001
2000
3001
0010
0100
,
0010
0000
0000
0010
0000
0000
0002
0000
0000
0000
0000
0000
0003
0000
1000
0000
,
1000
0010
0100
0001
0020
0130
1000
0001
,
0100
0000
0000
0100
0000
0000
0020
0000
0000
0000
0000
0000
0030
0000
0000
0000
,
2000
0000
0000
0002
0M00
0000
3MM3
0000
,
0001
1000
0100
0000
0010
0000
0010
0000
,
0001
0000
1000
0000
0002
1003
0100
0001
,
0100
1000
0001
0000
0100
0000
0100
0000
,
0010
0100
1000
0100
,
0101
0001
1000
0100
0010
0100
0010
0001
,
1000
0001
0100
0010
1000
0100
0010
1000
,
0010
0001
0010
0100
1000
0010
1000
0010
,
0100
0001
0100
0001
1000
0000
0000
0000
00M0
0000
0000
0000
0MM0
0000
0000
0000
,
1001
0000
0000
0001
0010
0000
0100
0000
0000
0000
2000
0000
3010
0000
0100
0000
,
0001
0000
0002
0023
0030
0100
1000
0002
,
0103
0000
0000
0100
0010
0000
1000
0000
0000
0000
0200
0000
0310
0000
0001
0000
,
1000
0000
2000
3002
0023
0000
0130
1000
,
0001
0000
0000
0001
0100
0000
0010
0000
0000
0000
2000
0000
3100
0000
1000
0000
,
0001
0000
0002
0203
0300
0010
1000
0100
,
0010
0000
0000
0010
0100
0000
1000
0000
0000
0000
0001
0000
0100
0000
0010
0000
,
1000
0000
0000
0000
2000
0000
3200
0000
0310
0000
0100
0010
0000
0000
0000
0000
,
1001
0002
0203
0310
2000
3000
1001
0000
,
0002
0003
0011
0020
0130
0000
2000
3001
,
0200
0320
0030
1000
0200
0300
0200
0300
,
0020
0030
0011
0001
0100
0000
0020
0000
,
1030
0002
0023
0030
0002
0003
1001
0000
,
2000
3000
0200
0320
0031
0000
2000
0000
,
3020
0230
0300
0001
0010
0000
0110
0000
,
0100
0000
1100
1000
0002
0103
0110
0000
,
1000
0000
0000
0000
;

//---------------dance-single - sangyule----------------
#NOTEDATA:;
#CHARTNAME:;
#STEPSTYPE:dance-single;
#DESCRIPTION:sangyule;
#CHARTSTYLE:;
#DIFFICULTY:Medium;
#METER:6;
#RADARVALUES:0.254626,0.336672,0.021219,0.190969,0.095485,252.000000,249.000000,3.000000,27.000000,20.000000,0.000000,1.000000,0.000000,0.000000,0.254626,0.336672,0.021219,0.190969,0.095485,252.000000,249.000000,3.000000,27.000000,20.000000,0.000000,1.000000,0.000000,0.000000;
#CREDIT:sangyule;
#DISPLAYBPM:64.000000:128.000000;
#NOTES:
0000
0000
0000
0000
,
0000
0000
0000
0000
,
0000
0000
0000
0000
,
0000
0000
0000
0000
,
0000
0000
0000
0000
,
0000
0000
0000
0000
,
0000
0000
0000
0000
,
0000
0000
0000
0000
,
0002
0000
0003
0020
0000
0000
0030
0000
,
0100
0000
0000
0100
0000
0000
2000
0000
0000
0000
0000
0000
3000
0000
0000
0000
,
0002
0000
0003
0200
0000
0000
0300
0000
,
0020
0000
0000
0000
0030
0000
1000
0000
0000
0001
0000
0000
0001
0000
0010
0000
,
0200
0000
0300
1000
0000
1000
0001
1000
,
0010
0000
0000
0010
0000
0000
0100
0000
0000
0002
0000
0000
1003
0000
0001
0000
,
0010
0000
0000
0010
0000
0000
0100
0000
0000
0000
0100
0000
1000
0000
0100
0000
,
0010
0000
0000
0010
0000
0000
0001
0000
0000
0200
0000
0000
0300
0000
0010
0000
,
0000
0000
1000
0001
0000
0001
1000
0001
,
0010
0000
0000
0010
0000
0000
0100
0000
0000
2000
0000
0000
3000
0000
0001
0000
,
0100
0000
0000
0100
0000
0000
0010
0000
0000
0000
0010
0000
1000
0000
0010
0000
,
0100
0000
0000
0100
0000
0000
0002
0000
0000
0000
0000
0000
1003
0000
0000
0000
,
0001
0000
0000
1000
0000
0000
0000
0000
1000
0000
0000
0010
0000
0000
0000
0000
,
0100
0000
0000
0001
0000
0000
0000
0000
0002
0000
0000
0000
0023
0000
0000
0000
,
M031
1000
0001
0000
0100
0000
0100
0000
,
0010
0000
1000
0000
0000
1000
0100
0010
,
0001
1000
0001
0000
0100
0000
0100
0000
,
0020
1030
0000
0MM0
,
1001
0000
0000
0001
0000
0000
0010
0000
0000
0000
0100
0000
1000
0000
0100
0000
,
1000
0000
0000
0001
0000
0000
0100
0000
0000
0000
0010
0000
1000
0000
0001
0000
,
1000
0000
0000
0001
0000
0000
0010
0000
0000
0000
0100
0000
0010
0000
0001
0000
,
0010
0000
0000
0001
0000
0000
1000
0000
0000
0000
0020
0000
0000
0000
0130
0000
,
0001
0000
0000
1000
0000
0000
0100
0000
0000
0000
0010
0000
0001
0000
0010
0000
,
0001
0000
0000
1000
0000
0000
0010
0000
0000
0000
0100
0000
0001
0000
1000
0000
,
0001
0000
0000
1000
0000
0000
0100
0000
0000
0000
0010
0000
0001
0000
0010
0000
,
0001
0000
0000
1000
0000
0000
0010
0000
0100
0000
0000
0000
0001
0000
0000
0000
,
1000
000M
00M0
0000
000M
0000
000M
0000
M000
0000
0M00
0000
0000
0M00
00M0
000M
,
M000
000M
M000
0000
00M0
0000
00M0
0000
0M00
0000
0000
0000
0000
0000
0000
0000
,
0002
0000
0003
2000
0000
0000
3000
0000
,
0000
0010
1000
0001
0200
0000
0000
0300
,
0020
0000
0030
2000
0000
0000
3000
0000
,
0000
0001
0010
0100
2000
0000
0000
3000
,
0002
0000
0003
2000
0000
0000
3000
0000
,
0000
0100
1000
0001
0200
0000
0000
0300
,
0020
0000
0030
2000
0000
0000
3000
0000
,
0000
0000
0000
0002
0000
0000
1003
0000
,
0010
0100
0001
0001
,
1000
1000
0100
0010
,
0001
1000
0010
0010
,
0100
0001
0010
0100
,
1000
1000
0001
0001
,
0100
0100
0010
0010
,
1000
0001
1000
0100
0010
0001
1000
0001
,
0400
0000
0000
0000
0300
0000
0000
0000
00M0
0000
0000
00M0
0000
0000
0000
0000
,
1001
0000
1000
0100
0000
0000
0010
0000
,
0001
0000
0001
1000
0000
0000
0000
1000
,
0010
0000
0100
0001
0000
0000
1000
0000
,
0001
0000
0001
0010
0000
0000
0000
0100
,
1000
0000
0000
0010
0000
0000
0100
0000
,
0001
0000
0001
0010
0000
0000
0000
0100
,
1000
0000
0000
0001
0000
0000
0100
0000
,
0010
0000
0010
1000
0000
0000
0010
0000
,
1000
0001
0010
0000
0100
0000
0100
0000
,
1000
0000
1000
0001
0100
0000
0010
0000
,
1000
0001
1000
0000
0001
0000
0001
0000
,
1000
0100
0001
0100
,
1000
0001
1000
0000
0010
0000
0010
0000
,
0100
0000
0100
0001
1000
0000
0001
0000
,
0010
0001
0010
0000
0100
0000
0100
0000
,
1000
0010
0001
0000
,
0110
0000
0000
0000
;

//---------------dance-single - sangyule----------------
#NOTEDATA:;
#CHARTNAME:;
#STEPSTYPE:dance-single;
#DESCRIPTION:sangyule;
#CHARTSTYLE:;
#DIFFICULTY:Beginner;
#METER:1;
#RADARVALUES:0.064667,0.120240,0.000000,0.000000,0.000000,64.000000,64.000000,0.000000,0.000000,0.000000,0.000000,0.000000,0.000000,0.000000,0.064667,0.120240,0.000000,0.000000,0.000000,64.000000,64.000000,0.000000,0.000000,0.000000,0.000000,0.000000,0.000000,0.000000;
#CREDIT:sangyule;
#DISPLAYBPM:64.000000:128.000000;
#NOTES:
0000
0000
0000
0000
,
0000
0000
0000
0000
,
0000
0000
0000
0000
,
0000
0000
0000
0000
,
0000
0000
0000
0000
,
0000
0000
0000
0000
,
0000
0000
0000
0000
,
0000
0000
0000
0000
,
0001
0000
0000
0000
,
1000
0000
0000
0000
,
0010
0000
0000
0000
,
0100
0000
0000
0000
,
0001
0000
0000
0000
,
1000
0000
0000
0000
,
0100
0000
0000
0000
,
0010
0000
0000
0000
,
0001
0000
0000
0000
,
1000
0000
0000
0000
,
0010
0000
0000
0000
,
0100
0000
0000
0000
,
0001
0000
0001
0000
,
1000
0000
1000
0000
,
0100
0000
0000
0000
,
0010
0000
0000
0000
,
0001
0000
0000
0000
,
1000
0000
0000
0000
,
0001
0000
0000
0000
,
1000
0000
0000
0000
,
0010
0000
0000
0000
,
0100
0000
0000
0000
,
0001
0000
0000
0000
,
1000
0000
0000
0000
,
0100
0000
0000
0000
,
0010
0000
0000
0000
,
0001
0000
0000
0000
,
0000
0000
0000
0000
,
1000
0000
0000
0000
,
0000
0000
1000
0000
,
0010
0000
0000
0000
,
0000
0000
0010
0000
,
0100
0000
0000
0000
,
0000
0000
0100
0000
,
0001
0000
0000
0000
,
0000
0000
0001
0000
,
1000
0000
0000
0000
,
0100
0000
0000
0000
,
0010
0000
0000
0000
,
0001
0000
0000
0000
,
0000
0000
1000
0000
,
0000
0000
0010
0000
,
0100
0000
0100
0000
,
0001
0000
0000
0000
,
1000
0000
0000
0000
,
0001
0000
0000
0000
,
0010
0000
0000
0000
,
0100
0000
0000
0000
,
1000
0000
0000
0000
,
0001
0000
0000
0000
,
0100
0000
0000
0000
,
0010
0000
0010
0000
,
1000
0000
0000
0000
,
0001
0000
0000
0000
,
0010
0000
0000
0000
,
0100
0000
0000
0000
,
1000
0000
0000
0000
,
0001
0000
0000
0000
,
1000
0000
0000
0000
,
0010
0000
0000
0000
,
0100
0000
0000
0000
;

//---------------dance-single - sangyule----------------
#NOTEDATA:;
#CHARTNAME:;
#STEPSTYPE:dance-single;
#DESCRIPTION:sangyule;
#CHARTSTYLE:;
#DIFFICULTY:Easy;
#METER:3;
#RADARVALUES:0.150552,0.216432,0.007073,0.021219,0.000000,149.000000,148.000000,1.000000,3.000000,0.000000,0.000000,0.000000,0.000000,0.000000,0.150552,0.216432,0.007073,0.021219,0.000000,149.000000,148.000000,1.000000,3.000000,0.000000,0.000000,0.000000,0.000000,0.000000;
#CREDIT:sangyule;
#DISPLAYBPM:64.000000:128.000000;
#NOTES:
// measure 0
0000
0000
0000
0000
,  // measure 1
0000
0000
0000
0000
,  // measure 2
0000
0000
0000
0000
,  // measure 3
0000
0000
0000
0000
,  // measure 4
0000
0000
0000
0000
,  // measure 5
0000
0000
0000
0000
,  // measure 6
0000
0000
0000
0000
,  // measure 7
0000
0000
0000
0000
,  // measure 8
1000
0000
1000
0000
,  // measure 9
0001
0000
0001
0000
,  // measure 10
0100
0000
0100
0000
,  // measure 11
0010
0000
0000
0010
,  // measure 12
0000
1001
0000
1000
,  // measure 13
0000
1000
0000
0010
,  // measure 14
0000
0100
0000
0001
,  // measure 15
0000
0001
0010
0010
,  // measure 16
0000
0100
0000
1000
,  // measure 17
0000
1000
0000
0001
,  // measure 18
0000
0100
0000
0010
,  // measure 19
0000
0010
2000
0000
,  // measure 20
3001
0000
0010
0000
,  // measure 21
0100
0000
1000
0000
,  // measure 22
0001
0000
0100
0000
,  // measure 23
0010
0000
1000
0000
,  // measure 24
0001
0000
1000
0000
,  // measure 25
0100
0010
0000
0000
,  // measure 26
0001
0000
1000
0010
,  // measure 27
1000
0000
0001
0000
,  // measure 28
0010
0000
0100
1000
,  // measure 29
0100
0000
1000
0001
,  // measure 30
0100
0000
0010
1000
,  // measure 31
0010
0000
0100
0001
,  // measure 32
1000
0000
0001
0010
,  // measure 33
0100
0000
2000
0000
,  // measure 34
3001
0000
0100
0000
,  // measure 35
0010
0000
1000
0000
,  // measure 36
0001
0000
0000
0001
0000
0000
0000
0000
,  // measure 37
0000
0000
0010
0000
,  // measure 38
0100
0000
0000
0100
0000
0000
0000
0000
,  // measure 39
0000
0000
1000
0000
,  // measure 40
0001
0000
0000
0001
0000
0000
0000
0000
,  // measure 41
0000
0000
0100
0000
,  // measure 42
0010
0000
0000
0010
0000
0000
0000
0000
,  // measure 43
0000
0000
1000
0001
,  // measure 44
1000
0100
1000
0000
,  // measure 45
0010
0000
0100
0000
,  // measure 46
0001
1000
0001
0000
,  // measure 47
0010
0000
0100
0000
,  // measure 48
1000
1000
0001
0001
,  // measure 49
0100
0100
0010
0010
,  // measure 50
1000
0001
1000
0001
,  // measure 51
0010
0000
0000
0000
,  // measure 52
0100
1000
0100
0000
,  // measure 53
1000
0001
0100
0000
,  // measure 54
0010
1000
0001
0000
,  // measure 55
1000
0100
0010
0000
,  // measure 56
0001
1000
0010
0000
,  // measure 57
0100
0001
1000
0000
,  // measure 58
0100
1000
0001
0000
,  // measure 59
0010
0100
0020
0000
,  // measure 60
0031
0000
1000
1000
,  // measure 61
0100
0010
0000
0000
,  // measure 62
0001
0000
1000
1000
,  // measure 63
0010
0010
0100
0100
,  // measure 64
0001
0000
1000
1000
,  // measure 65
0100
0010
0000
0000
,  // measure 66
0001
0001
1000
1000
,  // measure 67
0010
0010
0100
0000
,  // measure 68
0001
0000
0000
0000
;
