#VERSION:0.83;
#TITLE:Evil Inside;
#SUBTITLE:(VIP);
#ARTIST:Dirtyphonics & Bossfight;
#TITLETRANSLIT:;
#SUBTITLETRANSLIT:;
#ARTISTTRANSLIT:;
#GENRE:;
#ORIGIN:;
#CREDIT:;
#BANNER:evil inside vip bn.png;
#BACKGROUND:evil inside vip.png;
#PREVIEWVID:;
#JACKET:evil inside vip jacket.png;
#CDIMAGE:;
#DISCIMAGE:;
#LYRICSPATH:;
#CDTITLE:;
#MUSIC:Evil Inside (VIP).ogg;
#OFFSET:-0.015000;
#SAMPLESTART:36.814999;
#SAMPLELENGTH:18.000000;
#SELECTABLE:YES;
#BPMS:0.000=150.000;
#STOPS:;
#DELAYS:;
#WARPS:;
#TIMESIGNATURES:0.000=4=4;
#TICKCOUNTS:0.000=4;
#COMBOS:0.000=1;
#SPEEDS:0.000=1.000=0.000=0;
#SCROLLS:0.000=1.000;
#FAKES:;
#LABELS:0.000=Song Start;
#BGCHANGES:;
#KEYSOUNDS:;
#ATTACKS:
;

//---------------dance-single - ----------------
#NOTEDATA:;
#CHARTNAME:;
#STEPSTYPE:dance-single;
#DESCRIPTION:;
#CHARTSTYLE:;
#DIFFICULTY:Challenge;
#METER:11;
#RADARVALUES:0.772560,1.035115,0.552809,0.184270,0.917343,675.000000,604.000000,69.000000,23.000000,2.000000,2.000000,7.000000,0.000000,0.000000,0.772560,1.035115,0.552809,0.184270,0.917343,675.000000,604.000000,69.000000,23.000000,2.000000,2.000000,7.000000,0.000000,0.000000;
#CREDIT:CopperPuppy;
#NOTES:
// measure 0
0000
0000
0000
0000
,  // measure 1
0000
0000
0000
0000
,  // measure 2
0000
0000
0000
0000
,  // measure 3
0000
0000
0000
0000
,  // measure 4
0000
0000
0000
0000
,  // measure 5
0000
0000
0000
0000
,  // measure 6
0000
0000
0000
0000
,  // measure 7
1000
0001
0100
0010
0100
0001
1000
0100
0010
0001
1000
0010
1000
0001
0010
0100
,  // measure 8
2000
0000
3001
0100
0010
1000
0100
0010
,  // measure 9
0001
1000
0001
0100
0001
1000
0001
0010
,  // measure 10
1002
0000
1003
0010
0100
0001
0010
0100
,  // measure 11
1000
0000
0001
0000
1000
0000
0010
0000
0000
0000
0000
0000
0100
0000
0000
0000
0000
0000
0001
0000
0000
0000
0000
0000
2000
0000
0000
0000
0000
0000
0000
0000
0000
0000
0000
0000
3002
0000
0000
0000
0000
0000
0000
0000
0000
0003
0000
0000
,  // measure 12
0012
0000
1003
0010
0100
0001
0010
0100
,  // measure 13
1000
0001
0100
0000
0010
1000
0001
0000
1000
0100
0010
0000
0001
0100
0010
0000
,  // measure 14
2010
0000
3000
1000
0100
0110
0011
0001
,  // measure 15
4000
0000
0000
0000
,  // measure 16
3001
0000
0000
0100
0010
0000
0100
0000
0001
0000
0000
1000
0100
0000
0010
0000
,  // measure 17
0100
0000
0000
1000
0001
0000
0100
0000
0010
0000
0000
1000
0001
0000
0010
0000
,  // measure 18
0110
0000
0000
0100
1000
0000
0001
0000
0100
0000
0000
0010
1000
0000
0001
0000
,  // measure 19
0010
0000
0000
0100
1000
0000
0001
0000
0100
0010
0100
0001
1000
0100
0010
0001
,  // measure 20
1000
0010
0000
0100
0001
0000
1000
0000
0100
0010
0000
0100
1000
0000
0001
0000
,  // measure 21
0100
0010
0000
1000
0001
0000
0010
0000
0001
1000
0000
0010
0100
0000
0001
0000
,  // measure 22
1000
0001
0010
0100
1000
0001
0100
0010
0100
0001
1000
0100
0010
0001
1000
0010
,  // measure 23
0100
0000
0001
0000
0000
1000
0000
0000
0000
0040
0000
0000
2030
0000
0000
3000
,  // measure 24
1011
0000
0000
0000
2000
0000
0100
0000
3001
0000
0000
0020
0000
0000
0001
0000
,  // measure 25
0130
0000
0000
2000
0000
0000
0100
0000
3001
0000
0000
0200
0000
0000
0010
0000
,  // measure 26
0301
1000
0010
1000
0001
1000
0100
1000
0001
0010
0100
0010
0001
0010
0100
0010
,  // measure 27
0001
1000
0010
1000
0001
1000
0100
1000
0001
0000
1000
0000
0010
0000
0000
0000
,  // measure 28
1101
0000
0000
0000
0001
0000
0010
0000
0001
0100
0100
0100
0001
1000
0010
0000
,  // measure 29
1000
0100
0100
0100
1000
0001
0010
0000
0001
0100
0100
0100
0001
2000
0000
3000
,  // measure 30
1010
0000
0000
0000
0000
0000
1000
0000
0000
0000
0000
0000
0100
0000
0000
0000
0000
0000
1000
0000
0000
0000
0000
0000
1100
0000
0000
0000
0000
0000
0000
0000
0000
0100
0000
0000
0000
0000
0M00
0001
0000
0000
0100
0000
0000
0000
0000
0000
,  // measure 31
1010
0000
0000
0000
0000
0000
0000
0000
0000
0010
0000
0000
0000
0000
00M0
0001
0000
0000
0010
0000
0000
0000
0000
0000
0011
0000
0000
0000
0000
0000
0001
0000
0000
0000
0000
0000
0100
0000
0000
0010
0000
0000
1000
0000
0000
0000
0000
0000
,  // measure 32
1002
0000
0003
0000
1000
0100
1000
0001
1010
0001
0100
0001
1000
0100
1000
0001
,  // measure 33
0010
0001
1000
0010
1000
0001
0100
0001
2010
0000
0000
0000
3001
0000
0001
0000
,  // measure 34
0100
0000
0002
0000
0000
0000
1003
0010
1100
0000
0001
0000
1000
0000
0001
0000
,  // measure 35
0014
0000
0000
0000
0000
0000
0000
0000
0000
1003
0000
0000
0040
0000
0000
0000
0000
0000
0000
0000
0000
0000
0030
0000
,  // measure 36
1010
0000
0000
0000
0000
0000
0010
0000
0000
1000
0000
0000
0101
0000
0010
0000
0010
0000
1000
0000
0010
0000
0010
0000
,  // measure 37
0001
0000
0000
0000
0100
0000
0000
0000
0100
0000
0000
0000
1000
0000
0000
0000
0100
0000
0000
0000
0100
0000
0000
0000
0011
0000
0000
0000
0000
0000
1000
0000
0000
0001
0000
0000
0100
0000
0000
0000
0000
0000
0001
0000
0000
0000
0000
0000
,  // measure 38
1010
0000
0100
0000
0100
0000
0001
0000
0100
0000
0100
0000
1010
0000
0000
0001
0000
0000
0100
0000
0000
0010
0000
0000
,  // measure 39
2000
0000
3001
0010
0102
0000
1003
0001
,  // measure 40
1100
0010
0010
0001
0010
0010
1100
0000
0000
0001
0100
0100
,  // measure 41
1000
0000
0100
0000
0100
0000
0001
0000
0100
0000
0100
0000
1010
0000
0000
0000
0000
0000
0001
1000
0100
1000
0001
0100
,  // measure 42
0020
0000
1030
0000
0001
0000
0100
0010
1000
0001
0010
0000
0001
0000
1000
0100
,  // measure 43
0010
0100
1000
0001
0100
0000
0010
0000
0100
0000
0010
0000
1000
0001
0010
0000
,  // measure 44
0011
0000
1000
0000
,  // measure 45
0001
0000
0100
0040
,  // measure 46
1030
0000
0001
0000
,  // measure 47
1000
0000
0100
0040
,  // measure 48
0031
1000
0100
0010
0100
1000
0001
0100
,  // measure 49
0010
1000
0001
0010
0001
1000
0010
0100
,  // measure 50
0001
1000
0100
1000
0001
0100
0010
0100
,  // measure 51
0001
1000
0100
0010
0001
1000
0010
1000
0100
0010
0001
1000
,  // measure 52
0010
0100
0001
0000
0000
0000
0001
1000
0001
0000
0000
0000
,  // measure 53
0010
0000
0000
0000
0100
0000
0000
0000
1000
0000
0000
0000
0001
0000
0000
0000
0000
0000
0000
0000
0100
0000
0000
0000
0020
0000
0000
0000
0000
0000
2030
0000
0000
0000
0000
0000
3001
0000
0000
0010
0000
0000
0000
0000
0001
0000
0000
0000
,  // measure 54
1100
0011
1000
0000
0000
0000
0101
1010
0001
0000
0000
0000
,  // measure 55
1100
0011
1000
0000
0001
0010
0101
1010
0001
0000
0000
0000
,  // measure 56
1100
0000
0011
0000
1000
0000
0000
0000
0000
0000
0000
0001
1010
0000
0101
0000
1000
0000
0000
0000
0000
0001
1000
0001
,  // measure 57
1100
0011
0000
1000
0000
0001
1010
0100
0000
1000
0002
0000
,  // measure 58
2003
0000
0010
0000
,  // measure 59
3001
0000
0100
0010
1000
0000
0001
0000
0000
0010
0000
0000
,  // measure 60
1002
0000
0000
1003
0000
0000
0101
1010
0001
1000
0000
0000
,  // measure 61
0011
1100
0001
1000
0000
0000
0101
1010
0001
1000
0000
0000
,  // measure 62
0011
1100
0010
1000
0000
0000
0101
1010
0100
1000
0000
0000
,  // measure 63
0011
0000
0000
0000
1100
0000
0000
0000
0001
0000
0000
0000
1000
0000
0000
0000
0100
0000
0000
0000
1000
0000
0000
0000
0011
0000
0000
0000
1100
0000
0000
0000
0001
0000
0000
0000
0010
0000
0000
0001
0000
0000
1000
0000
0000
0100
0000
0000
,  // measure 64
1010
0101
0010
0001
0100
0000
0011
1100
0010
1000
0100
0000
,  // measure 65
1010
0101
0010
0001
0100
0010
1100
0011
0100
0001
0010
0101
,  // measure 66
1010
0001
1000
0010
1000
0101
1010
0001
1000
0010
0100
0001
,  // measure 67
1000
0100
0010
0000
0010
0001
0000
0001
0100
0000
0100
0010
0000
1000
0001
0010
,  // measure 68
0100
0000
1000
0001
0000
1000
0001
0000
0100
0000
0010
1000
0000
0010
1000
0000
,  // measure 69
0001
0000
0010
0100
1000
0001
0100
0000
0001
0000
1000
0100
0000
1000
0100
1000
,  // measure 70
0001
0000
0100
0010
0000
0100
0010
0000
1000
0000
0001
0010
0000
0001
0010
0000
,  // measure 71
0100
0000
1000
0001
1000
0010
0100
0000
0001
0000
1000
0100
0000
1000
0100
0000
,  // measure 72
0010
0001
1000
0010
0100
0001
1000
0100
,  // measure 73
0010
0100
1000
0001
0100
0001
1000
0010
,  // measure 74
0100
0001
1000
0001
0010
0100
0010
0001
1000
0010
0100
0001
1000
0100
0010
0001
,  // measure 75
4000
0000
0000
0000
,  // measure 76
3001
0000
0000
0000
;

//---------------dance-single - ----------------
#NOTEDATA:;
#CHARTNAME:;
#STEPSTYPE:dance-single;
#DESCRIPTION:;
#CHARTSTYLE:;
#DIFFICULTY:Hard;
#METER:9;
#RADARVALUES:0.540219,0.730670,0.144211,0.280411,0.512751,472.000000,454.000000,18.000000,35.000000,0.000000,0.000000,5.000000,0.000000,0.000000,0.540219,0.730670,0.144211,0.280411,0.512751,472.000000,454.000000,18.000000,35.000000,0.000000,0.000000,5.000000,0.000000,0.000000;
#CREDIT:CopperPuppy;
#NOTES:
0000
0000
0000
0000
,
0000
0000
0000
0000
,
0000
0000
0000
0000
,
0000
0000
0000
0000
,
0000
0000
0000
0000
,
0000
0000
0000
0000
,
0000
0000
0000
0000
,
0004
0000
0000
0000
,
2003
0000
3001
0100
0010
1000
0100
0010
,
0000
0001
0000
1000
0000
0010
0000
0100
,
0202
0303
0000
0001
1000
0001
0010
0100
,
1000
0001
0100
0000
0010
0000
1000
0000
0002
0000
0000
0000
2003
0000
0000
3000
,
2002
3003
0000
1000
0100
0010
0001
1000
,
0000
0010
0000
1000
0000
0001
0000
0010
,
0220
0330
0000
0010
0001
1000
0010
0100
,
0004
0000
0000
0000
,
1003
0000
0000
0100
0000
0000
0010
0000
0001
0000
0000
1000
0000
0000
0010
0000
,
0100
0000
0000
0001
0000
0000
1000
0000
0100
0000
0000
0010
0000
0000
0100
0000
,
1100
0000
0000
0100
0000
0000
1000
0000
0001
0000
0000
0100
0000
0000
0010
0000
,
0100
0000
0000
0001
0000
0000
1000
0000
0100
0010
0100
0000
1000
0000
0001
0000
,
0100
0000
0000
0010
0000
0000
1000
0000
0100
0000
0000
0010
0000
0000
0001
0000
,
1000
0000
0000
0010
0000
0000
1000
0000
0001
0000
0000
0010
0000
0000
0001
0000
,
1000
0100
1000
0000
0001
0000
0100
0000
0010
1000
0010
0000
1000
0000
0001
0000
,
0010
0000
0100
0000
0000
1000
0000
0000
0002
0000
0000
0000
0203
0000
0000
0300
,
0101
0000
0000
0000
1000
0000
1000
0000
0001
0000
0000
0010
0000
0000
0100
0000
,
1000
0000
0000
0001
0000
0000
0100
0000
0010
0000
0000
0100
0000
0000
0001
0000
,
1000
0010
1000
0000
0001
0010
0001
0000
1000
0100
1000
0000
0001
0100
0001
0000
,
1000
0010
1000
0000
0001
0010
0001
0000
1000
0000
0001
0000
0100
0000
0000
0000
,
0101
0000
0000
0000
0001
0000
0010
0000
0001
1000
0010
0000
1000
0000
0001
0000
,
0010
0001
1000
0000
0010
0000
0100
0000
0010
1000
0001
0000
0020
0000
0000
0030
,
0011
0000
0001
0000
0100
0000
0010
0000
1010
0000
0000
1000
0000
0000
0001
0000
,
0011
0000
0000
0001
0000
0000
0100
0000
0101
0000
0001
0000
1000
0100
0010
0000
,
0220
0000
0330
0000
0010
0000
0001
0000
1000
0010
1000
0000
0001
0000
0010
0000
,
0001
0100
0001
0000
1000
0000
0010
0000
2010
0000
0000
0000
3001
0000
0001
0000
,
0010
0200
0000
0310
0001
1000
0010
0100
,
0102
0000
0000
0000
0000
0000
1003
0000
0200
0000
0000
0000
0000
0000
0000
0300
,
0110
0000
0000
0000
0000
0000
0010
0000
0000
0001
0000
0000
2000
0000
0000
0000
3010
0000
1000
0000
0001
0000
0010
0000
,
0001
0000
1000
0000
0010
0000
0100
0000
0001
0000
1000
0000
1001
0000
0000
0001
0000
0000
0010
0000
0000
0100
0000
0000
,
2000
0000
0000
0000
3010
0000
1000
0000
0001
0000
0010
0000
0001
0000
0000
1000
0000
0000
0010
0000
0000
0100
0000
0000
,
0002
0000
1003
0100
0220
0330
0010
0001
,
2000
0000
3010
0100
0001
1000
0100
0000
0000
1000
0001
0100
,
0010
1000
0001
0010
0100
0010
0001
0000
0000
4000
0000
0000
,
3020
0000
0030
0100
0010
1000
0001
1000
,
0000
0100
0010
0000
0001
0000
1000
0000
0010
0000
0100
0000
0001
0000
1000
0000
,
1001
0000
1000
0000
,
0001
0000
0100
0020
,
1030
0000
0001
0000
,
1000
0000
0100
0020
,
0031
1000
0010
0100
0001
1000
0100
1000
,
0001
0100
0010
0100
0001
1000
0100
0010
,
0001
1000
0010
1000
0001
0010
0100
1000
,
0001
0100
0001
0100
0010
1000
0001
0010
0100
1000
0010
0100
,
0001
0000
1000
0000
0002
0000
0000
0000
0000
0003
0000
0000
0100
0000
0010
0000
2000
0000
0000
0000
0000
3000
0000
0000
,
1000
0000
0001
0000
0010
0000
0200
0000
0000
0000
0000
0000
0310
0000
0000
0001
0000
0000
1000
0000
0010
0000
0100
0000
,
0010
1000
0001
0000
0000
0000
0010
0100
1000
0000
0000
0000
,
0001
0100
0010
0000
1000
0001
0010
0100
1000
0000
0000
0000
,
0001
0000
0100
0000
0001
0000
0000
0000
0000
0000
0000
0000
1000
0000
0100
0000
0010
0000
0000
0000
0000
0004
0000
0000
,
0103
0010
0000
1000
0000
0001
0010
0001
0000
2000
0000
0000
,
3002
0000
0010
0000
,
1003
1000
0010
0100
,
0102
0000
0000
1003
0000
0000
0001
0100
0010
1000
0000
0000
,
0001
0010
0100
1000
0000
0000
0001
0100
0001
1000
0000
0000
,
0010
1000
0001
0010
0000
0000
0100
1000
0001
0100
0000
0000
,
0001
0100
0010
1000
0001
0010
0100
1000
0001
0200
0000
0000
,
0301
1000
0010
0100
0001
0000
1000
0100
1000
0001
0100
0000
,
0010
1000
0001
0010
0100
0000
1000
0010
1000
0001
0010
0001
,
0001
1000
0010
0100
0001
1000
1000
0001
1000
0010
0100
0001
,
1000
0000
0100
0000
0010
0001
0000
1000
0010
0000
0100
0001
0000
1000
0100
1000
,
0001
0100
0010
0000
,
0000
0000
1000
0000
0001
0000
0010
0001
,
0001
1000
0010
0000
,
0100
0001
1000
0000
0100
0000
0020
0000
,
0031
1000
0010
0100
,
0001
1000
0100
0010
,
0001
1000
0010
0100
0010
1000
0001
0010
,
0004
0000
0000
0000
,
1003
0000
0000
0000
;

//---------------dance-single - ----------------
#NOTEDATA:;
#CHARTNAME:;
#STEPSTYPE:dance-single;
#DESCRIPTION:;
#CHARTSTYLE:;
#DIFFICULTY:Medium;
#METER:7;
#RADARVALUES:0.371973,0.487113,0.032047,0.288422,0.144211,325.000000,321.000000,4.000000,36.000000,0.000000,0.000000,0.000000,0.000000,0.000000,0.371973,0.487113,0.032047,0.288422,0.144211,325.000000,321.000000,4.000000,36.000000,0.000000,0.000000,0.000000,0.000000,0.000000;
#CREDIT:CopperPuppy;
#NOTES:
0000
0000
0000
0000
,
0000
0000
0000
0000
,
0000
0000
0000
0000
,
0000
0000
0000
0000
,
0000
0000
0000
0000
,
0000
0000
0000
0000
,
0000
0000
0000
0000
,
0000
0000
0000
0000
,
2000
3000
0000
0001
0200
0000
0310
1000
,
0000
0001
0000
0010
0000
0100
0000
1000
,
0002
0003
0000
0100
0020
0000
1030
0001
,
0020
0000
0031
1000
0010
0000
0100
0000
,
0002
0003
0000
1000
0200
0000
0310
0001
,
0000
1000
0000
0010
0000
0100
0000
0001
,
2000
3000
0000
0000
0000
0001
0001
0000
,
2000
0000
0000
0000
,
3100
0010
0001
1000
,
0010
0100
0010
1000
,
0001
0010
0100
0010
,
0001
0000
1000
0000
0010
1000
0001
0010
,
0001
1000
0010
0100
,
0001
1000
0100
0010
,
0001
1000
0001
0100
0010
1000
0001
0010
,
0001
0000
1000
0000
0000
0000
0000
0000
0020
0000
0000
0000
0230
0000
0000
0300
,
0101
0000
0001
0001
1000
0000
0000
1000
,
0001
0000
0000
0010
0100
0000
0000
1000
,
0100
0010
0100
0000
1000
0001
1000
0000
,
0010
0100
0010
0000
0100
0001
1000
0000
,
1001
0000
0000
0000
0001
0001
0001
1000
,
0100
0100
0100
0010
0001
0001
2000
0000
,
3010
0000
0100
0000
0001
0000
1000
0000
0001
0000
0000
0010
0000
0000
0100
0000
,
1000
0000
0000
0001
0000
0000
0100
0000
0010
0000
1000
0000
0001
0000
0010
0000
,
0002
0003
0000
0000
1000
0010
1000
0000
,
0001
0010
0001
1000
0020
0000
1030
1000
,
0010
0200
0000
0301
0010
0100
1000
0001
,
0200
0000
0000
0301
0020
0000
0000
0000
,
0031
0000
0000
0000
0000
0000
0000
0000
0000
0000
0000
0000
1000
0000
0000
0000
0000
0000
0010
0000
0000
0000
0000
0000
0200
0000
0000
0000
0000
0000
0000
0000
0010
0300
0000
0000
0000
0000
0000
0000
1000
0000
0000
0000
0000
0000
0000
0000
,
0001
0000
0000
0000
0010
0000
0000
0000
0100
0000
0000
0000
1000
0000
0000
0001
0000
0000
0100
0000
0000
0010
0000
0000
,
0100
0000
0000
0000
0001
0000
0000
0000
1000
0000
0000
0000
0100
0000
0000
0010
0000
0000
0001
0000
0000
1000
0000
0000
,
0002
0000
1003
0010
0200
0300
0001
1000
,
0200
0000
0310
0000
0001
0000
1000
0000
0000
0010
0000
0100
,
0000
0010
0000
1000
0000
0001
1000
0000
0000
0002
0000
0000
,
0203
0000
0300
0010
1000
0100
0010
0001
,
0000
0100
0000
0010
0000
0100
0000
0001
,
1000
0000
0001
0000
,
1000
0000
0100
0020
,
0031
0000
1000
0000
,
0001
0000
0100
0020
,
1030
0001
0100
0010
,
1000
0001
0010
0100
,
1000
0001
0100
0001
,
1000
0000
0100
0000
0010
0000
0001
0000
0100
0000
0010
0000
,
1000
0000
0002
0000
0000
0000
0000
0000
0000
0003
0000
0000
0100
0000
0020
0000
0000
0000
0000
0000
0000
0030
0000
0000
,
1000
0000
0001
0000
0020
0000
0000
0000
0000
0000
0000
0000
0031
0000
0000
2000
0000
0000
0000
0000
0000
0000
0000
0000
,
3001
0000
0100
0000
0000
0000
0010
0000
1000
0000
0000
0000
,
0001
0000
0010
0000
0001
0000
0100
0000
0010
0000
0000
0000
,
1000
0000
0000
0000
0001
0000
0000
0000
0000
0000
0000
0000
0010
0000
0000
0000
0100
0000
0000
0000
0000
2000
0000
0000
,
3010
0000
0100
0000
0001
1000
0200
0000
,
0320
0000
0001
0000
,
0130
1000
0010
0100
,
0002
0000
0000
1003
0000
0000
0100
0000
0010
0001
0000
0000
,
1000
0000
0010
0100
0000
0000
0001
0000
1000
0100
0000
0000
,
0010
0000
0001
1000
0000
0000
0010
0000
0100
0001
0000
0000
,
1000
0100
0010
0002
,
1003
0000
0010
0100
0000
0000
0010
0000
1000
0001
0000
0000
,
0010
0000
0100
1000
0000
0000
0001
0000
0000
0100
0000
0000
,
0110
1000
1001
0001
,
0010
0100
0010
0000
0001
0000
1000
0000
,
0010
0100
0010
0000
,
0000
0000
1000
0000
0001
0000
0010
0001
,
0001
1000
0010
0000
,
0100
0001
1000
0000
0100
0000
0020
0000
,
0031
1000
0010
0100
,
0001
1000
0100
0010
,
0001
1000
0010
0100
0010
1000
0001
0010
,
0002
0000
0000
0000
,
1003
0000
0000
0000
;

//---------------dance-single - ----------------
#NOTEDATA:;
#CHARTNAME:;
#STEPSTYPE:dance-single;
#DESCRIPTION:;
#CHARTSTYLE:;
#DIFFICULTY:Easy;
#METER:4;
#RADARVALUES:0.239207,0.304446,0.016023,0.120176,0.000000,209.000000,207.000000,2.000000,15.000000,0.000000,0.000000,0.000000,0.000000,0.000000,0.239207,0.304446,0.016023,0.120176,0.000000,209.000000,207.000000,2.000000,15.000000,0.000000,0.000000,0.000000,0.000000,0.000000;
#CREDIT:CopperPuppy;
#NOTES:
0000
0000
0000
0000
,
0000
0000
0000
0000
,
0000
0000
0000
0000
,
0000
0000
0000
0000
,
0000
0000
0000
0000
,
0000
0000
0000
0000
,
0000
0000
0000
0000
,
0000
0000
0000
0000
,
2000
3001
1000
0100
,
0010
0001
1000
0010
,
0200
0301
1000
0010
,
1000
0001
0001
1000
,
0200
0310
0001
0010
,
0001
1000
0010
0100
,
0002
0003
0000
1000
,
0020
0000
0000
0000
,
0130
0000
0001
0000
,
1000
0000
0100
0000
,
0010
0000
0001
0000
,
1000
0000
0010
0100
,
0001
1000
0100
0010
,
0100
1000
0001
0100
,
0102
0000
0000
0000
,
1003
0000
0000
0002
,
0013
0001
1000
0000
,
0010
0000
0100
0000
,
0001
0100
0001
1000
,
0100
0010
0001
1000
,
1001
0000
0001
0010
,
0100
0010
0001
2000
,
3010
0100
0001
1000
,
0100
0010
0100
1000
,
0001
0000
0100
0010
,
1000
0001
0020
0031
,
2000
0000
3010
1000
,
0002
0000
0000
0003
0200
0000
0000
0000
,
0310
1000
0001
0010
,
0100
0000
1000
0010
,
0100
0000
0001
1000
,
0100
0000
1000
0001
,
0100
0010
1000
0000
,
0001
0010
0001
1000
,
0010
0000
1000
0001
,
0100
0000
0001
1000
,
0100
0000
1000
0000
,
0001
0000
0100
0010
,
1000
0000
0001
0000
,
1000
0000
0100
0010
,
0001
0001
1000
1000
,
0010
0010
0100
0100
,
0001
0001
1000
1000
,
0100
0010
0001
1000
,
0010
0000
0100
0000
,
0001
1000
0100
0000
,
1000
0000
0010
0000
,
0100
0001
1000
0000
,
0100
0000
0010
0000
,
0001
0100
0001
0000
,
2000
0000
0001
0000
,
3001
1000
0100
0010
,
0001
0000
1000
0010
,
1000
0001
0010
0100
,
1000
0001
0100
0010
,
1000
0001
0010
0000
,
0001
1000
0010
0100
,
0001
1000
0100
0010
,
0100
0000
1000
0000
,
0001
0100
0010
1000
,
0001
0000
1000
0000
,
0100
0000
0010
0000
,
0001
0000
1000
0000
,
0010
0000
0100
0000
,
0010
1000
0001
0010
,
0100
1000
0001
0100
,
0020
0000
0000
0000
,
2030
0000
0000
0000
,
3001
0000
0000
0000
;

//---------------dance-single - ----------------
#NOTEDATA:;
#CHARTNAME:;
#STEPSTYPE:dance-single;
#DESCRIPTION:;
#CHARTSTYLE:;
#DIFFICULTY:Beginner;
#METER:1;
#RADARVALUES:0.078973,0.091334,0.000000,0.000000,0.000000,69.000000,69.000000,0.000000,0.000000,0.000000,0.000000,0.000000,0.000000,0.000000,0.078973,0.091334,0.000000,0.000000,0.000000,69.000000,69.000000,0.000000,0.000000,0.000000,0.000000,0.000000,0.000000,0.000000;
#CREDIT:CopperPuppy;
#NOTES:
0000
0000
0000
0000
,
0000
0000
0000
0000
,
0000
0000
0000
0000
,
0000
0000
0000
0000
,
0000
0000
0000
0000
,
0000
0000
0000
0000
,
0000
0000
0000
0000
,
0000
0000
0000
0000
,
0001
0000
0000
0000
,
1000
0000
0000
0000
,
0010
0000
0000
0000
,
0100
0000
0000
0000
,
0001
0000
0000
0000
,
1000
0000
0000
0000
,
0100
0000
0000
0000
,
0010
0000
0000
0000
,
0001
0000
0000
0000
,
1000
0000
0000
0000
,
0010
0000
0000
0000
,
0100
0000
0000
0000
,
0010
0000
0000
0000
,
1000
0000
0000
0000
,
0001
0000
0000
0000
,
0010
0000
0000
0000
,
0100
0000
0000
0000
,
1000
0000
0000
0000
,
0001
0000
0000
0000
,
1000
0000
0000
0000
,
0010
0000
0000
0000
,
0100
0000
0000
0000
,
0001
0000
0000
0000
,
1000
0000
0000
0000
,
0100
0000
0000
0000
,
0010
0000
0000
0000
,
0100
0000
0000
0000
,
1000
0000
0000
0000
,
0001
0000
0000
0000
,
0100
0000
0000
0000
,
0010
0000
0000
0000
,
0100
0000
0000
0000
,
0001
0000
0000
0000
,
1000
0000
0000
0000
,
0010
0000
0000
0000
,
0100
0000
0000
0000
,
0001
0000
0000
0000
,
1000
0000
0000
0000
,
0100
0000
0000
0000
,
0010
0000
0000
0000
,
0001
0000
0000
0000
,
1000
0000
0000
0000
,
0010
0000
0000
0000
,
1000
0000
0000
0000
,
0001
0000
0000
0000
,
0010
0000
0000
0000
,
0001
0000
0000
0000
,
1000
0000
0000
0000
,
0010
0000
0000
0000
,
0100
0000
0000
0000
,
0001
0000
0000
0000
,
1000
0000
0000
0000
,
0100
0000
0000
0000
,
0010
0000
0000
0000
,
0001
0000
0000
0000
,
1000
0000
0000
0000
,
0010
0000
0000
0000
,
0100
0000
0000
0000
,
0010
0000
0000
0000
,
1000
0000
0000
0000
,
0001
0000
0000
0000
,
0010
0000
0000
0000
,
0100
0000
0000
0000
,
1000
0000
0000
0000
,
0001
0000
0000
0000
,
0100
0000
0000
0000
,
0010
0000
0000
0000
,
0100
0000
0000
0000
,
0001
0000
0000
0000
;
