#TITLE:Empyrean;
#SUBTITLE:;
#ARTIST:meganeko;
#TITLETRANSLIT:;
#SUBTITLETRANSLIT:;
#ARTISTTRANSLIT:;
#GENRE:;
#CREDIT:;
#BANNER:Empyrean.png;
#BACKGROUND:Empyrean-bg.png;
#LYRICSPATH:;
#CDTITLE:;
#MUSIC:Empyrean.ogg;
#OFFSET:0.007000;
#SAMPLESTART:98.736000;
#SAMPLELENGTH:16.457146;
#SELECTABLE:YES;
#BPMS:0.000000=175.000000
;
#STOPS:
;
#BGCHANGES:;
#KEYSOUNDS:;
#ATTACKS:;

//---------------dance-single - ----------------
#NOTES:
     dance-single:
     RGTM-SX:
     Challenge:
     13:
     0.788832,1.348207,0.053610,1.112407,0.787396,824.000000,816.000000,8.000000,166.000000,0.000000,0.000000,0.788832,1.348207,0.053610,1.112407,0.787396,824.000000,816.000000,8.000000,166.000000,0.000000,0.000000:
0000
0000
0000
0000
,
0000
0000
0000
0000
,
0000
0000
0000
0000
,
0000
0000
0000
0000
,
0000
0000
0000
0000
,
0000
0000
0000
0000
,
0000
0000
0000
0000
,
0000
0000
0000
0000
,
1002
0003
0000
0000
1000
0000
0002
0003
0010
0000
0100
0000
0010
0000
0000
0000
,
0001
0000
1000
0000
0010
0000
0100
0000
0001
0000
1000
0001
1000
0100
0010
0001
,
1000
0001
0200
0300
0010
1000
0001
1000
0200
0310
0100
0000
0010
0000
0001
0000
,
1000
0000
0010
1000
0200
0300
1000
0000
0010
1000
0200
0300
0004
0000
0103
0000
,
0020
0030
0004
0000
1003
0000
0020
0030
0100
0000
0100
0000
0004
0000
0000
0000
,
4003
0000
0000
0000
0000
0000
0000
0000
0000
0000
0000
0000
3100
0000
0000
0000
0100
0000
0000
0000
0100
0000
0000
0000
0010
0000
0000
0001
0000
0000
4000
0000
0000
0000
0000
0000
0000
0000
0000
0000
0000
0000
3020
0000
0000
0030
0000
0000
,
0100
0001
0100
0001
0020
0030
0100
1000
0100
1000
0020
0030
1000
0000
0001
0000
,
0100
0000
0000
0000
0100
0000
0000
0000
0100
0000
0000
0000
0001
0000
0000
0000
0000
0000
2000
0000
0000
3000
0000
0000
0100
0000
0000
0000
0000
0000
0001
0000
0000
0000
0000
0000
2000
0000
0000
3000
0000
0000
0010
0000
0000
0100
0000
0000
,
0010
0001
0100
0010
1000
0100
0010
0001
,
0100
0010
1000
0100
1000
0001
0100
0010
,
0010
0100
0001
1000
0100
1000
0010
0100
0001
1000
0100
1000
0010
0100
0001
1000
,
0001
0000
0010
0000
0100
0000
1000
0000
0010
0000
1000
0000
0001
0000
0010
0000
0100
0000
0010
0000
0002
0000
0000
0000
0200
0003
0000
0000
0020
0300
0000
0030
,
0110
0000
0000
0000
,
0001
0000
1000
0000
,
0200
0000
0000
0000
,
0000
0000
0000
0310
0100
2000
0000
3010
,
0120
0130
0001
0020
0130
0001
0100
1000
,
0001
0000
0100
0000
0020
0000
0130
0000
0001
0000
0020
0000
0130
0000
0001
0100
,
0020
0031
0100
0020
0031
1000
0100
0010
,
1000
0100
0002
0203
2300
3002
0203
0310
,
0002
0013
0100
0002
0013
0100
1000
0010
,
1000
0000
0100
0000
0002
0000
0103
0000
0010
0000
0002
0000
0103
0000
0010
0100
,
0002
0000
0023
0000
0000
0000
0230
0000
1300
0000
0010
0000
0100
0010
0100
0000
,
0001
0000
1000
0000
0020
0000
2030
0000
3100
0010
0000
1000
0000
0001
0100
0000
,
1000
0100
0010
0001
1000
0001
0010
0100
1000
0001
1000
0010
0100
0001
0100
0010
,
1000
0100
0010
0001
1000
0010
1000
0001
0100
0001
0010
0100
1000
0001
0100
0001
,
1000
0100
0010
0001
0100
0010
0100
0001
1000
0010
0100
0001
0010
0100
0010
0001
,
1000
0100
0010
0001
1000
0010
0100
0010
1000
0001
0100
0010
1000
0100
0010
0001
,
1000
0010
0100
0001
1000
0001
0100
0010
1000
0001
1000
0100
0010
0001
0010
0100
,
1000
0010
0100
0001
1000
0100
1000
0001
0010
0001
0100
0010
1000
0001
0010
0001
,
1000
0100
0010
0001
0100
0010
1000
0001
1000
0010
0100
0001
0010
0100
1000
0010
,
1000
0001
0100
0100
1000
0010
1000
0001
0100
0100
0010
0000
0100
0000
1000
0000
,
1001
0000
0001
0000
0010
0000
0100
0000
0000
1000
0200
0000
0320
0000
0032
0000
,
1000
0000
0010
0000
0000
0203
0310
0200
,
0000
0320
2030
0000
0000
0001
0010
0000
,
0100
0000
0000
0000
0010
0000
0000
0000
3000
1000
0200
0000
2300
0000
3020
0000
,
0100
0000
0001
0000
0030
0010
2000
3002
,
0010
0000
0000
0000
1000
0000
0000
0000
0003
1000
0001
0000
0010
0000
0100
0000
,
0000
0000
1000
0000
0020
0000
0100
0000
0030
0010
2000
0000
0100
3000
1000
0000
,
0002
0000
0000
0000
0000
0000
0000
0000
0013
0000
0000
0000
0200
0000
0010
0000
0000
0000
0310
0000
0100
0000
0000
0000
2000
0000
0000
0000
3002
0000
0000
0003
,
1001
0000
1000
0000
0010
0000
0100
0000
0000
0001
0200
0000
0320
0000
2030
0000
,
0000
0001
0000
0001
0000
3200
0310
0200
,
0000
0320
0032
0010
0000
0100
0000
1000
,
0000
0000
1000
0000
0000
0000
0010
0000
0003
0001
0200
0000
0302
0000
0023
0000
,
0000
0100
0000
0100
0030
0010
0002
2003
,
0000
0000
0010
0000
0000
0000
0010
0000
3000
0001
1000
0000
0010
0000
0001
0000
,
0000
0000
0010
0000
0100
0000
0001
0000
0000
0001
0010
0000
1000
0000
0001
0000
,
0100
0010
0100
1000
0001
0100
0010
1000
0001
0010
0100
1000
0100
1000
0100
1000
,
0100
0000
0000
1000
0000
0000
0001
0000
0000
1000
0000
0000
0100
0000
1000
0000
0100
0000
0010
0000
0001
0000
1000
0000
0001
0000
0010
0000
0100
0000
1000
0000
0001
0000
0100
0000
0010
0000
1000
0000
0001
0000
2000
0000
0000
0000
0000
0000
,
0000
3200
0320
0032
1003
0200
1300
0020
,
0000
0032
0000
2003
0000
0001
0000
3200
,
0310
2000
3001
0020
0130
0002
0203
2300
,
0000
3002
0203
2300
3100
0010
0020
0032
,
0000
0023
0230
0302
0013
2000
3010
0200
,
0000
0000
0301
0100
1000
0001
1000
0100
0010
0001
0100
0001
1000
0010
0100
0001
,
1000
0100
0010
0001
0100
0010
1000
0100
0001
0100
2000
0000
3002
0000
0023
0000
,
0000
0100
0030
0010
0002
0100
0000
2003
,
3010
0200
0000
2300
3100
0020
0130
0002
,
0000
0010
0000
0010
2003
0000
3200
0320
,
0130
0000
2000
0000
3020
0000
0032
0000
1003
0000
0001
0010
2000
0000
3002
0000
,
0000
0203
0302
0023
0130
0002
0203
0320
,
0000
0000
0000
0000
2030
0000
0000
0000
3020
0000
0000
0000
0032
0000
0000
0000
0000
0000
0000
0000
1003
0000
0000
0000
1000
0002
0000
0000
0203
0000
0000
0000
,
0000
0302
0203
0320
0000
0230
0302
2003
,
0000
3200
0320
2030
3001
0200
0320
0032
,
1003
0100
1000
0000
0001
0100
0001
0000
1000
0010
1000
0000
0001
0010
0001
0000
,
1000
0010
0100
0000
0001
0100
0010
0000
1000
0100
0010
0000
0001
0010
0100
0000
,
1000
0001
0100
0000
0001
1000
0100
0000
0010
0001
1000
0000
0010
1000
0001
0000
,
0010
0100
1000
0001
0010
0100
1000
0001
0100
0010
1000
0001
0010
0100
1000
0000
,
0001
0100
0001
0000
1000
0100
1000
0000
0001
0010
0001
0000
1000
0010
1000
0000
,
0001
0010
0100
0000
1000
0100
0010
0000
0001
0100
0010
0000
1000
0010
0100
0000
,
0001
1000
0100
0000
1000
0001
0100
0000
0010
1000
0001
0000
0010
0001
1000
0000
,
0010
0100
0001
0000
0010
0100
1000
0000
0001
0100
0010
0000
1000
0100
0010
0000
,
0001
0100
0010
0100
0001
1000
0010
0100
0010
1000
0001
0010
0100
0010
0001
1000
,
0100
0010
0100
1000
0001
0100
0010
1000
0001
0100
0001
1000
0010
0100
0001
1000
,
0100
1000
0001
0010
0100
1000
0001
0010
0001
1000
0100
0010
0001
1000
0010
1000
,
0001
0100
0010
1000
0001
0010
0001
1000
0010
0100
0001
1000
0100
0010
0001
1000
,
0001
0010
0010
0100
0100
1000
1000
0001
,
0001
0100
0010
0100
0001
1000
0010
0100
0001
1000
0100
0010
0100
1000
0001
0010
,
0001
0100
0010
1000
0100
0010
0001
1000
0001
0010
0100
1000
0010
0100
0001
0010
,
0001
1000
0100
0100
0001
0010
0001
1000
0100
0100
0011
0000
0000
0000
1000
0000
,
1001
0000
0000
0000
0000
0002
2003
3020
,
0000
0000
0030
0000
0000
2000
3000
2000
,
3000
0020
0230
0000
0000
0000
0000
0000
,
0302
0000
0000
0000
0000
2003
3200
0320
,
0000
0000
0000
0000
0000
0000
2030
3020
,
0032
0000
0000
0000
0000
0000
0000
0000
0000
0000
0000
0000
2003
0000
0000
0000
0000
0000
3010
0100
0001
1000
0001
1000
,
0200
0000
0000
0000
,
0000
0000
0000
0000
,
0320
0000
0000
0000
0000
0032
0203
0320
,
0000
0000
0000
0000
0000
0230
0300
0020
,
0000
0032
2003
0000
0000
0000
0000
0000
,
0000
0000
0000
0000
0000
3002
0023
2030
,
0000
0000
0000
0000
0000
0000
3020
0230
,
0000
0000
0000
0000
0300
0020
2030
3002
,
0000
0000
0000
0000
,
0000
0000
0000
0003
,
0220
0000
0000
0000
,
0000
0000
0000
0000
,
0000
0000
0000
0000
,
0000
0000
0000
0000
,
0000
0000
0000
0330
;

//---------------dance-single - sangyule----------------
#NOTES:
     dance-single:
     :
     Beginner:
     1:
     0.096689,0.174232,0.033506,0.000000,0.000000,101.000000,96.000000,5.000000,0.000000,0.000000,0.000000,0.096689,0.174232,0.033506,0.000000,0.000000,101.000000,96.000000,5.000000,0.000000,0.000000,0.000000:
0000
0000
0000
0000
,
0000
0000
0000
0000
,
0000
0000
0000
0000
,
0000
0000
0000
0000
,
0000
0000
0000
0000
,
0000
0000
0000
0000
,
0000
0000
0000
0000
,
0000
0000
0000
0000
,
0001
0000
0000
0000
,
1000
0000
0000
0000
,
0010
0000
0000
0000
,
0100
0000
0000
0000
,
0001
0000
0000
0000
,
1000
0000
0000
0000
,
0100
0000
0000
0000
,
0010
0000
0000
0000
,
0001
0000
0000
0001
,
0000
0000
0000
0000
,
1000
0000
0000
1000
,
0000
0000
0000
0000
,
0110
0000
0000
0000
,
0100
0000
0100
0000
,
0010
0000
0000
0000
,
0000
0000
0000
0000
,
1001
0000
0000
0000
,
0000
1000
0000
0000
,
1000
0000
0000
0000
,
0000
0100
0000
0000
,
0010
0000
0000
0000
,
0000
0010
0000
0000
,
0001
0000
0000
0000
,
0000
1000
0000
0000
,
1001
0000
0000
0000
,
0001
0000
0000
0000
,
0100
0000
0000
0000
,
0010
0000
0010
0000
,
1000
0000
0000
0000
,
0001
0000
0000
0000
,
0010
0000
0010
0000
,
0100
0000
0000
0000
,
1000
0000
0000
0000
,
0001
0000
0000
0000
,
0100
0000
0000
0000
,
0010
0000
0000
0000
,
1000
0000
0000
0000
,
0001
0000
0000
0000
,
0010
0000
0000
0000
,
0100
0000
0000
0000
,
1001
0000
0000
0000
,
0001
0000
0000
0000
,
0100
0000
0000
0000
,
0010
0000
0000
0000
,
1000
0000
0000
0000
,
0001
0000
0000
0000
,
1000
0000
0000
0000
,
0100
0000
0000
0000
,
0000
0100
0000
0000
,
1000
0000
0000
0000
,
0001
0000
0000
0000
,
0100
0000
0010
0000
,
0100
0000
0000
0000
,
0100
0000
0000
0000
,
0010
0000
0000
0000
,
0010
0000
0010
0000
,
1000
0000
0000
0000
,
0001
0000
0000
0000
,
1000
0000
0000
0000
,
0001
0000
0001
0000
,
0010
0000
0000
0000
,
0010
0000
0000
0000
,
0100
0000
0000
0000
,
1000
0000
1000
0000
,
0001
0000
0000
0000
,
0100
0000
0000
0000
,
0010
0000
0000
0000
,
0010
0000
0000
0000
,
1000
0000
0000
0000
,
0001
0000
0000
0000
,
1000
0000
0000
0000
,
0100
0000
0000
0000
,
0010
0000
0000
0000
,
0001
0000
0000
0000
,
1000
0000
0000
0000
,
0010
0000
0000
0000
,
0100
0000
0000
0000
,
0100
0000
0000
0000
,
0001
0000
0001
0000
,
0001
0000
0000
0000
,
1000
0000
0000
0000
,
0000
0000
0000
0000
,
0001
0000
0000
0000
,
0000
0000
0000
0000
,
0100
0000
0000
0000
,
0000
0000
0000
0000
,
0010
0000
0000
0000
,
0000
0000
0000
0000
,
1000
0000
0000
0000
,
0000
0000
0000
0000
,
0001
0000
0000
0000
,
0000
0000
0000
0000
,
0010
0000
0000
0000
,
0000
0000
0000
0000
,
0100
0000
0000
0000
,
0000
0000
0000
0000
,
1001
0000
0000
0000
;

//---------------dance-single - sangyule----------------
#NOTES:
     dance-single:
     :
     Hard:
     11:
     0.635661,1.093141,0.067012,1.226328,0.261349,664.000000,654.000000,10.000000,183.000000,2.000000,0.000000,0.635661,1.093141,0.067012,1.226328,0.261349,664.000000,654.000000,10.000000,183.000000,2.000000,0.000000:
0000
0000
0000
0000
,
0000
0000
0000
0000
,
0000
0000
0000
0000
,
0000
0000
0000
0000
,
0000
0000
0000
0000
,
0000
0000
0000
0000
,
0000
0000
0000
0000
,
0000
0000
0000
0000
,
1001
1000
0010
0100
0010
1000
0001
0010
,
0100
1000
0010
0100
0010
1000
0100
0010
,
0001
1000
0010
0100
0001
1000
0001
0010
,
0100
0000
1000
0001
0100
0000
0010
0000
1000
0001
0010
0000
0040
0000
0130
0000
,
1000
0004
0103
0001
1000
0100
0010
0001
,
0010
0001
0100
0010
1000
0001
1000
0010
,
0001
0010
0001
0010
1000
0100
1000
0100
,
0010
0000
0100
0000
0001
0000
0100
0000
0001
0000
0100
0000
1000
0000
0001
0100
,
0010
1000
1000
0001
0010
0010
0100
1000
,
1000
0001
0100
0010
1000
0001
1000
0001
,
1000
0100
1000
0001
0100
0001
0010
0100
1000
0001
0100
0001
1000
0010
1000
0001
,
0010
0100
1000
0010
0100
0000
0002
0000
2003
0000
3200
0000
2300
0000
3001
0000
,
1001
0000
0000
0000
,
1000
0000
0010
0000
,
0200
0000
0000
0000
,
0000
0000
0000
0301
1000
0200
0000
0310
,
0120
0130
1000
0002
0103
0001
1000
0010
,
0100
0000
0001
0000
0020
0000
0130
0000
0010
0000
0002
0000
1003
0000
0001
1000
,
0020
0130
0001
0020
0130
1000
0001
0100
,
0010
1000
0200
1300
0002
1003
0020
0130
,
0002
1003
0001
0020
0130
0010
0001
1000
,
0010
0000
0100
0000
0020
0000
1030
0000
0010
0000
2000
0000
3001
0000
1000
0100
,
0020
0000
0032
0000
0103
0000
0020
0000
1030
0000
0001
0000
1000
0100
1000
0000
,
0001
0000
0100
0000
0020
0000
2030
0000
3001
0010
0000
1000
0000
0010
0100
0000
,
1200
1300
0001
0200
0310
1000
0001
0010
,
0100
0000
1000
0000
0020
0000
0130
0000
0001
0000
0020
0000
0130
0000
1000
0001
,
0200
0310
1000
0200
0310
0001
1000
0010
,
0100
0001
2000
3100
0020
0130
0002
0103
,
2000
3010
0100
0002
0013
0100
1000
0001
,
0100
0000
0001
0000
0020
0000
0130
0000
1000
0000
0020
0000
0130
0000
0001
1000
,
0001
0000
1000
0000
0200
0000
1300
0000
0010
0100
0001
1000
0100
0010
0001
1000
,
0010
0010
0001
1000
0001
1000
0100
0100
0001
0010
0100
0000
1000
0000
0001
0000
,
1001
1000
0010
0100
0000
0002
0023
2030
,
0000
0000
0000
0000
0000
3010
0000
0020
,
0000
0032
2003
0000
0000
0001
0010
0000
,
0100
0000
0010
0000
3000
0020
0230
0302
,
0000
0000
1000
0000
0000
0013
2000
3020
,
0000
0000
0100
0000
0000
0031
1000
0100
,
0000
0M00
0001
0000
2000
0000
3010
0000
1000
0000
0002
0000
0103
0000
0001
0000
,
2000
3100
1000
0020
0130
0010
2000
3001
,
1001
1000
0100
1000
0000
0020
0230
0302
,
0000
1000
0000
1000
0000
0023
0130
0020
,
0000
0032
2003
0010
0000
0001
0000
0100
,
0000
0001
0000
0010
0000
3001
0020
0230
,
0000
1000
0000
1300
0000
0001
0200
0320
,
0000
1000
0000
1030
0000
0002
0023
1030
,
0000
0010
0001
0100
0000
2000
3200
0301
,
0201
0000
0000
0000
0000
0000
0000
0000
0300
0000
0001
1000
0001
1000
0001
1000
,
0001
0010
0100
1000
0020
0000
0130
0000
0001
0000
1000
0000
0100
0000
0020
0000
,
0000
0230
2300
3020
0130
0002
1003
0200
,
0000
2300
0000
3020
0000
0000
0000
0230
,
0301
2000
3001
0020
0031
0200
0320
2030
,
0000
3002
2003
3100
0M00
0001
0001
0200
,
0000
0320
1030
0002
0013
0200
0310
0002
,
0000
0000
1003
0010
0100
0001
1000
0100
0010
0100
1000
0001
0100
0010
1000
0100
,
1000
0001
0010
0100
0001
0100
0010
0001
1000
0010
0200
0000
0302
0000
2003
0000
,
0000
0100
0000
0100
3002
0000
0103
0010
,
0000
2000
0000
3100
0000
2000
3010
0200
,
0000
0010
0000
0301
2000
0000
3002
0013
,
0100
0000
2000
0000
3020
0000
0230
0000
0301
0000
1000
0100
2000
0000
3002
0000
,
0000
0203
0320
1030
0000
0002
0023
0230
,
0000
0000
0000
0000
0302
0000
0000
0000
0203
0000
0000
0000
2300
0000
0000
0000
0000
0000
0000
0000
3001
0000
0000
0000
0100
0020
0000
0000
2030
0000
0000
0000
,
0000
3200
0320
0032
0000
0203
0320
2030
,
0000
3200
0320
0032
2003
3002
2000
3003
,
1001
0001
0100
0010
1000
0200
0302
2003
,
3010
0001
1000
0010
0100
0002
1003
0002
,
0013
0200
2300
3010
0100
0001
1000
0100
,
1000
0010
0100
0001
0020
2030
3002
0203
,
1300
0001
0010
0001
1000
0020
0032
2003
,
3100
0001
0010
0100
1000
0020
0230
0302
,
1003
0001
0100
0001
0010
1000
0010
0001
,
1000
0010
0001
0010
0001
0010
1000
0100
,
0010
0100
1000
0000
0001
1000
0010
0000
0100
0010
1000
0000
0001
0010
0100
0000
,
0010
0001
1000
0000
0010
0100
0001
0000
0100
0010
1000
0000
0100
0000
0020
0000
,
0031
1000
0010
0000
0100
0001
1000
0000
0100
0010
0100
0000
1000
0001
0100
0000
,
0010
1000
0001
0000
0010
0100
1000
0000
0010
0000
0200
0000
0302
0000
0023
0000
,
0130
0100
1000
1000
0001
0001
0100
0010
,
1000
1000
0001
0001
0010
0100
1000
0001
,
0100
0010
1000
0100
0010
0001
1000
0001
0100
0010
1000
0001
0010
0100
0010
0001
,
1000
0010
0010
0001
1000
0100
0100
0001
1000
0010
0100
0000
0000
0000
0001
0000
,
1001
0000
0000
0000
0000
2000
3002
0023
,
0000
0000
0030
0000
0000
0002
0003
0002
,
0003
0020
0230
0000
0000
0000
0000
0000
,
2300
0000
0000
0000
0000
3002
0203
0320
,
0000
0000
0000
0000
0000
0000
0032
0023
,
2030
0000
0000
0000
0000
0000
0000
0000
3002
0000
0000
0000
0013
0100
1000
0001
,
0200
0000
0000
0000
,
0000
0000
0000
0000
,
0320
0000
0000
0000
0000
2030
3200
0320
,
0000
0000
0000
0000
0000
0230
0300
2000
,
0000
3020
0032
0000
0000
0000
0000
0000
,
0000
0000
0000
0000
0000
0023
2030
3002
,
0000
0000
0000
0000
0000
0000
0023
0230
,
0000
0000
0000
0000
0300
2000
3200
0320
,
0000
0000
0000
0000
,
0000
0000
0000
0030
,
2002
0000
0000
0000
,
0000
0000
0000
0000
,
0000
0000
0000
0000
,
0000
0000
0000
0000
,
0000
0000
0000
3003
;

//---------------dance-single - sangyule----------------
#NOTES:
     dance-single:
     :
     Easy:
     5:
     0.310172,0.398054,0.013402,0.127324,0.000000,324.000000,322.000000,2.000000,19.000000,0.000000,0.000000,0.310172,0.398054,0.013402,0.127324,0.000000,324.000000,322.000000,2.000000,19.000000,0.000000,0.000000:
// measure 0
0000
0000
0000
0000
,  // measure 1
0000
0000
0000
0000
,  // measure 2
0000
0000
0000
0000
,  // measure 3
0000
0000
0000
0000
,  // measure 4
0000
0000
0000
0000
,  // measure 5
0000
0000
0000
0000
,  // measure 6
0000
0000
0000
0000
,  // measure 7
0000
0000
0000
0000
,  // measure 8
1000
0001
0010
0001
,  // measure 9
1000
0000
0010
0000
0000
0100
0000
0001
,  // measure 10
1000
0100
1000
0001
,  // measure 11
0000
0100
0010
0000
0100
0001
0000
1000
,  // measure 12
0001
0010
0100
1000
,  // measure 13
0001
0000
1000
0000
0000
0010
0000
0100
,  // measure 14
0001
1000
0100
1000
,  // measure 15
0001
0000
0100
0001
0000
1000
0000
0001
,  // measure 16
1000
1000
0100
0100
,  // measure 17
0010
0010
0001
0001
,  // measure 18
1000
0010
0100
0001
,  // measure 19
0010
0100
1000
0001
,  // measure 20
1001
0000
0000
0000
,  // measure 21
1000
0000
0001
0000
,  // measure 22
0020
0000
0030
0000
,  // measure 23
0000
0000
0000
0000
0000
0002
0000
0003
,  // measure 24
1000
0100
0000
1000
0000
0000
0001
0000
,  // measure 25
0010
0000
0001
1000
0000
0010
0000
0100
,  // measure 26
0001
0100
0000
0010
0000
0000
1000
0000
,  // measure 27
0001
0020
0032
2003
,  // measure 28
3010
1000
0000
0001
0000
0000
1000
0000
,  // measure 29
0100
0000
0010
0001
0000
1000
0000
0001
,  // measure 30
1000
0010
0100
0001
,  // measure 31
1000
0000
1000
0000
0200
0000
0000
0300
,  // measure 32
1000
0001
0100
0001
,  // measure 33
1000
0001
0010
0001
,  // measure 34
1000
0100
1000
0001
,  // measure 35
1000
0020
0230
0302
,  // measure 36
1003
0100
0010
0001
,  // measure 37
1000
0010
0100
0001
,  // measure 38
1000
1000
0001
0001
,  // measure 39
0010
0000
0000
0000
0000
0010
0100
0000
,  // measure 40
1001
0000
0001
0000
0000
0100
0001
0000
,  // measure 41
1000
0000
0100
0000
0000
0010
0100
0000
,  // measure 42
1000
0000
0001
0000
0000
1000
0010
0000
,  // measure 43
0100
0000
0001
0000
0000
1000
0001
0000
,  // measure 44
0010
0000
0100
0000
0000
1000
0100
0000
,  // measure 45
1000
0000
0010
0000
0000
0100
0001
0000
,  // measure 46
0000
0100
0010
0000
0000
1000
0000
0000
,  // measure 47
0001
0000
0000
0010
0000
0000
0100
0010
,  // measure 48
0001
0000
1000
0000
0000
0001
1000
0000
,  // measure 49
0010
0000
0100
0000
0000
0001
1000
0000
,  // measure 50
0100
0000
0010
0000
0000
0001
0010
0000
,  // measure 51
0001
0000
0100
0000
0000
0010
1000
0000
,  // measure 52
0001
0000
0010
0000
0000
0100
1000
0000
,  // measure 53
0001
0000
0100
0000
0000
0010
1000
0001
,  // measure 54
0000
0000
0010
0000
0000
0100
1000
0001
,  // measure 55
2000
0000
0000
3000
,  // measure 56
0000
0000
0010
0000
0000
0100
0001
0000
,  // measure 57
1000
0000
0100
0000
0000
1000
0000
0001
,  // measure 58
0100
0000
0010
0000
0000
1000
0001
0000
,  // measure 59
0010
0000
0100
1000
0000
0001
1000
0000
,  // measure 60
0010
0000
0100
0000
0000
0001
1000
0000
,  // measure 61
0100
0000
1000
0000
0000
0001
0010
0000
,  // measure 62
0001
1000
0010
1000
,  // measure 63
0001
0010
0100
1000
,  // measure 64
0001
0000
0100
0000
0000
0010
1000
0000
,  // measure 65
0001
0000
0010
0100
0000
1000
0100
0000
,  // measure 66
1000
0000
0001
0000
0000
0100
0001
0000
,  // measure 67
1000
0000
0010
0100
0000
0010
1000
0000
,  // measure 68
0001
0000
1000
0100
0000
1000
0000
0001
,  // measure 69
0100
0000
0010
0000
0000
1000
0001
0000
,  // measure 70
0010
0100
1000
0001
,  // measure 71
0100
0000
0010
0000
0100
0001
0100
0000
,  // measure 72
0010
1000
0010
1000
,  // measure 73
0001
0010
0001
0010
,  // measure 74
0100
1000
0100
1000
,  // measure 75
0010
0100
0010
1000
,  // measure 76
0001
1000
0001
1000
,  // measure 77
0100
0010
0100
1000
,  // measure 78
0001
0100
0001
1000
,  // measure 79
0010
1000
0001
0010
,  // measure 80
0100
1000
0100
1000
,  // measure 81
0010
0100
0010
0100
,  // measure 82
0001
1000
0001
1000
,  // measure 83
0100
0010
0001
0010
,  // measure 84
0001
1000
0001
1000
,  // measure 85
0010
1000
0010
1000
,  // measure 86
0001
0100
0010
1000
,  // measure 87
0001
0000
0010
0000
0100
1000
0000
0001
,  // measure 88
2000
0000
0000
0000
,  // measure 89
0000
0000
0000
0000
,  // measure 90
3020
0000
0000
0000
,  // measure 91
0000
0000
0000
0000
,  // measure 92
0230
0000
0000
0000
,  // measure 93
0000
0000
0000
0000
,  // measure 94
0302
0000
0000
0000
,  // measure 95
0000
0000
0000
0000
,  // measure 96
2003
0000
0000
0000
,  // measure 97
0000
0000
0000
0000
,  // measure 98
3002
0000
0000
0000
,  // measure 99
0000
0000
0000
0000
,  // measure 100
0023
0000
0000
0000
,  // measure 101
0000
0000
0000
0000
,  // measure 102
0230
0000
0000
0000
,  // measure 103
0000
0000
0000
0000
,  // measure 104
2300
0000
0000
0000
,  // measure 105
0000
0000
0000
0000
,  // measure 106
0000
0000
0000
0000
,  // measure 107
0000
0000
0000
0000
,  // measure 108
3000
0000
0000
0000
;

//---------------dance-single - sangyule----------------
#NOTES:
     dance-single:
     :
     Medium:
     7:
     0.387715,0.470427,0.013402,0.314959,0.000000,405.000000,403.000000,2.000000,47.000000,2.000000,0.000000,0.387715,0.470427,0.013402,0.314959,0.000000,405.000000,403.000000,2.000000,47.000000,2.000000,0.000000:
// measure 0
0000
0000
0000
0000
,  // measure 1
0000
0000
0000
0000
,  // measure 2
0000
0000
0000
0000
,  // measure 3
0000
0000
0000
0000
,  // measure 4
0000
0000
0000
0000
,  // measure 5
0000
0000
0000
0000
,  // measure 6
0000
0000
0000
0000
,  // measure 7
0000
0000
0000
0000
,  // measure 8
1000
0001
0010
0100
,  // measure 9
1000
0000
0010
0100
0000
0001
0000
1000
,  // measure 10
0001
1000
0010
0100
,  // measure 11
0001
1000
0100
0000
1000
0001
0000
0100
,  // measure 12
0010
1000
0001
0100
,  // measure 13
0010
0000
1000
0001
0000
0010
0000
0100
,  // measure 14
1000
0010
0100
0001
,  // measure 15
1000
0100
1000
0001
0000
0100
0001
0000
,  // measure 16
1000
0000
0010
1000
0000
0001
0010
0000
,  // measure 17
0100
0010
0000
0000
0001
1000
0001
0100
,  // measure 18
0100
0000
0010
0100
0000
0001
0001
0000
,  // measure 19
1000
0000
0100
0010
0100
1000
0001
1000
,  // measure 20
0010
0000
0000
0000
,  // measure 21
0100
0000
0001
0000
,  // measure 22
2000
0000
3000
0000
,  // measure 23
0000
0000
0000
1000
0001
0200
0000
0301
,  // measure 24
1000
0001
0000
0010
0000
0100
1000
0001
,  // measure 25
0000
0100
0010
0100
0000
0001
0000
1000
,  // measure 26
0001
1000
0000
0100
0000
0010
0001
0010
,  // measure 27
0200
0000
1300
0001
0100
0001
2000
0000
,  // measure 28
3001
0010
0000
0001
0000
1000
0010
0100
,  // measure 29
0000
0001
1000
0100
0000
0010
0000
0001
,  // measure 30
1000
0001
0000
0100
0000
0010
1000
0010
,  // measure 31
0000
0100
0002
0000
1003
0000
1000
0000
,  // measure 32
0001
0000
0010
0100
1000
0000
0010
0000
,  // measure 33
0100
0000
0001
1000
0000
0001
0000
0010
,  // measure 34
0001
0000
0100
0010
1000
0000
0100
0000
,  // measure 35
0010
0000
0001
1000
0010
1000
0001
0000
,  // measure 36
0010
0000
0100
1000
0001
0000
0100
0000
,  // measure 37
0010
0000
0100
0010
0000
1000
0000
0001
,  // measure 38
1000
0000
0001
0000
0010
0100
0010
0001
,  // measure 39
1000
0000
0000
1000
0000
0001
0100
0000
,  // measure 40
0101
0001
1000
0000
0000
0100
0010
0002
,  // measure 41
0000
0000
0000
0000
0000
0103
0000
0100
,  // measure 42
0000
0010
2000
0000
0000
0000
0000
0000
,  // measure 43
0000
0000
0000
0000
3000
0001
0010
0002
,  // measure 44
0000
0000
0000
0000
0000
0003
0100
0020
,  // measure 45
0000
0000
0000
0000
0000
1030
0001
0100
,  // measure 46
0010
0000
1000
0000
0001
0010
0000
0001
,  // measure 47
1000
0000
0001
0100
0000
0000
0010
1000
,  // measure 48
0001
1000
0001
0000
0000
1000
0010
0200
,  // measure 49
0000
0000
0000
0000
0000
0301
0000
1000
,  // measure 50
0000
0001
0020
0000
0000
0000
0000
0130
,  // measure 51
0000
0100
0000
1000
0000
0001
1000
0020
,  // measure 52
0000
0000
0000
0000
0000
0030
1000
0002
,  // measure 53
0000
0000
0000
0000
0000
0013
0100
1000
,  // measure 54
0000
0010
0000
0100
0000
0001
0010
0100
,  // measure 55
2000
0000
3000
0000
,  // measure 56
0MM0
0000
1001
0000
0001
0000
1000
0200
,  // measure 57
0000
1300
0010
0100
0000
0001
0000
0020
,  // measure 58
0000
0230
0000
2300
0000
0000
0000
3001
,  // measure 59
0000
0100
0000
0010
0000
1000
0001
0020
,  // measure 60
0000
0130
1000
0001
0000
0100
0100
0020
,  // measure 61
0000
1030
0001
1000
0000
0100
0000
2000
,  // measure 62
0000
3010
0100
0000
0001
0000
1000
0100
,  // measure 63
0010
0000
0010
0000
0001
1000
0010
0200
,  // measure 64
0000
0000
0300
0000
0002
0000
0000
0013
,  // measure 65
0000
0200
0000
1300
0000
0001
0000
0200
,  // measure 66
0000
0000
0300
0000
0020
0000
1030
0001
,  // measure 67
0000
1000
0100
1000
0000
0001
0010
0002
,  // measure 68
0000
1003
0001
0100
0000
0010
1000
0002
,  // measure 69
0000
0013
0100
2000
0000
3001
0100
0020
,  // measure 70
0000
0130
0010
2000
0000
3001
0010
0002
,  // measure 71
0000
0103
0010
1000
0000
0001
0010
0100
,  // measure 72
1000
0000
0001
0000
0100
0000
0001
1000
,  // measure 73
0001
0000
0010
0000
0100
1000
0000
0001
,  // measure 74
1000
0010
0100
0001
,  // measure 75
1000
0000
0001
0000
0010
0000
0100
1000
,  // measure 76
0001
0000
0100
0000
0010
0000
1000
0001
,  // measure 77
1000
0000
0001
0000
0010
0100
1000
0001
,  // measure 78
0000
0100
0010
0000
0100
0001
0000
1000
,  // measure 79
0001
0000
1000
0100
0000
0000
0010
0001
,  // measure 80
1000
0000
0001
0000
0100
0000
0010
1000
,  // measure 81
0001
0000
0010
0000
0100
1000
0000
0001
,  // measure 82
0010
0001
0100
0010
,  // measure 83
1000
0000
0100
0000
0010
0000
0001
0010
,  // measure 84
0100
0000
1000
0000
0010
0000
0100
0001
,  // measure 85
1000
0000
0001
0000
1000
0000
0100
0010
,  // measure 86
0100
0000
1000
0000
0001
0000
0100
0010
,  // measure 87
1000
0000
0001
0010
0100
1000
0000
0001
,  // measure 88
2000
0000
0000
0000
0000
3010
0100
0020
,  // measure 89
0000
0000
0000
0000
0000
1030
0000
1000
,  // measure 90
0000
0001
0200
0000
0000
0000
0000
0000
,  // measure 91
0320
0000
0000
0000
0000
1030
0001
1000
,  // measure 92
0200
0000
0000
0000
0000
0000
0310
0100
,  // measure 93
2000
0000
3002
0000
,  // measure 94
0203
0000
0000
0000
,  // measure 95
0000
0000
0000
0000
,  // measure 96
0320
0000
0000
0000
0000
1030
0010
2000
,  // measure 97
0000
0000
0000
0000
3000
0001
0000
0010
,  // measure 98
0000
0100
0020
0000
0000
0000
0000
0000
,  // measure 99
0000
0000
0000
0000
0000
0031
1000
0002
,  // measure 100
0000
0000
0000
0000
0000
0000
0103
0020
,  // measure 101
0000
0000
0000
0000
0000
1030
0001
1000
,  // measure 102
0200
0000
0000
0000
,  // measure 103
0000
0000
0000
0000
,  // measure 104
0320
0000
0000
0000
,  // measure 105
0000
0000
0000
0000
,  // measure 106
0000
0000
0000
0000
,  // measure 107
0000
0000
0000
0000
,  // measure 108
0030
0000
0000
0000
;
