#VERSION:0.83;
#TITLE:Disco Pop;
#SUBTITLE:;
#ARTIST:Max Styler;
#TITLETRANSLIT:;
#SUBTITLETRANSLIT:;
#ARTISTTRANSLIT:;
#GENRE:;
#ORIGIN:;
#CREDIT:;
#BANNER:discopop-bn.png;
#BACKGROUND:discopop-bg.png;
#PREVIEWVID:;
#JACKET:discopop-jacket.png;
#CDIMAGE:;
#DISCIMAGE:discopop-bg-wide.png;
#LYRICSPATH:;
#CDTITLE:;
#MUSIC:Disco Pop.ogg;
#OFFSET:0.009000;
#SAMPLESTART:43.523029;
#SAMPLELENGTH:20.000000;
#SELECTABLE:YES;
#BPMS:0.000=124.000;
#STOPS:;
#DELAYS:;
#WARPS:;
#TIMESIGNATURES:0.000=4=4;
#TICKCOUNTS:0.000=4;
#COMBOS:0.000=1;
#SPEEDS:0.000=1.000=0.000=0;
#SCROLLS:0.000=1.000;
#FAKES:;
#LABELS:0.000=Song Start;
#BGCHANGES:;
#KEYSOUNDS:;
#ATTACKS:
;

//---------------dance-single - ----------------
#NOTEDATA:;
#CHARTNAME:;
#STEPSTYPE:dance-single;
#DESCRIPTION:;
#CHARTSTYLE:;
#DIFFICULTY:Challenge;
#METER:10;
#RADARVALUES:0.730362,0.714087,0.404874,0.182590,0.742270,644.000000,593.000000,51.000000,23.000000,14.000000,2.000000,6.000000,0.000000,0.000000,0.730362,0.714087,0.404874,0.182590,0.742270,644.000000,593.000000,51.000000,23.000000,14.000000,2.000000,6.000000,0.000000,0.000000;
#CREDIT:Maxx & Tony S.;
#NOTES:
0000
0000
0000
0000
,
0000
0000
0000
0000
,
0000
0000
0000
0000
,
0000
0000
0000
0000
,
0000
0000
0000
0000
0001
1000
0100
0010
,
0002
0003
1000
0010
0100
0001
2000
3000
,
0001
0000
0100
0000
0001
1000
0100
0010
,
0002
0003
1000
0001
0100
0010
2000
3000
,
0001
0000
0000
0100
0000
0000
0000
0000
0002
0000
0000
0000
1013
0100
1000
0001
,
1000
0010
0000
0100
0011
0000
0000
0000
0100
0001
1000
0100
1010
0100
1000
0001
,
1000
0000
0000
0100
0002
0000
0000
0003
0100
0000
1000
0000
0011
1000
0010
0100
,
0001
1000
0000
0100
1010
0000
0000
0000
0100
0010
0100
1000
0011
0100
0010
1000
,
0001
0000
0000
0010
0100
0000
1000
0000
0001
0000
0100
0000
0011
1000
0001
0000
,
0010
0100
0000
1000
0101
0010
0001
0000
1000
0000
0010
0100
0011
1000
0001
0100
,
0010
0000
0000
1000
0101
0000
1000
0000
0010
0000
0100
0000
0011
0000
1000
0000
,
0100
0010
0000
0001
1100
0000
0010
0000
0100
0000
0001
0000
1010
0100
0010
0100
,
1000
0000
0000
0001
1000
0000
0000
0000
0001
0010
0100
1000
0001
0000
0100
0000
,
0100
0000
0000
0010
4000
0000
0000
3001
0010
0001
1000
0100
0010
0000
0100
0000
,
0100
0000
0000
1000
0004
0000
0000
0000
0103
0010
1000
0100
0010
0000
0001
0000
,
0001
0000
0000
1000
0040
0000
0000
1030
0001
0010
0100
1000
0000
0000
1000
0000
,
0001
0100
0100
1000
0001
0010
0010
1000
0100
0000
0010
0000
0001
1000
0010
0000
,
0200
0000
0310
1000
0001
0000
0010
0000
0100
0000
1000
0000
0001
0100
0001
0000
,
1000
0000
0010
0100
2000
0000
3100
0001
1000
0000
0100
0000
0010
0001
1000
0000
,
0200
0000
1300
0001
0100
0000
0010
0000
1000
0000
0001
0000
0010
0100
0010
0000
,
0001
0000
1000
0010
0100
0000
MMMM
0000
0001
0000
0100
0000
0010
0000
1000
0001
,
0100
0001
1000
0000
0010
0000
1000
0001
0010
0000
0100
0000
0010
0001
1000
0000
,
0010
0000
0000
0000
0100
0000
0001
1000
0001
0000
0100
0000
0010
0000
1000
0001
,
1000
0100
0010
0000
0001
0000
1000
0000
0100
0100
0001
0000
0100
0100
1000
0000
,
0010
0000
0000
0000
0200
0000
0000
0300
0010
0000
0010
0000
1000
0001
0000
1000
,
0101
0000
1000
0011
1100
0001
1000
0000
0100
0000
0100
0000
1000
0001
0000
1000
,
0010
0M00
0010
0000
0100
0000
0000
0000
0002
0000
0000
0000
0103
0000
1000
0000
0001
0000
0000
0000
0001
0000
0000
0000
1000
0000
0001
0000
0000
0000
1000
0000
,
0011
0000
1000
0101
1010
0001
1000
0000
0100
0000
0010
0000
0001
0000
1000
0000
,
0010
0100
0001
0000
2000
0000
3002
0000
0103
0000
0100
0000
0001
1000
0000
0001
,
1010
0000
0001
1100
0011
1000
0001
0000
0100
0000
0100
0000
0001
1000
0000
0001
,
0010
0M00
0010
0000
0100
0000
0000
0000
2000
0000
0000
0000
3100
0000
0001
0000
1000
0000
0000
0000
1000
0000
0000
0000
0001
0000
1000
0000
0000
0000
0001
0000
,
1100
0000
0001
1010
0101
1000
0001
0000
0100
0000
0010
0000
1000
0000
0001
0000
,
0010
0100
1000
0000
0001
0000
0000
0000
1000
0000
0002
0000
1013
0100
1000
0001
,
0100
0010
0000
1000
0101
0000
0000
0000
1000
0000
0001
0010
0101
1000
0010
0100
,
0001
0000
0000
1000
0011
0000
01MM
0000
1000
0000
0001
0000
1010
0100
0010
0001
,
1000
0010
0000
1000
0101
0000
0000
0000
1000
0001
0100
0010
1100
0000
0001
1000
,
0001
0010
0100
1000
0001
0000
0100
0000
0010
0000
0000
0000
1100
0001
0010
0000
,
0100
0010
0000
0001
1100
0010
1000
0000
0001
0000
0010
0100
1010
0001
1000
0100
,
0010
0000
0000
0001
1100
0000
0001
0000
0010
0000
0100
0000
1010
0000
0001
0000
,
0100
0010
0000
1000
0101
0000
0010
0000
0100
0000
1000
0000
0011
0100
0010
0100
,
0001
0000
0000
1000
0001
0000
0000
0000
1000
0010
0100
0001
1000
0000
0100
0000
,
0100
0000
0000
0010
0004
0000
0000
1003
0010
1000
0001
0100
0010
0000
0100
0000
,
0100
0000
0000
0001
4000
0000
0000
0000
3100
0010
0001
0100
0010
0000
1000
0000
,
1000
0000
0000
0001
0040
0000
0000
0031
1000
0010
0100
0001
0000
0000
0001
0000
,
1000
0100
0100
0001
1000
0010
0010
0001
0100
0000
0010
0000
1000
0001
0010
0000
,
0200
0000
0310
0001
1000
0000
0010
0000
0100
0000
0001
0000
1000
0100
1000
0000
,
0001
0000
0010
0100
0002
0000
0103
1000
0001
0000
0100
0000
0010
1000
0001
0000
,
0200
0000
0301
1000
0100
0000
0010
0000
0001
0000
1000
0000
0010
0100
0010
0000
,
1000
0000
0001
0010
0100
0000
MMMM
0000
1000
0000
0100
0000
0010
0000
0001
1000
,
0100
1000
0001
0000
0010
0000
0001
1000
0010
0000
0100
0000
0010
1000
0001
0000
,
0010
0000
0000
0000
0100
0000
1000
0001
1000
0000
0100
0000
0010
0000
0001
1000
,
0001
0100
0010
0000
1000
0000
0001
0000
0100
0100
1000
0000
0100
0100
0001
0000
,
0010
0000
0000
0000
0200
0000
0000
0300
0010
0000
0010
0000
0001
1000
0000
0001
,
1100
0000
0001
1010
0101
1000
0001
0000
0100
0000
0100
0000
0001
1000
0000
0001
,
0010
0M00
0010
0000
0100
0000
0000
0000
2000
0000
0000
0000
3100
0000
0001
0000
1000
0000
0000
0000
1000
0000
0000
0000
0001
0000
1000
0000
0000
0000
0001
0000
,
1010
0000
0001
1100
0011
1000
0001
0000
0100
0000
0010
0000
1000
0000
0001
0000
,
0010
0100
1000
0000
0002
0000
2003
0000
3100
0000
0100
0000
1000
0001
0000
1000
,
0011
0000
1000
0101
1010
0001
1000
0000
0100
0000
0100
0000
1000
0001
0000
1000
,
0010
0M00
0010
0000
0100
0000
0000
0000
0002
0000
0000
0000
0103
0000
1000
0000
0001
0000
0000
0000
0001
0000
0000
0000
1000
0000
0001
0000
0000
0000
1000
0000
,
0101
0000
1000
0011
1100
0001
1000
0000
0100
0000
0010
0000
0001
0000
1000
0000
,
0001
0100
0000
0000
;

//---------------dance-single - ----------------
#NOTEDATA:;
#CHARTNAME:;
#STEPSTYPE:dance-single;
#DESCRIPTION:;
#CHARTSTYLE:;
#DIFFICULTY:Beginner;
#METER:3;
#RADARVALUES:0.210943,0.229528,0.000000,0.047632,0.000000,186.000000,186.000000,0.000000,6.000000,0.000000,0.000000,0.000000,0.000000,0.000000,0.210943,0.229528,0.000000,0.047632,0.000000,186.000000,186.000000,0.000000,6.000000,0.000000,0.000000,0.000000,0.000000,0.000000;
#CREDIT:Maxx;
#NOTES:
0000
0000
0000
0000
,
0000
0000
0000
0000
,
0000
0000
0000
0000
,
0000
0000
0000
0000
,
0000
0000
0001
1000
,
0001
0000
1000
0001
,
1000
0000
0010
0100
,
0010
0000
0100
0010
,
0100
0000
0001
1000
,
0001
1000
0100
0010
,
0001
0000
1000
0001
,
1000
0001
0100
0010
,
1000
0000
0001
1000
,
0100
0000
0010
0001
,
1000
0000
0010
0100
,
0001
0000
1000
0100
,
0010
0000
0002
0000
,
0000
1003
0020
0000
,
0000
0130
0002
0000
,
0000
1003
0100
0000
,
1000
0001
0100
0010
,
1000
0001
0010
0100
,
1000
0000
0001
0100
,
0010
1000
0001
0010
,
0100
0000
1000
0001
,
0100
0010
1000
0001
,
0010
0100
0010
0001
,
1000
0010
0100
0001
,
1000
0000
0001
0001
,
0001
0000
1000
1000
,
1000
0000
0001
0001
,
0001
0000
1000
0100
,
0010
0001
1000
1000
,
1000
0000
0001
0001
,
0001
0000
1000
1000
,
1000
0000
0001
0100
,
0010
1000
0001
0000
,
1000
0000
0100
0010
,
0001
0000
1000
0000
,
0001
0000
1000
0010
,
0100
0000
0001
0000
,
1000
0000
0001
0010
,
0100
0000
1000
0000
,
0001
0000
1000
0010
,
0100
0000
0002
0000
,
0000
0013
0200
0000
,
0000
1300
0002
0000
,
0000
0103
0010
0000
,
1000
0001
0010
0100
,
1000
0001
0100
0010
,
1000
0000
0001
0010
,
0100
1000
0001
0100
,
0010
0000
1000
0100
,
0010
0001
1000
0010
,
0100
0001
1000
0100
,
1000
0001
0100
0010
,
1000
0000
0001
0001
,
0001
0000
1000
1000
,
1000
0000
0001
0001
,
0001
0000
1000
0100
,
0010
0001
1000
1000
,
1000
0000
0001
0001
,
0001
0000
1000
1000
,
1000
0000
0001
0100
,
0010
1000
0000
0000
;

//---------------dance-single - ----------------
#NOTEDATA:;
#CHARTNAME:;
#STEPSTYPE:dance-single;
#DESCRIPTION:;
#CHARTSTYLE:;
#DIFFICULTY:Easy;
#METER:4;
#RADARVALUES:0.243832,0.255031,0.015877,0.071448,0.000000,215.000000,213.000000,2.000000,9.000000,0.000000,0.000000,0.000000,0.000000,0.000000,0.243832,0.255031,0.015877,0.071448,0.000000,215.000000,213.000000,2.000000,9.000000,0.000000,0.000000,0.000000,0.000000,0.000000;
#CREDIT:Maxx;
#NOTES:
// measure 0
0000
0000
0000
0000
,  // measure 1
0000
0000
0000
0000
,  // measure 2
0000
0000
0000
0000
,  // measure 3
0000
0000
0000
0000
,  // measure 4
0000
0000
0001
1000
,  // measure 5
0001
0010
0100
1000
,  // measure 6
0001
1000
0010
0100
,  // measure 7
0001
1000
0100
0010
,  // measure 8
0001
0000
1000
0001
,  // measure 9
1000
0010
0100
0001
,  // measure 10
1000
0200
1300
0001
,  // measure 11
0100
0010
1000
0001
,  // measure 12
0010
0100
1000
0001
,  // measure 13
1000
0000
0010
0100
,  // measure 14
0001
0000
1000
0100
,  // measure 15
0010
0000
0001
1000
,  // measure 16
0010
0000
2000
0000
,  // measure 17
0000
3001
0200
0000
,  // measure 18
0000
0310
2000
0000
,  // measure 19
0000
3001
1000
0000
,  // measure 20
0001
1000
0100
0010
,  // measure 21
0001
1000
0010
0100
,  // measure 22
0001
1001
0001
0100
,  // measure 23
0010
1000
0001
0010
,  // measure 24
0100
0000
1000
0001
,  // measure 25
0100
0010
1000
0001
,  // measure 26
0010
0100
0010
0001
,  // measure 27
1000
0010
0100
0001
,  // measure 28
1000
0000
0001
0001
,  // measure 29
0001
0010
0100
0100
,  // measure 30
0100
2000
3001
0001
,  // measure 31
0001
0100
0010
1000
,  // measure 32
0001
0010
0100
0100
,  // measure 33
0100
1000
0001
0001
,  // measure 34
0001
0100
0010
0010
,  // measure 35
0010
1000
0001
0010
,  // measure 36
0100
1000
0002
1003
,  // measure 37
0010
0100
0001
1000
,  // measure 38
0001
0000
1000
0100
,  // measure 39
0010
0001
1000
0010
,  // measure 40
0100
0001
1000
0100
,  // measure 41
0010
0000
0001
0100
,  // measure 42
0010
0000
1000
0001
,  // measure 43
0010
0000
0001
1000
,  // measure 44
0100
0000
2000
0000
,  // measure 45
0000
3001
0200
0000
,  // measure 46
0000
0310
2000
0000
,  // measure 47
0000
3100
0010
0000
,  // measure 48
0001
1000
0010
0100
,  // measure 49
0001
1000
0100
0010
,  // measure 50
0001
1001
0001
0010
,  // measure 51
0100
1000
0001
0100
,  // measure 52
0010
1000
0001
0010
,  // measure 53
0100
0010
0001
1000
,  // measure 54
0010
0100
0001
1000
,  // measure 55
0100
1000
0001
0100
,  // measure 56
0010
0000
1000
1000
,  // measure 57
1000
0100
0010
0010
,  // measure 58
0010
0001
1000
1000
,  // measure 59
1000
0001
0100
0010
,  // measure 60
1000
0001
0010
0010
,  // measure 61
0010
0100
1000
1000
,  // measure 62
1000
0001
0100
0100
,  // measure 63
0100
0010
1000
0001
,  // measure 64
0010
0100
0000
0000
;

//---------------dance-single - ----------------
#NOTEDATA:;
#CHARTNAME:;
#STEPSTYPE:dance-single;
#DESCRIPTION:;
#CHARTSTYLE:;
#DIFFICULTY:Medium;
#METER:5;
#RADARVALUES:0.307342,0.331541,0.023816,0.142897,0.000000,271.000000,268.000000,3.000000,18.000000,0.000000,0.000000,0.000000,0.000000,0.000000,0.307342,0.331541,0.023816,0.142897,0.000000,271.000000,268.000000,3.000000,18.000000,0.000000,0.000000,0.000000,0.000000,0.000000;
#CREDIT:Maxx;
#NOTES:
0000
0000
0000
0000
,
0000
0000
0000
0000
,
0000
0000
0000
0000
,
0000
0000
0000
0000
,
0000
0000
0000
0000
0001
1000
0001
0000
,
1000
0000
0100
0010
0100
0000
1000
0000
,
0001
0000
1000
0000
0010
0100
0010
0000
,
1000
0000
0001
1000
0001
0000
0010
0000
,
0100
0000
1000
0001
,
1000
0010
0100
0000
0001
0000
1000
0000
,
0100
0000
0020
0000
0031
0000
1000
0001
,
0100
0000
0010
0000
1000
0001
0010
0000
,
0100
1000
0002
0100
,
1000
0000
0103
0000
0010
0000
1000
0001
,
1000
0001
2000
0100
,
0001
0000
3100
0000
0010
0000
0001
1000
,
0001
0000
2000
0010
,
0000
3001
0200
0010
,
0000
0301
2000
0100
,
0000
3001
0200
0000
,
0301
1000
0001
1000
0001
0010
0100
0000
,
1000
0000
0001
1000
0010
0000
0100
0000
,
0001
0000
1001
0000
0001
1000
0100
0000
,
0010
0000
0001
1000
0010
0000
0100
0000
,
0001
0000
0000
0000
1000
0001
0010
0000
,
0100
0000
1000
0001
0100
0000
0010
0000
,
1000
0000
0001
0000
0010
0100
1000
0000
,
0001
0000
0100
0010
1000
0000
0001
0000
,
2000
3000
0001
0001
,
0001
1000
0100
0000
0010
0000
0010
0000
,
0010
0001
2000
0000
3001
0000
0001
0000
,
0001
1000
0010
0000
0100
0000
0001
0000
,
1000
0100
0010
0010
,
0010
0001
1000
0000
0001
0000
0001
0000
,
0001
0100
0020
0000
1030
0000
1000
0000
,
1000
0001
0010
0000
0100
1000
0001
0000
,
0100
0010
2000
3001
,
0010
0001
1000
0000
0010
0000
0100
0001
,
1000
0000
0001
0010
,
0100
1000
0001
0000
1000
0000
0010
0000
,
0100
0001
1000
0000
0002
0000
0010
0000
,
1000
0013
0100
1000
,
0001
0000
2000
0010
,
0001
3010
0100
0001
,
1000
0001
0020
0100
,
0000
0031
2000
0010
,
0000
3001
0200
0010
,
0000
0301
2000
3000
,
0001
1000
0001
1000
0001
0010
0100
0000
,
1000
0000
0001
1000
0010
0000
0100
0000
,
0001
0000
1001
0000
1000
0001
0010
0000
,
0100
0000
1000
0001
0100
0000
0010
0000
,
1000
0000
0000
0000
0001
1000
0100
0000
,
0010
0000
0001
1000
0010
0000
0100
0000
,
0001
0000
1000
0000
0001
1000
0100
0000
,
0010
0000
0001
1000
0010
0000
0100
0000
,
0001
0000
1000
1000
,
1000
0100
0010
0000
0001
0000
0001
0000
,
0001
1001
1000
1000
,
1000
0001
0100
0000
0010
0000
1000
0000
,
0001
0010
0100
0100
,
0100
1000
0001
0000
1000
0000
1000
0000
,
1000
0020
0130
0100
,
0100
0001
1000
0000
0001
0000
0010
0000
,
0100
1000
0000
0000
;

//---------------dance-single - ----------------
#NOTEDATA:;
#CHARTNAME:;
#STEPSTYPE:dance-single;
#DESCRIPTION:;
#CHARTSTYLE:;
#DIFFICULTY:Hard;
#METER:7;
#RADARVALUES:0.458177,0.433553,0.015877,0.087326,0.000000,404.000000,402.000000,2.000000,11.000000,0.000000,0.000000,0.000000,0.000000,0.000000,0.458177,0.433553,0.015877,0.087326,0.000000,404.000000,402.000000,2.000000,11.000000,0.000000,0.000000,0.000000,0.000000,0.000000;
#CREDIT:Maxx;
#NOTES:
0000
0000
0000
0000
,
0000
0000
0000
0000
,
0000
0000
0000
0000
,
0000
0000
0000
0000
,
0000
0000
0000
0000
0001
1000
0100
0010
,
0002
0000
1003
0001
0100
0010
2000
0000
,
3001
0000
1000
0000
0001
0010
0100
1000
,
0002
0000
1003
0010
0100
0001
2000
0000
,
3001
0000
1000
0001
,
1000
0100
0010
0000
0001
1000
0001
0100
,
0010
0000
2000
0000
3001
0000
1000
0100
,
0010
0001
1000
0000
0001
1000
0001
0100
,
0010
1000
0001
1000
,
0100
0000
0010
0000
0001
0100
0010
1000
,
0001
0000
1000
0000
0001
0010
0100
1000
,
0001
0100
0010
0000
1000
0001
0010
0100
,
1000
0001
0100
0000
0001
1000
0010
0000
,
0100
0000
0100
0000
0001
1000
0100
0000
,
0010
0000
0010
0000
0001
1000
0010
0000
,
0100
0000
0100
0000
0001
1000
0100
0000
,
1000
0100
0010
0001
1000
0100
0010
0100
,
1000
0001
0100
0001
1000
0100
0010
0001
,
1000
0000
1010
0000
1000
0001
0010
0001
,
1000
0010
0100
0001
1000
0100
0010
0001
,
1000
0000
0100
0000
0010
0001
1000
0001
,
0100
0010
1000
0001
0010
0100
0010
0001
,
1000
0000
0010
0000
1000
0001
0100
0010
,
1000
0001
0010
0100
0010
0001
1000
0010
,
0100
0000
0001
0000
1000
0100
1000
0001
,
1000
0100
0010
0001
1000
0010
1000
0001
,
1000
0010
0200
0000
0301
1000
0001
0100
,
0001
1000
0100
0010
0001
1000
0010
0100
,
0001
0000
1000
0000
0001
0010
0001
1000
,
0001
0010
0100
1000
0001
0100
0001
1000
,
0001
0100
0020
0000
1030
0001
1000
0100
,
1000
0001
0100
0010
1000
0001
0010
0100
,
1000
0000
0001
0000
2000
0000
3001
0100
,
0010
1000
0001
0000
1000
0100
0010
0001
,
1000
0000
0002
0100
1003
0000
0001
1000
,
0100
1000
0001
0000
1000
0010
0100
0000
,
0001
1000
0100
0010
0001
0000
1000
0001
,
1000
0010
0100
0001
1000
0100
0010
0001
,
1000
0000
0010
1000
0001
0000
0010
0001
,
1000
0010
0100
0010
1000
0001
0010
0100
,
1000
0000
0001
0000
1000
0010
0100
0010
,
1000
0001
0010
0000
0100
0010
0100
1000
,
0001
0100
0010
0000
1000
0001
1000
0100
,
0010
0001
1000
0000
0001
1000
0001
0100
,
0001
0010
0100
1000
0001
0100
0010
0100
,
0001
1000
0100
0010
0001
1000
0010
0100
,
0001
0000
0011
0000
0001
1000
0100
1000
,
0001
0100
0010
1000
0001
0010
0100
0010
,
0001
0000
1000
0000
0001
0100
0001
1000
,
0100
1000
0010
0100
0010
1000
0001
0010
,
0100
0000
1000
0000
0001
0100
0001
1000
,
0100
0010
0001
1000
0010
0100
0010
1000
,
0001
0000
0010
0000
0001
1000
0100
1000
,
0001
0100
0010
1000
0001
0010
0001
1000
,
0001
0010
0200
0000
1300
0001
0100
0001
,
1000
0100
0010
0001
1000
0010
0100
0001
,
1000
0000
0100
0000
1000
0001
0100
0001
,
1000
0001
0100
0010
1000
0001
0010
0001
,
1000
0010
0200
0000
0301
1000
0100
1000
,
0001
0100
0010
1000
0001
0010
0100
1000
,
0001
0100
0000
0000
;
