#TITLE:Destroy Me;
#SUBTITLE:;
#ARTIST:Bad Computer;
#TITLETRANSLIT:;
#SUBTITLETRANSLIT:;
#ARTISTTRANSLIT:;
#GENRE:;
#CREDIT:;
#BANNER:destroy_me-bn.png;
#BACKGROUND:destroy_me-bg.png;
#LYRICSPATH:;
#CDTITLE:;
#MUSIC:Destroy Me.ogg;
#OFFSET:0.010000;
#SAMPLESTART:97.489899;
#SAMPLELENGTH:15.000000;
#SELECTABLE:YES;
#DISPLAYBPM:128.000000;
#BPMS:0.000000=128.000000
;
#STOPS:
;
#BGCHANGES:;
#KEYSOUNDS:;
#ATTACKS:;

//---------------dance-single - Maxx & Feraligatr----------------
#NOTES:
     dance-single:
     Maxx & Feraligatr:
     Challenge:
     9:
     0.550306,0.608560,0.373541,0.342412,0.190661,495.000000,447.000000,48.000000,44.000000,9.000000,0.000000,0.550306,0.608560,0.373541,0.342412,0.190661,495.000000,447.000000,48.000000,44.000000,9.000000,0.000000:
// measure 0
0000
0000
0000
0000
,  // measure 1
0000
0000
0000
0000
,  // measure 2
0000
0000
0000
0000
,  // measure 3
0000
0000
0000
0000
,  // measure 4
0001
1000
0100
0010
0001
1000
0010
0100
,  // measure 5
0002
0000
1000
0000
0100
0000
1003
0001
,  // measure 6
1000
0100
0010
0001
1000
0010
0100
0001
,  // measure 7
2000
0000
0100
0000
0001
0000
3100
0010
,  // measure 8
0001
1000
0010
0100
0001
0010
0100
1000
,  // measure 9
0002
0000
1000
0000
0010
0000
1003
0001
,  // measure 10
1000
0010
0100
0001
1000
0100
0010
0001
,  // measure 11
2000
0000
0010
0000
0001
0000
3010
0100
,  // measure 12
0001
0000
1000
0100
0010
0000
0001
0000
1000
0010
0100
0000
0001
0000
1000
0001
,  // measure 13
1000
0000
0001
0100
0001
0000
1000
0000
0001
0010
0100
0000
1000
0000
0001
1000
,  // measure 14
0010
0000
0100
0001
1000
0000
0100
0000
0010
0001
1000
0000
0010
0000
0100
0001
,  // measure 15
0100
0000
0001
1000
0001
0000
1000
0000
0001
0010
0100
0000
1000
0000
0001
1000
,  // measure 16
0010
0000
0100
0001
1000
0000
0100
0000
0010
0001
1000
0000
0010
0000
1000
0001
,  // measure 17
1000
0000
0001
0010
0001
0000
1000
0000
0001
0010
0100
0000
1000
0000
0001
1000
,  // measure 18
0010
0000
0100
0001
1000
0000
0100
0000
0010
0001
1000
0000
0010
0000
0100
0000
,  // measure 19
0004
0000
0000
0003
,  // measure 20
1001
1000
0100
0010
0010
0001
0001
2000
,  // measure 21
301M
0000
0000
0000
0000
0000
0000
0000
0000
0000
0000
0000
0100
0000
0000
0001
0000
0000
0100
0000
0000
00M0
0000
0000
0100
0000
0000
1000
0000
0000
0100
0000
0000
0000
1000
0000
0002
0000
0000
0000
0000
0000
0000
0000
0000
0003
0000
0000
,  // measure 22
1001
0000
0000
0000
0000
0000
0000
0000
1000
0000
0000
0000
0000
0000
0000
0000
0010
0000
0000
0000
0000
0100
0000
0000
0001
0000
0000
0000
0000
0000
0000
0000
1000
0000
0000
0000
0000
0000
0000
0000
0100
0000
0000
0000
0000
0000
0000
0000
0020
0000
0000
0000
0000
0000
0000
0000
0000
0000
0000
0000
0000
0000
0000
0000
,  // measure 23
0031
0000
1000
0000
1010
0000
0000
0000
1010
0000
0000
0000
0102
0000
0000
0003
,  // measure 24
1001
0001
0010
0100
0100
1000
1000
0002
,  // measure 25
M103
0000
0000
0000
0000
0000
0000
0000
0000
0000
0000
0000
0010
0000
0000
1000
0000
0000
0010
0000
0000
0M00
0000
0000
0010
0000
0000
0001
0000
0000
0010
0000
0000
0000
0001
0000
2000
0000
0000
0000
0000
0000
0000
0000
0000
3000
0000
0000
,  // measure 26
1001
0001
0100
0010
0010
1000
1000
0001
,  // measure 27
0011
0000
0000
0000
0011
0000
0000
0000
0011
0000
0000
0000
2100
0000
0000
3000
,  // measure 28
1002
0000
0000
0103
2000
0000
3010
0002
,  // measure 29
0000
0003
0002
0000
2003
0000
3010
0000
,  // measure 30
1001
0000
0000
0000
0000
0000
0000
0000
1000
0000
0000
0000
0000
0000
0000
0000
0100
0000
0000
0000
0000
1000
0000
0000
0001
0000
0000
0000
0000
0000
0000
0000
0100
0000
0000
0000
0000
0000
0000
0000
0010
0000
0000
0000
0000
0000
0000
0000
2000
0000
0000
0000
0000
0000
0000
0000
0000
0000
0000
0000
0000
0000
0000
0000
,  // measure 31
3002
0000
0000
0003
0101
0000
0000
0000
0101
0000
0000
0000
2010
0000
0000
0000
,  // measure 32
3001
0100
0010
1000
1000
0001
0001
0010
,  // measure 33
0200
1300
1001
0000
1001
0000
0101
2000
,  // measure 34
3001
0000
0000
1000
0010
1000
0002
0000
0000
0010
0000
0000
0003
0000
0000
1000
0000
0000
0010
0000
0000
0100
0000
0000
,  // measure 35
0002
0000
0000
0000
2003
0000
0000
3001
,  // measure 36
1001
0001
0100
0001
1000
0100
0010
0001
,  // measure 37
1000
0010
1000
0001
0010
0100
1000
0001
,  // measure 38
0100
0010
0100
0001
1000
0100
0010
0001
,  // measure 39
1000
0000
0010
0000
0100
0000
0010
0000
1000
0000
0001
0000
0011
0001
1000
0000
,  // measure 40
0100
0010
0011
0001
1000
0010
0110
0100
,  // measure 41
0001
1000
1100
1000
0001
0100
0110
0010
,  // measure 42
1000
0001
0011
0001
1000
0010
0110
0100
,  // measure 43
0001
1000
1100
1000
0010
0100
M101
0000
,  // measure 44
0001
1000
0100
0010
0000
0001
0000
0000
,  // measure 45
1000
0001
0000
0000
0000
0000
0000
0000
0000
0000
0000
0000
0000
0000
0000
0000
0000
0000
0000
0000
0000
0000
0000
0000
0000
0000
0000
0000
0000
0000
0000
0000
0000
0000
0000
0000
0000
0000
0000
0000
0000
0000
0000
0000
0000
0000
0000
0000
1000
0000
0000
0000
0000
0000
0000
0000
0000
0000
0000
0000
0000
0000
0000
0000
,  // measure 46
0001
0100
0010
1000
0000
0001
0000
0000
,  // measure 47
0010
0100
0000
0000
0000
0000
0000
0000
0000
0000
0000
0000
0000
0000
0000
0000
0000
0000
0000
0000
0000
0000
0000
0000
0000
0000
0000
0000
0000
0000
0000
0000
0000
0000
0000
0000
0000
0000
0000
0000
0000
0000
0000
0000
0000
0000
0000
0000
1000
0000
0000
0000
0000
0000
0000
0000
0000
0000
0000
0000
0000
0000
0000
0000
,  // measure 48
0001
1000
0100
0010
0001
1000
0010
0100
,  // measure 49
0002
0010
0000
0000
0000
0000
0000
0000
0000
0000
0000
0000
0000
0000
0000
0000
1000
0000
0000
0000
0000
0000
0000
0000
0000
0000
0000
0000
0000
0000
0000
0000
0100
0000
0000
0000
0000
0000
0000
0000
0000
0000
0000
0000
0000
0000
0000
0000
2003
0000
0000
0000
0000
0000
0000
0000
0000
0000
0000
0000
0000
0000
0000
0000
,  // measure 50
3001
0010
0100
1000
0001
0100
0010
1000
,  // measure 51
0002
0100
0000
0000
0000
0000
0000
0000
0000
0000
0000
0000
0000
0000
0000
0000
1000
0000
0000
0000
0000
0000
0000
0000
0000
0000
0000
0000
0000
0000
0000
0000
0010
0000
0000
0000
0000
0000
0000
0000
0000
0000
0000
0000
0000
0000
0000
0000
1003
0000
0000
0000
0000
0000
0000
0000
0001
0000
0000
0000
0000
0000
0000
0000
,  // measure 52
1001
1000
0100
0010
0010
0001
0001
2000
,  // measure 53
301M
0000
0000
0000
0000
0000
0000
0000
0000
0000
0000
0000
0100
0000
0000
0001
0000
0000
0100
0000
0000
00M0
0000
0000
0100
0000
0000
1000
0000
0000
0100
0000
0000
0000
1000
0000
0002
0000
0000
0000
0000
0000
0000
0000
0000
0003
0000
0000
,  // measure 54
1001
0000
0000
0000
0000
0000
0000
0000
1000
0000
0000
0000
0000
0000
0000
0000
0010
0000
0000
0000
0000
0100
0000
0000
0001
0000
0000
0000
0000
0000
0000
0000
1000
0000
0000
0000
0000
0000
0000
0000
0100
0000
0000
0000
0000
0000
0000
0000
0020
0000
0000
0000
0000
0000
0000
0000
0000
0000
0000
0000
0000
0000
0000
0000
,  // measure 55
0031
0000
1000
0000
1010
0000
0000
0000
1010
0000
0000
0000
0102
0000
0000
0003
,  // measure 56
1001
0001
0010
0100
0100
1000
1000
0002
,  // measure 57
M103
0000
0000
0000
0000
0000
0000
0000
0000
0000
0000
0000
0010
0000
0000
1000
0000
0000
0010
0000
0000
0M00
0000
0000
0010
0000
0000
0001
0000
0000
0010
0000
0000
0000
0001
0000
2000
0000
0000
0000
0000
0000
0000
0000
0000
3000
0000
0000
,  // measure 58
1001
0001
0100
0010
0010
1000
1000
0001
,  // measure 59
0011
0011
0011
2100
,  // measure 60
3002
0000
0000
1003
1000
1000
0001
0200
,  // measure 61
0040
0000
0000
0000
0000
0000
0000
0000
0000
0000
0000
0000
0000
0000
0000
0000
0000
0000
0000
0000
0000
0000
0000
0000
0000
0000
0000
0300
0000
0000
1030
0000
0001
0000
1000
0000
0100
0000
0000
0000
0000
0000
0000
0000
0000
0000
0000
0000
,  // measure 62
1001
0000
0000
0000
0000
0000
0000
0000
1000
0000
0000
0000
0000
0000
0000
0000
0001
0000
0000
0000
0000
0010
0000
0000
0100
0000
0000
0000
0000
0000
0000
0000
1000
0000
0000
0000
0000
0000
0000
0000
0001
0000
0000
0000
0000
0000
0000
0000
0002
0000
0000
0000
0000
0000
0000
0000
0000
0000
0000
0000
0000
0000
0000
0000
,  // measure 63
2003
0000
0000
3000
1010
0000
0000
0000
1010
0000
0000
0000
0102
0000
0000
0000
,  // measure 64
1003
0100
0010
0001
0001
1000
1000
0020
,  // measure 65
0130
0001
1001
0000
1001
0000
0110
0001
,  // measure 66
1000
0100
0010
0002
0000
1003
0010
0100
,  // measure 67
0002
0000
0000
0000
0000
0000
0000
0000
2003
0000
0000
3000
1200
0000
0000
0000
,  // measure 68
0300
0000
0000
0000
;

//---------------dance-single - ----------------
#NOTES:
     dance-single:
     :
     Beginner:
     1:
     0.111173,0.157588,0.031128,0.000000,0.000000,100.000000,96.000000,4.000000,0.000000,0.000000,0.000000,0.111173,0.157588,0.031128,0.000000,0.000000,100.000000,96.000000,4.000000,0.000000,0.000000,0.000000:
0000
0000
0000
0000
,
0000
0000
0000
0000
,
0000
0000
0000
0000
,
0000
0000
0000
0000
,
1000
0000
0001
0000
,
0100
0000
0000
0000
,
0001
0000
1000
0000
,
0100
0000
0000
0000
,
1000
0000
0001
0000
,
0010
0000
0000
0000
,
0001
0000
1000
0000
,
0010
0000
0000
0000
,
1000
0000
1000
0000
,
1000
0000
1000
0000
,
0001
0000
0001
0000
,
0001
0000
0001
0000
,
0100
0000
0100
0000
,
0100
0000
0100
0000
,
0010
0000
0010
0000
,
0010
0000
0000
0000
,
1000
0000
1000
0000
,
1000
0000
0000
0000
,
0001
0000
0001
0000
,
0001
0000
0000
0000
,
0010
0000
0010
0000
,
0010
0000
0000
0000
,
0100
0000
0100
0000
,
0100
0000
0000
0000
,
1000
0000
0000
0000
,
0000
0000
0000
0000
,
0001
0000
0001
0000
,
0001
0000
0000
0000
,
1000
0000
1000
0000
,
1000
0000
0000
0000
,
0010
0000
0010
0000
,
0010
0000
0000
0000
,
1000
0000
0001
0000
,
0100
0000
0000
0000
,
0001
0000
1000
0000
,
0100
0000
0000
0000
,
1000
0000
0001
0000
,
0010
0000
0000
0000
,
0001
0000
1000
0000
,
0010
0000
0000
0000
,
1000
0000
0001
0000
,
1001
0000
0000
0000
,
0001
0000
1000
0000
,
1001
0000
0000
0000
,
1000
0000
0010
0000
,
1010
0000
0000
0000
,
0001
0000
0100
0000
,
0101
0000
0000
0000
,
1000
0000
1000
0000
,
1000
0000
0000
0000
,
0001
0000
0001
0000
,
0001
0000
0000
0000
,
0010
0000
0010
0000
,
0010
0000
0000
0000
,
0100
0000
0100
0000
,
0100
0000
0000
0000
,
1000
0000
0000
0000
,
0000
0000
0000
0000
,
0001
0000
0001
0000
,
0001
0000
0000
0000
,
1000
0000
1000
0000
,
1000
0000
0000
0000
,
0010
0000
0010
0000
,
0010
0000
0100
0000
;

//---------------dance-single - ----------------
#NOTES:
     dance-single:
     :
     Easy:
     3:
     0.167871,0.236381,0.031128,0.007782,0.000000,151.000000,147.000000,4.000000,1.000000,0.000000,0.000000,0.167871,0.236381,0.031128,0.007782,0.000000,151.000000,147.000000,4.000000,1.000000,0.000000,0.000000:
0000
0000
0000
0000
,
0000
0000
0000
0000
,
0000
0000
0000
0000
,
0000
0000
0000
0000
,
1000
0001
1000
0001
,
1000
0000
0001
0000
,
1000
0010
1000
0010
,
1000
0000
0010
0000
,
0100
0001
0100
0001
,
0100
0000
0001
0000
,
1000
0100
1000
0100
,
1000
0000
0100
0000
,
1000
0000
0001
0000
,
0100
0000
0010
0000
,
1000
0000
0001
0000
,
0010
0000
0100
0000
,
1000
0000
0001
0000
,
0100
0000
0010
0000
,
1000
0000
0001
0000
,
0010
0000
0100
0000
,
1000
0001
1000
0001
,
1000
0000
0000
0000
,
0001
1000
0001
1000
,
0001
0000
0000
0000
,
0100
0010
0100
0010
,
0100
0000
0000
0000
,
0010
0100
0010
0100
,
0010
0000
0000
0000
,
1000
0000
0001
0000
,
1000
0000
0000
0000
,
0001
1000
0001
1000
,
0001
0000
0000
0000
,
1000
0001
1000
0001
,
1000
0000
0000
0000
,
0100
0010
0100
0010
,
0100
0000
0000
0000
,
1000
0000
1000
0000
,
0001
0000
0001
0000
,
0100
0000
0100
0000
,
0010
0000
0010
0000
,
1000
1000
0001
0001
,
1000
1000
0001
0001
,
0010
0000
0100
0000
,
1000
0000
0001
0000
,
1000
0000
0001
0000
,
1001
0000
0000
0000
,
0001
0000
0100
0000
,
0101
0000
0000
0000
,
1000
0000
0010
0000
,
1010
0000
0000
0000
,
1000
0000
0001
0000
,
0011
0000
0000
0000
,
1000
0001
1000
0001
,
1000
0000
0000
0000
,
0001
1000
0001
1000
,
0001
0000
0000
0000
,
0100
0010
0100
0010
,
0100
0000
0000
0000
,
0010
0100
0010
0100
,
0010
0000
0000
0000
,
1000
0000
0001
0000
,
0020
0000
0000
0000
,
0031
1000
0001
1000
,
0001
0000
0000
0000
,
1000
0001
1000
0001
,
1000
0000
0000
0000
,
0010
0000
0100
0000
,
0001
0000
1000
0000
;

//---------------dance-single - ----------------
#NOTES:
     dance-single:
     :
     Medium:
     5:
     0.270150,0.316342,0.101167,0.085603,0.000000,243.000000,230.000000,13.000000,11.000000,0.000000,0.000000,0.270150,0.316342,0.101167,0.085603,0.000000,243.000000,230.000000,13.000000,11.000000,0.000000,0.000000:
0000
0000
0000
0000
,
0000
0000
0000
0000
,
0000
0000
0000
0000
,
0000
0000
0000
0000
,
1000
0001
0100
0010
0000
1000
0000
0000
,
0002
0000
0000
1003
,
0001
0010
0100
1000
0000
0001
0000
0000
,
0200
0000
0000
0301
,
1000
0001
0010
0100
0000
1000
0000
0000
,
0002
0000
0000
0103
,
0010
1000
0001
0010
0000
0100
0000
0000
,
2000
0000
0000
3001
,
1000
0000
0010
0000
1000
0000
0010
0100
,
0001
0000
0100
0000
0001
0000
0100
0010
,
1000
0000
0001
0000
1000
0000
0001
0010
,
0100
0000
1000
0000
0100
0000
1000
0001
,
0100
0000
0001
0000
0100
0000
0001
1000
,
0010
0000
1000
0000
0010
0000
0100
0001
,
1000
0000
0001
0000
1000
0000
0001
0010
,
0200
0000
0000
0300
,
1000
0001
1000
0001
,
0100
0000
0110
0000
,
1000
0001
1000
0001
,
0010
0000
0110
0000
,
0001
1000
0001
1000
,
0010
0000
0110
0000
,
1000
0001
1000
0001
,
0100
0000
0100
0000
,
0110
0000
1000
0000
,
0001
0000
0000
0000
,
1000
0001
1000
0001
,
0010
0000
0110
0000
,
0001
1000
0001
1000
,
0100
0000
0110
0000
,
1000
0001
0100
0010
,
2000
0000
3001
0000
,
1001
0001
1000
0001
,
0100
0001
0100
0001
,
1000
0100
1000
0100
,
0010
0000
0001
0000
0010
0000
0001
0010
,
0100
0000
1000
0000
0100
0000
1000
0001
,
0100
0000
0001
0000
0100
0000
0001
1000
,
0010
0000
1000
0000
0010
0000
1000
0001
,
0100
0001
0100
0020
,
1030
0001
0100
0010
0000
1000
0000
0000
,
0200
0000
0000
1300
,
0001
0100
0010
1000
0000
0001
0000
0000
,
0020
0000
0000
0031
,
1000
0010
0100
0001
0000
1000
0100
0010
,
0001
1000
0001
1000
,
0001
0010
0100
1000
0000
0001
0100
0010
,
1000
0001
1000
0001
,
1000
0001
1000
0001
,
0100
0000
0110
0000
,
0001
1000
0001
1000
,
0100
0000
0110
0000
,
1000
0001
1000
0001
,
0010
0000
0110
0000
,
0001
1000
0001
1000
,
0010
0000
0010
0000
,
1000
0000
0001
0000
,
0020
0000
0000
0030
,
0001
1000
0001
1000
,
0100
0000
0110
0000
,
1000
0001
1000
0001
,
0100
0000
0110
0000
,
0001
0100
0010
1000
0000
0001
0010
0100
,
2000
0000
3001
1001
;

//---------------dance-single - Maxx----------------
#NOTES:
     dance-single:
     :
     Hard:
     8:
     0.521401,0.582101,0.365759,0.342412,0.081712,469.000000,422.000000,47.000000,44.000000,5.000000,0.000000,0.521401,0.582101,0.365759,0.342412,0.081712,469.000000,422.000000,47.000000,44.000000,5.000000,0.000000:
0000
0000
0000
0000
,
0000
0000
0000
0000
,
0000
0000
0000
0000
,
0000
0000
0000
0000
,
0001
1000
0100
0010
0001
1000
0010
0100
,
0002
0000
1000
0000
0100
0000
1003
0001
,
1000
0100
0010
0001
1000
0010
0100
0001
,
2000
0000
0100
0000
0001
0000
3100
0010
,
0001
1000
0010
0100
0001
0010
0100
1000
,
0002
0000
1000
0000
0010
0000
1003
0001
,
1000
0010
0100
0001
1000
0100
0010
0001
,
2000
0000
0010
0000
0001
0000
3010
0100
,
0001
1000
0100
0010
0001
1000
0010
0100
,
0010
1000
0001
0010
0100
1000
0001
0100
,
0001
1000
0100
0010
0001
1000
0100
0010
,
0100
1000
0001
0100
0010
1000
0001
0010
,
0001
1000
0100
0010
0001
1000
0010
0100
,
0010
1000
0001
0010
0100
1000
0001
0100
,
0001
1000
0100
0010
0001
1000
0010
0100
,
0004
0000
0000
0003
,
1001
1000
0100
0010
0010
0001
0001
2000
,
301M
0000
0000
0000
0100
0001
0100
0000
0010
1000
0010
1000
0002
0000
0000
0003
,
1001
0000
1000
0000
0010
0100
0001
0000
1000
0000
0100
0000
0020
0000
0000
0000
,
0031
0000
1000
0000
1010
0000
0000
0000
1010
0000
0000
0000
0102
0000
0000
0003
,
1001
0001
0010
0100
0100
1000
1000
0002
,
M103
0000
0000
0000
0010
1000
0010
0000
0100
0001
0100
0001
2000
0000
0000
3000
,
1001
0001
0100
0010
0010
1000
1000
0001
,
0011
0000
0000
0000
0011
0000
0000
0000
0011
0000
0000
0000
2100
0000
0000
3000
,
1002
0000
0000
0103
2000
0000
3010
0002
,
0000
0003
0002
0000
2003
0000
3010
0000
,
1001
0000
1000
0000
0100
1000
0001
0000
0100
0000
0010
0000
2000
0000
0000
0000
,
3002
0000
0000
0003
0101
0000
0000
0000
0101
0000
0000
0000
2010
0000
0000
0000
,
3001
0100
0010
1000
1000
0001
0001
0010
,
0200
1300
1001
0000
1001
0000
0101
2000
,
3001
0100
0002
0010
0003
1000
0010
0100
,
0002
0000
0000
0000
2003
0000
0000
3001
,
1001
0001
0100
0001
1000
0100
0010
0001
,
1000
0010
1000
0001
0010
0100
1000
0001
,
0100
0010
0100
0001
1000
0100
0010
0001
,
1000
0000
0010
0000
0100
0000
0010
0000
1000
0000
0001
0000
0010
0001
1000
0000
,
0100
0010
0011
0001
1000
0010
0110
0100
,
0001
1000
1100
1000
0001
0100
0110
0010
,
1000
0001
0011
0001
1000
0010
0110
0100
,
0001
1000
1100
1000
0010
0100
M101
0000
,
0001
1000
0100
0010
0000
0001
0000
0000
,
1000
0001
0000
0000
0000
0000
0000
0000
0000
0000
0000
0000
0000
0000
0000
0000
0000
0000
0000
0000
0000
0000
0000
0000
0000
0000
0000
0000
0000
0000
0000
0000
0000
0000
0000
0000
0000
0000
0000
0000
0000
0000
0000
0000
0000
0000
0000
0000
1000
0000
0000
0000
0000
0000
0000
0000
0000
0000
0000
0000
0000
0000
0000
0000
,
0001
0100
0010
1000
0000
0001
0000
0000
,
0010
0100
0000
0000
0000
0000
0000
0000
0000
0000
0000
0000
0000
0000
0000
0000
0000
0000
0000
0000
0000
0000
0000
0000
0000
0000
0000
0000
0000
0000
0000
0000
0000
0000
0000
0000
0000
0000
0000
0000
0000
0000
0000
0000
0000
0000
0000
0000
1000
0000
0000
0000
0000
0000
0000
0000
0000
0000
0000
0000
0000
0000
0000
0000
,
0001
1000
0100
0010
0001
1000
0010
0100
,
0002
0010
0000
0000
0000
0000
0000
0000
0000
0000
0000
0000
0000
0000
0000
0000
1000
0000
0000
0000
0000
0000
0000
0000
0000
0000
0000
0000
0000
0000
0000
0000
0100
0000
0000
0000
0000
0000
0000
0000
0000
0000
0000
0000
0000
0000
0000
0000
2003
0000
0000
0000
0000
0000
0000
0000
0000
0000
0000
0000
0000
0000
0000
0000
,
3001
0010
0100
1000
0001
0100
0010
1000
,
0002
0100
0000
0000
0000
0000
0000
0000
0000
0000
0000
0000
0000
0000
0000
0000
1000
0000
0000
0000
0000
0000
0000
0000
0000
0000
0000
0000
0000
0000
0000
0000
0010
0000
0000
0000
0000
0000
0000
0000
0000
0000
0000
0000
0000
0000
0000
0000
1003
0000
0000
0000
0000
0000
0000
0000
0001
0000
0000
0000
0000
0000
0000
0000
,
1001
1000
0100
0010
0010
0001
0001
2000
,
301M
0000
0000
0000
0100
0001
0100
0000
0010
1000
0010
1000
0002
0000
0000
0003
,
1001
0000
1000
0000
0010
0100
0001
0000
1000
0000
0100
0000
0020
0000
0000
0000
,
0031
0000
1000
0000
1010
0000
0000
0000
1010
0000
0000
0000
0102
0000
0000
0003
,
1001
0001
0010
0100
0100
1000
1000
0002
,
M103
0000
0000
0000
0010
1000
0010
0000
0100
0001
0100
0001
2000
0000
0000
3000
,
1001
0001
0100
0010
0010
1000
1000
0001
,
0011
0011
0011
2100
,
3002
0000
0000
1003
1000
1000
0001
0100
,
0020
0000
0000
0130
,
1001
0000
1000
0000
0001
0010
0100
0000
1000
0000
0001
0000
0002
0000
0000
0000
,
2003
0000
0000
3000
1010
0000
0000
0000
1010
0000
0000
0000
0102
0000
0000
0000
,
1003
0100
0010
0001
0001
1000
1000
0020
,
0130
0001
1001
0000
1001
0000
0110
0001
,
1000
0100
0010
0002
0000
1003
0010
0100
,
0002
0000
0000
0000
0000
0000
0000
0000
2003
0000
0000
3000
1200
0000
0000
0000
,
0300
0000
0000
0000
;
