#TITLE:Desert Palace Zone;
#SUBTITLE:;
#ARTIST:AshZone;
#TITLETRANSLIT:;
#SUBTITLETRANSLIT:;
#ARTISTTRANSLIT:;
#GENRE:;
#CREDIT:;
#BANNER:desert palace bn.png;
#BACKGROUND:desert palace.png;
#LYRICSPATH:;
#CDTITLE:;
#MUSIC:Desert Palace Zone.ogg;
#OFFSET:-0.015000;
#SAMPLESTART:75.204002;
#SAMPLELENGTH:20.000000;
#SELECTABLE:YES;
#BPMS:0.000000=130.000000
;
#STOPS:
;
#BGCHANGES:;
#KEYSOUNDS:;
#ATTACKS:;

//---------------dance-single - ----------------
#NOTES:
     dance-single:
     :
     Challenge:
     10:
     0.713496,0.797786,0.124654,0.265929,0.831027,601.000000,586.000000,15.000000,32.000000,3.000000,0.000000,0.713496,0.797786,0.124654,0.265929,0.831027,601.000000,586.000000,15.000000,32.000000,3.000000,0.000000:
0000
0000
0000
0000
,
0000
0000
0000
0000
,
0000
0000
0000
0000
,
0000
0000
0000
0000
0000
0000
0000
0000
0000
0000
0000
0000
0001
1000
0001
1000
,
0010
0000
0000
0100
0010
0000
1000
0000
0001
0000
0000
0010
0100
0000
1000
0000
,
0001
0100
0010
0000
0010
1000
0001
0000
0001
0010
0100
0000
0100
1000
0001
0000
,
0100
0000
0000
0000
0000
0000
0010
0000
1000
0000
0000
0000
0001
0000
0000
0000
1004
0000
0000
0000
0000
0000
0000
0000
0103
00M0
0100
0000
1000
0000
0001
0000
,
0010
0100
1000
0000
1000
0001
0100
0000
0100
0010
1000
0000
1000
0001
0010
0001
,
2000
0000
0000
0000
3010
0000
0100
0001
2000
0000
0000
0000
3001
0000
0010
0100
,
1000
0001
0100
0000
0100
0010
1000
0000
1000
0001
0010
0000
0010
0100
1000
0001
,
0040
0000
0000
0000
0031
0000
0100
0000
1000
0000
0001
0000
0010
1000
0001
1000
,
0100
0010
0001
0000
0001
1000
0010
0000
0010
0100
0001
0000
0001
1000
0100
1000
,
0001
0000
0001
0000
0100
0000
0100
0000
0010
0000
0000
0000
1000
0000
0000
0000
0001
0000
0000
0000
0004
0000
0000
0000
0013
0M00
0010
0000
1000
0000
0001
0000
,
0010
0100
1000
0000
1000
0010
0100
0000
0100
0001
1000
0000
1000
0100
1000
0001
,
0100
0000
0010
1000
0000
0010
1000
0000
0100
0000
0010
0001
0000
0010
0001
1000
,
0010
0100
0001
0000
0001
1000
0100
0000
0100
0010
0001
0000
0001
1000
0010
0100
,
0004
0000
1003
0100
0001
1000
0040
0000
,
0031
1000
0010
0000
0010
1000
0001
0000
0001
0010
0100
0000
0100
1000
0001
0100
,
0010
0000
1000
0001
0000
1000
0001
0000
0100
0000
0010
1000
0000
0010
1000
0001
,
0010
0000
0100
0000
0010
0001
1000
0000
1000
0010
0100
0000
0100
0001
1000
0100
,
0010
0000
0000
0000
0000
0000
0001
0000
0000
0000
0000
0000
1000
0000
0000
0000
0010
0100
0000
0000
0000
0000
0001
0000
0000
0000
0000
0000
1000
0000
0000
0000
,
2001
0000
0000
3001
0000
0000
0010
0000
0001
0000
0000
1000
0000
0000
0010
0000
,
0100
0000
0000
0001
0000
0000
1000
0000
0100
0000
0000
1000
0000
0000
0001
0000
,
0102
0000
0000
0000
1003
0000
0200
0000
0000
0000
0000
0000
0310
0000
0001
1000
,
0020
0000
0000
0000
0130
0000
0002
0000
0000
0000
0000
0000
1003
0000
0100
0010
,
0002
0000
0000
0000
1003
0000
0020
0000
0000
0000
0000
0000
1030
0000
0001
0010
,
0000
0000
0100
1000
0001
0000
0100
0010
0000
1000
0001
1000
0100
0010
0001
1000
,
0010
0000
0100
0010
1000
0000
0001
0010
0100
0000
1000
0001
1000
0000
0001
0001
,
0100
0000
0010
1000
0001
0000
0010
0100
1000
0001
0000
0001
0100
0000
0010
1000
,
0001
0000
0010
0100
0010
0000
0001
1000
0010
0000
0100
0010
1000
0000
0001
0010
,
0100
0000
1000
0001
1000
0000
0010
0100
0001
1000
0100
1000
0100
0010
0001
1000
,
0020
0000
0000
0000
1000
0000
0000
0000
0230
0000
0000
0301
1000
0000
0100
0000
,
0020
0000
0000
0000
0031
0000
1000
0010
0200
0000
0000
0301
0010
0000
0002
0000
,
0203
0000
0010
0000
0301
2000
3100
0010
,
0001
1000
0001
0100
0000
0010
1000
0100
0000
0010
0001
0100
0000
0010
1000
0001
,
0020
0000
0000
0000
0001
0000
0000
0000
0130
0000
0000
1000
0001
0000
0100
0000
,
0020
0000
0000
0000
2030
0000
3001
0010
0200
0000
0000
1300
0001
0000
1000
0000
,
1001
0000
0001
0010
0001
0000
1000
0010
1000
0000
0001
0100
0001
0000
1000
0100
,
0010
0000
0001
1000
0001
0000
0100
0010
0100
0000
0010
1000
0200
0000
0310
0001
,
1000
0000
0000
0000
0010
0000
0000
0000
0100
0000
0000
0000
0001
0000
1000
0000
0100
0000
0000
0000
0010
0000
0100
0000
1000
0000
0000
0000
0001
1000
0001
0000
,
0100
0000
0010
0000
0100
0000
0001
0000
1000
0000
0100
0000
0010
0000
0001
1000
0001
0000
0100
0000
0010
0000
1000
0000
0004
0000
0000
0000
0000
0000
0000
0000
,
1003
0100
0010
0000
0010
0001
1000
0000
1000
0010
0100
0000
0100
0001
1000
0100
,
0020
0000
0000
0000
0031
0000
0001
1000
0020
0000
0000
0000
1030
0000
0010
1000
,
0001
0010
0100
0000
0100
1000
0001
0000
0001
0100
0010
0000
0010
0100
0001
1000
,
0400
0000
1300
0100
0001
1000
0040
0000
,
0031
1000
0010
0000
0010
0100
0001
0000
0001
1000
0100
0000
0100
1000
0001
0100
,
0010
0000
1000
0001
0000
1000
0001
0000
0010
0000
0100
1000
0000
0100
1000
0001
,
0100
0001
1000
0000
1000
0010
0100
0000
0100
0001
1000
0000
1000
0100
0010
0001
,
0100
000M
0100
0000
1000
0000
0010
0000
0001
0000
1000
0100
0004
0000
0000
0003
,
1001
1100
0110
0011
,
1001
0000
1000
0010
0100
0000
0002
0100
,
2003
0100
3001
0010
0100
0000
0010
0001
,
1000
0000
0000
0000
0010
0000
0100
0000
0001
0000
0020
0000
0130
1000
0001
0100
,
0101
0110
1010
1001
,
1100
0000
0000
0000
1000
0000
0100
0000
0001
0000
0000
0000
0100
1000
0001
0100
,
0010
1000
0010
0100
0010
1000
0001
0010
0001
0100
0010
1000
0001
0010
0100
1000
,
0004
0100
0000
1000
0003
0010
0001
1000
0010
0100
2000
0000
3100
0001
1000
0100
,
0010
0001
1000
0000
1000
0010
0100
0000
0100
0001
1000
0000
1000
0100
0010
0100
,
2000
0000
0000
0000
3001
0000
0100
0010
2000
0000
0000
0000
3001
0000
1000
0010
,
0000
0000
0100
0000
0010
1000
0001
0000
0001
0010
0100
0000
0100
1000
0001
0100
,
0020
0000
0000
0000
1030
0000
0001
1000
0200
0000
0000
0000
4300
0000
0000
0000
,
3001
0000
0000
0000
0000
0000
0100
0000
0000
0000
0000
0000
0010
0000
0000
0000
1000
0001
0000
0000
0000
0000
0010
0000
0000
0000
0000
0000
0100
0000
0000
0000
,
2100
0000
0000
3001
0000
0000
0100
0000
0010
0000
0000
0100
0000
0000
0001
0000
,
1000
0000
0000
0100
0000
0000
0010
0000
0100
0000
0000
1000
0000
0000
0001
0000
,
0100
0000
0000
0000
;

//---------------dance-single - ----------------
#NOTES:
     dance-single:
     :
     Hard:
     8:
     0.487932,0.531857,0.033241,0.465375,0.203602,411.000000,407.000000,4.000000,56.000000,1.000000,0.000000,0.487932,0.531857,0.033241,0.465375,0.203602,411.000000,407.000000,4.000000,56.000000,1.000000,0.000000:
0000
0000
0000
0000
,
0000
0000
0000
0000
,
0000
0000
0000
0000
,
0000
0000
0000
0000
,
0001
0000
0000
0100
0010
0000
1000
0000
0001
0000
0000
0010
0100
0000
1000
0000
,
0001
0001
0100
0100
0010
0010
1000
1000
,
0001
0000
0000
0010
0100
0000
0010
0000
0002
0000
0000
0000
1003
0000
0001
0000
,
1000
1000
0010
0010
0100
0100
0001
0001
,
2000
0000
3100
1000
0002
0000
0103
0010
,
1000
1000
0001
0001
1000
1000
0100
0100
,
0020
0000
0031
0100
1000
0100
0001
1000
,
0100
0100
0010
0010
0100
0100
1000
1000
,
0001
0100
0001
0100
0001
0000
1000
0000
0001
0000
0002
0000
0013
0000
0100
0000
,
1000
1000
0001
0001
0100
0100
0010
0010
,
1000
0000
0001
1000
0000
0001
1000
0000
0100
0000
0010
0001
0000
0010
0001
0000
,
1000
1000
0010
0010
0100
0100
0001
0001
,
2000
0000
3001
0010
1000
0010
0002
0000
,
1003
1000
0001
0001
0100
0100
0010
0010
,
1000
0000
0010
1000
0000
0010
1000
0000
0001
0000
1000
0001
0000
1000
0001
0000
,
0010
0100
1000
0001
0100
0010
1000
0001
,
0010
0000
0000
0001
0000
0000
1000
0000
0010
0000
0000
0100
0000
0000
0001
0000
,
2001
0000
0000
3001
0000
0000
0010
0000
0001
0000
0000
1000
0000
0000
0010
0000
,
0100
0000
0000
0001
0000
0000
1000
0000
0100
0000
0000
1000
0000
0000
0001
0000
,
0102
0000
0003
2000
0000
0000
3000
0100
,
0020
0000
0030
0002
0000
0000
0003
1000
,
0020
0000
0000
0000
0030
0000
0200
0000
0000
0000
0000
0000
0300
0000
0001
1000
,
0000
0000
0100
0010
0000
0000
0001
1000
0000
0010
0000
0010
0000
0000
1000
0000
,
0002
0000
0000
0000
1003
0000
0020
0000
0130
0000
0001
0000
1000
0000
0100
0010
,
0002
0000
1003
0000
0010
0000
0200
0000
0310
0000
1000
0000
0001
0000
0010
0100
,
2000
0000
3001
0000
0100
0000
0020
0000
0130
0000
0001
0000
1000
0000
0100
0010
,
0000
0000
0001
1000
0000
0000
0010
0100
0000
0001
0000
0001
0000
0000
1000
0000
,
0200
0000
0000
0000
0000
0000
0000
0000
0320
0000
0000
0032
0000
0000
2003
0000
,
3020
0000
0000
0000
0230
0000
0000
0000
0320
0000
0000
2030
0000
0000
3002
0000
,
0023
0000
0000
0000
0000
0032
0000
2003
,
3200
0000
0000
0000
0000
0000
0000
0000
0000
0000
0000
0000
0000
0000
1300
0001
,
0200
0000
0000
0000
0000
0000
0000
0000
0320
0000
0000
2030
0000
0000
3002
0000
,
0023
0000
0000
0000
0230
0000
0000
0000
2300
0000
0000
3002
0000
0000
0103
0000
,
0110
0000
0010
0000
1000
0000
0001
0000
0100
0000
0001
0000
1000
0000
0100
0010
,
0001
0000
1000
0000
0010
0000
0100
0000
0010
0000
1000
0000
0002
0000
1003
0100
,
1000
0001
0100
0010
1000
0001
0010
0100
,
0010
0001
1000
0010
0100
0001
2000
0000
,
3001
0001
0010
0010
0100
0100
1000
1000
,
0002
0000
0103
0010
2000
0000
3001
0010
,
0100
0100
0010
0010
0001
0001
1000
1000
,
0020
0000
1030
0100
0001
0100
2000
0000
,
3001
0001
0100
0100
0010
0010
1000
1000
,
0001
0000
1000
0100
0000
1000
0100
0000
1000
0000
0001
0100
0000
0001
0100
0000
,
0010
0010
0100
0100
0001
0001
1000
1000
,
0100
00M0
0100
0000
0001
0000
0010
0000
1000
0000
0010
0000
0002
0000
0000
0000
,
1003
0010
0100
0001
,
1000
0000
0100
0010
0001
0000
1000
0010
,
0100
0010
1000
0001
1000
0000
0001
0010
,
0100
0000
1000
0001
0200
0320
0000
2030
,
3001
0010
0001
1000
,
0010
0000
0100
0001
1000
0000
0100
0010
,
0100
1000
0001
0100
0010
0100
0001
1000
,
0400
0000
1300
0001
0100
0020
1030
0001
,
0010
0010
0100
0100
1000
1000
0001
0001
,
0200
0000
0310
1000
0002
0000
0013
0100
,
0000
1000
0001
0001
0100
0100
0010
0010
,
2000
0000
3001
0100
0002
0000
4003
0000
,
3001
0000
0000
0010
0000
0000
0100
0000
1000
0000
0000
0001
0000
0000
0100
0000
,
0101
0000
0000
0001
0000
0000
1000
0000
0100
0000
0000
0010
0000
0000
0100
0000
,
1000
0000
0000
0001
0000
0000
0100
0000
0010
0000
0000
1000
0000
0000
0001
0000
,
1000
0000
0000
0000
;

//---------------dance-single - ----------------
#NOTES:
     dance-single:
     :
     Medium:
     6:
     0.347844,0.425486,0.024931,0.490306,0.000000,293.000000,290.000000,3.000000,59.000000,0.000000,0.000000,0.347844,0.425486,0.024931,0.490306,0.000000,293.000000,290.000000,3.000000,59.000000,0.000000,0.000000:
0000
0000
0000
0000
,
0000
0000
0000
0000
,
0000
0000
0000
0000
,
0000
0000
0000
0000
,
0001
0100
0010
1000
,
0001
0010
0100
0010
0001
1000
0010
0100
,
0001
1000
0200
0310
,
0001
1000
0010
0100
0010
1000
0001
0010
,
0200
0300
2000
3000
,
0001
0100
0001
1000
0100
1000
0001
0100
,
0020
0000
0030
1000
0100
0010
0001
1000
,
0001
0100
0010
0100
0001
1000
0100
0010
,
0002
0000
0003
0000
1000
1000
0001
0100
,
0001
1000
0100
0010
0001
1000
0010
1000
,
0002
0000
2003
0000
,
3100
0010
0100
1000
0001
0100
0010
1000
,
0002
0000
0003
0010
0001
1000
0020
0000
,
0130
0001
1000
0100
0010
0100
1000
0001
,
0200
0000
0320
0000
,
1030
0000
0001
0010
0001
1000
0010
0100
,
0001
1000
0100
0010
,
0011
0001
1000
0010
,
0100
0001
1000
0100
,
2000
0000
0000
3002
0000
0000
0000
0103
,
0020
0000
0030
2000
0000
0000
0000
3001
,
0020
0000
0030
0200
0000
0000
0300
0000
,
1000
0001
1000
0010
,
0200
0000
0301
2000
0000
0000
3000
0100
,
0020
0000
0031
2000
0000
0000
3000
0001
,
0200
0000
0310
0200
0000
0300
0000
0001
,
1000
0100
0010
0100
,
2000
0000
3002
0103
,
0020
0000
0230
0000
0302
0000
1003
0200
,
0320
0000
0000
0000
0000
0032
0000
2003
,
3020
0000
0000
0000
,
0230
0000
0000
0000
0320
0000
1030
0002
,
0023
0000
0230
0000
2300
0000
3001
0100
,
0010
1000
0001
0010
,
0100
0000
1000
0000
0001
0000
0200
0300
,
0010
0010
1000
1000
,
0001
0001
0010
0020
,
0031
1000
0010
1000
0001
0010
0100
1000
,
0002
0003
2000
3000
,
0010
0100
0001
1000
0100
0010
0100
1000
,
0002
0000
0003
0100
0010
1000
0002
0000
,
0013
0100
0010
0001
1000
0010
0100
0001
,
2000
0000
3200
0000
,
0310
0001
1000
0010
0100
0001
1000
0100
,
0010
0010
0000
0001
1000
0010
2000
0000
,
3001
0010
0100
0010
,
0001
1000
0010
2000
,
3002
2003
3100
0010
,
0001
0000
0000
0000
1000
0000
0000
0000
0010
0000
0200
0000
0000
0000
0000
0300
,
0101
0001
1000
0100
,
0010
0000
0001
0000
0100
0000
0010
1000
,
0001
0010
0100
0010
0001
1000
0010
0100
,
0002
0000
1003
0001
0010
0200
1300
0001
,
0010
0001
1000
0010
1000
0001
0100
0010
,
2000
3000
0002
0003
,
0000
0010
0100
1000
0001
0100
0010
0100
,
0002
0003
2000
3200
,
0310
0001
1000
0010
,
1010
1000
0001
1000
,
0100
0010
0001
1000
,
0010
0000
0000
0000
;

//---------------dance-single - ----------------
#NOTES:
     dance-single:
     :
     Easy:
     3:
     0.229126,0.239336,0.016621,0.232688,0.000000,193.000000,191.000000,2.000000,28.000000,0.000000,0.000000,0.229126,0.239336,0.016621,0.232688,0.000000,193.000000,191.000000,2.000000,28.000000,0.000000,0.000000:
0000
0000
0000
0000
,
0000
0000
0000
0000
,
0000
0000
0000
0000
,
0000
0000
0000
0000
,
0001
0000
1000
0000
,
0100
0010
0001
1000
,
0010
0000
0200
0310
,
1000
0001
0010
0100
,
0020
0030
0002
0003
,
1000
0010
0100
0001
,
2000
3000
0001
0100
,
0010
1000
0001
0010
,
0100
1000
0001
1000
,
0100
0010
0001
1000
,
0020
0030
0200
0300
,
0001
1000
0001
0010
,
0200
0300
1000
0001
,
0100
0010
0100
0001
,
2000
3000
0200
0300
,
0010
0001
1000
0010
,
0100
0000
0001
0000
,
1001
0000
1000
0000
,
0100
0000
0010
0000
,
0001
0000
1000
0000
,
0010
0000
1000
0000
,
0001
0000
0010
0000
,
0100
0000
1000
0000
,
0001
1000
0010
0100
,
0010
1000
0001
0010
,
0100
1000
0001
0100
,
0010
1000
0001
0010
,
0002
0000
2003
0000
,
3020
0000
0230
0000
,
0302
0000
2003
0000
,
3100
0010
0100
1000
,
0002
0000
2003
0000
,
3020
0000
0230
0000
,
0301
1000
0001
1000
,
0100
0010
0100
0010
,
0001
1000
0010
0100
,
0001
1000
0100
0010
,
0001
1000
0010
1000
,
0002
0003
0020
0030
,
0100
1000
0001
0100
,
0020
0030
1000
0001
,
1000
0100
0010
0001
,
2000
3000
0020
0030
,
0100
0001
1000
0100
,
1000
0001
0100
0010
,
1000
1000
0001
0001
,
0010
0100
1000
0001
,
0100
0001
0100
0010
,
1000
0001
0010
0100
,
1000
0001
1000
0001
,
0100
0010
1000
0001
,
0010
0001
0010
0100
,
1000
1000
0001
0100
,
0010
1000
0001
0010
,
0200
0300
0020
0030
,
0000
0001
1000
0010
,
0200
0300
0002
1003
,
0100
0000
0010
0000
,
0011
0000
1000
0000
,
0010
0000
0100
0000
,
0001
0000
0000
0000
;

//---------------dance-single - ----------------
#NOTES:
     dance-single:
     :
     Beginner:
     1:
     0.072418,0.079779,0.000000,0.000000,0.000000,61.000000,61.000000,0.000000,0.000000,0.000000,0.000000,0.072418,0.079779,0.000000,0.000000,0.000000,61.000000,61.000000,0.000000,0.000000,0.000000,0.000000:
// measure 0
0000
0000
0000
0000
,  // measure 1
0000
0000
0000
0000
,  // measure 2
0000
0000
0000
0000
,  // measure 3
0000
0000
0000
0000
,  // measure 4
0001
0000
0000
0000
,  // measure 5
1000
0000
0000
0000
,  // measure 6
0010
0000
0000
0000
,  // measure 7
0100
0000
0000
0000
,  // measure 8
0001
0000
0000
0000
,  // measure 9
1000
0000
0000
0000
,  // measure 10
0100
0000
0000
0000
,  // measure 11
0010
0000
0000
0000
,  // measure 12
0001
0000
0000
0000
,  // measure 13
1000
0000
0000
0000
,  // measure 14
0010
0000
0000
0000
,  // measure 15
0100
0000
0000
0000
,  // measure 16
0010
0000
0000
0000
,  // measure 17
1000
0000
0000
0000
,  // measure 18
0001
0000
0000
0000
,  // measure 19
0010
0000
0000
0000
,  // measure 20
0100
0000
0000
0000
,  // measure 21
0010
0000
0000
0000
,  // measure 22
0001
0000
0000
0000
,  // measure 23
1000
0000
0000
0000
,  // measure 24
0010
0000
0000
0000
,  // measure 25
0100
0000
0000
0000
,  // measure 26
0001
0000
0000
0000
,  // measure 27
1000
0000
0000
0000
,  // measure 28
0100
0000
0000
0000
,  // measure 29
0010
0000
0000
0000
,  // measure 30
0001
0000
0000
0000
,  // measure 31
1000
0000
0000
0000
,  // measure 32
0010
0000
0000
0000
,  // measure 33
1000
0000
0000
0000
,  // measure 34
0001
0000
0000
0000
,  // measure 35
0010
0000
0000
0000
,  // measure 36
0001
0000
0000
0000
,  // measure 37
1000
0000
0000
0000
,  // measure 38
0010
0000
0000
0000
,  // measure 39
0100
0000
0000
0000
,  // measure 40
0001
0000
0000
0000
,  // measure 41
1000
0000
0000
0000
,  // measure 42
0100
0000
0000
0000
,  // measure 43
0010
0000
0000
0000
,  // measure 44
0100
0000
0000
0000
,  // measure 45
1000
0000
0000
0000
,  // measure 46
0001
0000
0000
0000
,  // measure 47
0100
0000
0000
0000
,  // measure 48
0010
0000
0000
0000
,  // measure 49
0100
0000
0000
0000
,  // measure 50
0001
0000
0000
0000
,  // measure 51
1000
0000
0000
0000
,  // measure 52
0100
0000
0000
0000
,  // measure 53
1000
0000
0000
0000
,  // measure 54
0001
0000
0000
0000
,  // measure 55
0100
0000
0000
0000
,  // measure 56
0001
0000
0000
0000
,  // measure 57
1000
0000
0000
0000
,  // measure 58
0100
0000
0000
0000
,  // measure 59
0010
0000
0000
0000
,  // measure 60
0001
0000
0000
0000
,  // measure 61
1000
0000
0000
0000
,  // measure 62
0010
0000
0000
0000
,  // measure 63
0100
0000
0000
0000
,  // measure 64
0001
0000
0000
0000
;
