#TITLE:Deep Down Low;
#SUBTITLE:(Gillepsy Remix);
#ARTIST:Valentino Khan;
#TITLETRANSLIT:;
#SUBTITLETRANSLIT:;
#ARTISTTRANSLIT:;
#GENRE:Future;
#CREDIT:;
#BANNER:Deep_Down_Low_Gillepsy_Remix-bn.png;
#BACKGROUND:Deep_Down_Low_Gillepsy_Remix-bg.png;
#LYRICSPATH:;
#CDTITLE:;
#MUSIC:DDL G R.ogg;
#OFFSET:-0.011000;
#SAMPLESTART:22.165001;
#SAMPLELENGTH:14.769000;
#SELECTABLE:YES;
#DISPLAYBPM:130.000000;
#BPMS:0.000000=130.000000
,47.000000=195.000000
,47.750000=65.000000
,48.000000=130.000000
,176.000000=195.000000
,176.750000=65.000000
,177.000000=130.000000
;
#STOPS:177.000000=0.923000
;
#BGCHANGES:;
#KEYSOUNDS:;
#ATTACKS:;

//---------------dance-single - Feraligatr 10+----------------
#NOTES:
     dance-single:
     Feraligatr 10+:
     Challenge:
     10:
     0.725673,0.850725,0.500000,0.297101,0.775362,701.000000,630.000000,69.000000,41.000000,3.000000,13.000000,0.725673,0.850725,0.500000,0.297101,0.775362,701.000000,630.000000,69.000000,41.000000,3.000000,13.000000:
0000
0000
0000
0000
,
0000
0000
0000
0000
,
0000
0000
0000
0000
,
0000
0000
0000
0000
,
1000
0100
0010
0001
0100
0000
0001
0100
,
0001
0010
0100
1000
0010
0100
0001
0010
,
0001
0100
0010
1000
0100
1000
0001
0100
,
0001
0010
0100
1000
0001
0100
0001
1000
,
1100
0100
1000
0001
,
0100
0001
1000
0100
,
1000
0001
0100
0001
1000
0100
1000
0001
,
0100
0010
1000
0001
0010
0001
1000
0100
0010
0000
0001
0000
0200
0000
0000
0300
,
0111
0000
0000
0000
0000
0000
1000
0100
0020
0000
0000
0000
0000
0000
0000
0000
0031
0000
0200
0000
0000
0000
0000
0000
0011
0000
0000
0000
1000
0000
0000
0000
,
0000
0000
0301
1000
0100
0010
0001
2000
0010
0000
0001
0000
3001
1000
0010
1000
,
0101
0000
0000
1010
0000
0000
0101
0000
1000
0000
0001
0000
0001
0000
0100
0010
,
1100
0000
0000
0011
0000
0000
1100
0001
0010
0000
0100
0000
1000
0001
0100
0001
,
1010
0000
0000
0000
0000
0000
0000
0000
0000
0000
0000
0001
1000
0000
0000
0010
0000
0000
0100
0000
0000
0001
0000
0000
0000
0000
0000
0020
0000
0000
0000
0000
0000
0000
0000
0000
0101
0000
0000
0000
0000
0000
1000
0000
0000
0000
0000
0000
,
0000
0000
0031
1000
0010
0100
0001
0020
0100
0000
0000
0000
0000
0000
0000
0000
,
0031
0010
0100
1000
0010
0100
0001
0010
0100
1000
0010
0100
0001
0010
0100
1000
,
0001
0100
1000
0001
0010
1000
0001
0100
1000
0100
0010
0100
0001
0010
2000
0000
,
3010
0100
1000
0010
1110
0010
1100
0011
,
1000
0000
0100
0000
0010
0000
0001
0000
0100
0000
0010
0000
1000
0001
0010
0001
,
1100
0000
0000
0011
0000
0000
1100
0000
0001
0000
1000
0000
1000
0000
0100
0010
,
0101
0000
0000
1010
0000
0000
0101
1000
0010
0000
0100
0000
0001
1000
0100
1000
,
0011
0000
0011
0000
0011
0000
1000
0100
0002
0000
0000
00M0
0100
0000
1010
0003
,
0001
0000
0000
0100
0000
0000
0010
0000
0000
1000
0000
0000
0100
0000
0000
0010
0000
0001
1000
0000
0000
0010
0000
0000
,
1100
0000
0000
0011
0000
0000
1100
0000
0001
0000
1000
0000
1000
0000
0100
0010
,
0101
0000
0000
0000
0000
0000
0000
0000
0000
1010
0000
0000
0000
0000
0000
0000
0000
0000
0101
0000
0000
1000
0000
0000
0010
0000
0000
0000
0000
0000
0100
0000
0000
0000
0001
0000
1000
0000
0000
0000
0000
0000
0100
0000
0000
0000
0000
0000
,
0020
0000
0000
0031
0010
0001
1000
0001
0100
0000
0010
0000
1100
0000
0001
0000
,
1000
0000
0100
0000
1000
0000
0001
0000
0101
0000
0100
0000
0010
1000
0010
1000
,
0101
0000
0010
0000
0100
0000
1000
0000
0001
0100
0010
0100
0001
0000
1000
0000
,
0100
0000
1000
0000
0010
0000
0100
0000
0001
0010
0100
0000
1000
0010
0100
0001
,
1010
0100
1000
0001
0101
0100
0010
1000
,
0001
0000
1000
0000
0100
0000
0010
0000
0011
0000
0000
0000
1000
0010
0100
0001
,
1000
0000
0100
0000
0010
0000
0001
0000
1000
0010
0100
0010
1000
0000
0001
0000
,
0010
0000
0001
0000
0100
0000
0010
0000
1000
0100
0010
0000
0001
0100
0010
1000
,
0100
0000
0000
0010
0000
0000
0010
0000
0000
0010
0000
0000
0010
0000
0001
0001
,
1000
0000
0000
0010
0000
0000
0010
0000
0000
0010
0000
0000
0010
0000
0100
0100
,
0001
0000
0000
1000
0000
0000
1000
0000
0000
1000
0000
0000
1000
0000
0001
0001
,
0010
0000
0000
0100
0000
0000
0100
0000
0000
0100
0000
0000
0100
0000
1000
1000
,
0001
0000
1000
0010
0100
0001
1000
0000
0100
1000
0001
0000
0100
0000
0010
0000
,
1000
0000
0001
0010
0100
1000
0001
0000
0100
0001
1000
0000
0100
0000
0110
0000
,
1000
0000
0001
0100
0010
1000
0001
0000
0010
0001
1000
0000
0010
0000
0100
0000
,
0001
1000
0001
0010
0001
1000
0010
1000
0100
1000
0001
0100
0001
0010
0100
1000
,
0020
0000
0000
0000
0000
0000
0000
0000
003M
0000
0000
0000
0100
0000
0001
0000
0010
0000
0000
0010
0000
0000
0010
0000
0102
0000
0000
0000
0013
0000
0000
0010
,
0000
0000
0010
0000
0102
0000
0000
0000
0013
0000
0000
0010
0000
0000
0010
0000
0200
0000
0000
0000
0000
0000
1300
0000
0102
0000
0000
0000
1003
0000
0000
0000
,
0001
0000
0010
0000
0001
0000
1000
0000
0020
0000
0000
0000
0000
0000
0000
0000
0130
0000
0000
0100
0000
0000
0100
0000
0012
0000
0000
0000
0103
0000
0000
0100
,
0000
0000
0100
0000
0012
0000
0000
0000
0103
0000
0000
0100
0000
0000
0100
0000
0020
0000
0000
0000
0000
0000
1030
0000
0012
0000
0000
0000
1003
0000
0000
0000
,
0001
0000
1000
0000
0010
0000
1000
0000
0200
0000
0000
0000
0000
0000
0300
0000
1100
0000
0000
0100
0000
0000
0100
0000
2010
0000
0000
0000
3100
0000
0000
0100
,
0000
0000
0100
0000
2010
0000
0000
0000
3100
0000
0000
0100
0000
0000
0100
0000
0020
0000
0000
0000
0000
0000
0031
0000
2010
0000
0000
0000
3001
0000
0000
0000
,
0010
0000
0100
0000
1000
0000
0001
0000
0200
0000
0000
0000
0000
0000
0000
0000
0310
0000
0000
0010
0000
0000
0010
0000
2100
0000
0000
0000
3010
0000
0000
0010
,
0000
0000
0010
0000
2100
0000
0000
0000
3010
0000
0000
0010
0000
0000
0010
0000
0200
0000
0000
0000
0000
0000
0301
0000
2100
0000
0000
0000
3001
0000
0000
0000
,
1000
0000
0000
0010
0000
0000
0100
0000
0000
0001
0000
0000
1000
0000
0000
0001
0000
0000
0010
0000
0000
0100
0000
0000
1000
0000
0000
0000
0010
0000
0000
0000
0100
0000
0000
0000
0001
0000
0000
0000
0010
0000
0000
0000
0100
0000
0000
1000
,
0001
0100
0001
0010
0100
1000
0021
0000
0000
0000
0000
0000
,
0100
0000
0000
0000
0001
0000
1100
0000
0000
0000
0000
0000
0000
0000
1000
0030
,
0001
0000
0000
0000
0010
0000
0000
0000
0001
0000
1000
0000
0100
0000
1000
0000
0010
0000
0000
0100
0000
0000
0010
0000
0000
1000
0000
0000
0200
0000
0000
0000
,
0010
0000
0000
0000
0000
0000
1000
0000
0000
0000
0000
0000
1000
0000
0000
0000
0000
0000
0000
0000
0000
0000
0000
0000
0001
0000
0000
0000
0000
0000
0000
0000
0000
1310
0000
0000
0100
0000
0000
0000
0010
0000
0000
0000
0001
0000
0000
0000
,
0200
0000
0000
0000
0000
0000
0010
0000
0000
0000
0000
0000
0301
0000
0000
1000
0000
0000
0100
0000
0000
1000
0000
0000
0011
0000
0000
0000
0000
0000
0000
0000
0000
0000
0000
1000
0001
0000
0000
0010
0000
0000
0100
0000
0000
1000
0000
0000
,
0000
0020
0000
0000
1100
0000
0001
0000
0000
0000
1030
0001
0010
0100
1000
0020
,
0100
0000
0000
0000
0000
0000
1030
0100
0020
0000
0000
0000
0000
0000
0000
0000
0101
0000
0000
0000
0000
0000
1000
0000
0000
0000
0000
0000
0101
0000
0030
0000
,
0010
0000
0000
0000
0000
0000
0000
0000
0000
0000
0000
0000
0000
0000
0000
0000
0000
0000
0000
0000
0000
0000
0000
0000
0000
0000
0000
0000
0000
0000
0000
0000
0001
0000
0000
0000
0000
0000
0000
0000
0000
0000
0000
0000
0000
0000
0000
0000
0000
0000
0000
0000
0000
0000
0000
0000
0000
0000
0000
0000
0000
0000
0000
0000
0100
0000
0000
0000
0000
0000
0000
0000
0000
0000
0000
0000
0000
0000
0000
0000
0000
0000
0000
0000
0000
0000
0000
0000
0000
0000
0010
0000
0000
0000
0000
0000
0000
0000
0000
0000
0000
0000
0000
0000
0000
0000
0000
0000
0000
0000
0000
0000
0000
0000
0000
0000
1000
0000
0000
0000
0000
0000
0000
0000
0000
0000
0000
0000
0000
0000
0000
0000
0000
0000
0000
0000
0000
0000
0000
0000
0001
0000
0000
0000
0000
0000
0000
0000
0000
0000
0000
0000
0000
0000
0000
0000
0000
0000
0000
0000
1000
0000
0000
0000
0000
0000
0000
0000
0000
0000
0000
0000
0000
0000
0000
0000
0400
0000
0000
0000
0000
0000
0000
0000
0000
0000
0000
0000
0000
0000
0000
0000
,
0000
0000
0000
0000
0000
0000
0000
0000
0000
0000
0000
0000
1310
0000
0000
0000
0000
0000
0001
0100
0001
1000
0100
0010
,
0002
0000
0000
0000
0000
0000
1010
0000
0000
0103
0000
0000
0000
0000
0000
0000
0000
0000
1000
0100
0010
0001
0100
0010
,
2000
0000
0000
0000
0000
0000
0001
0000
0000
0000
0000
0000
3001
0000
0000
1000
0000
0000
0010
0000
0000
1000
0000
0000
0100
0000
0000
0000
0010
0000
0000
0000
0001
0000
0000
0000
0100
0000
0000
0000
0010
0000
0000
0000
1000
0000
0000
0000
,
0100
0010
0001
0200
0000
0000
0310
1000
0100
0010
0001
0100
,
0010
0000
0000
0000
1000
0000
0000
0000
0100
0000
0000
0000
1000
0000
0000
0001
0000
0000
0100
0000
0000
0001
0000
0000
1010
0000
0000
0000
0000
0000
1010
0000
0000
0000
0000
0000
1010
0000
0000
0000
0000
0000
0001
0000
0000
0100
0000
0000
,
2000
0000
0000
00M0
0100
0000
0011
0000
0000
0000
0000
0000
0000
0000
0000
0000
,
3001
0000
0000
0000
0000
0000
0000
0000
0000
0000
0000
0000
0000
0000
0000
0000
0000
0000
0000
0000
0000
0000
1000
0000
0100
0000
0000
0000
0000
0000
0000
0000
0000
0000
0000
0000
0000
0000
0000
0000
0000
0000
0000
0000
0000
0000
0000
0000
0010
0000
0000
0000
0000
0000
0000
0000
0000
0000
0000
0000
0000
0000
0000
0000
0000
0000
0000
0000
0000
0000
0000
0000
0001
0000
0000
0000
0000
0000
0000
0000
0000
0000
0000
0000
0000
0000
0000
0000
0000
0000
0000
0000
0000
0000
0000
0000
1100
0000
0000
0000
0000
0000
0000
0000
0000
0000
0000
0000
0000
0000
0000
0000
0000
0000
0000
0000
0000
0000
0000
0000
0000
0000
0000
0000
0000
0000
0000
0000
0000
0000
0000
0000
0011
0000
0000
0000
0000
0000
0000
0000
0000
0000
0000
0000
0000
0000
0000
0000
0000
0000
0000
0000
0000
0000
0000
0000
0000
0000
0000
0000
0000
0000
0000
0000
0000
0000
0000
0000
1100
0000
0000
0000
0000
0000
0000
0000
0000
0000
0000
0000
0000
0000
0000
0000
0000
0000
0000
0000
0000
0000
0000
0000
,
0001
0000
1000
0000
1000
0000
0100
0010
0101
0000
0000
1010
0000
0000
0101
1000
,
0010
0100
0010
1000
0001
1000
0100
0010
0002
0000
0000
0000
1000
0000
0000
0100
,
0000
0000
0010
0000
0000
0000
0000
0000
2003
0000
0000
0000
0001
0000
0000
0100
,
0000
0010
0000
0000
3001
0100
0001
0100
,
0001
0100
0001
0100
0010
1000
0010
1000
,
0010
1000
0100
0001
0000
0000
0000
0000
;

//---------------dance-single - Feraligatr----------------
#NOTES:
     dance-single:
     Feraligatr SH:
     Hard:
     9:
     0.560041,0.850725,0.246377,0.202899,0.525362,541.000000,507.000000,34.000000,28.000000,1.000000,0.000000,0.560041,0.850725,0.246377,0.202899,0.525362,541.000000,507.000000,34.000000,28.000000,1.000000,0.000000:
0000
0000
0000
0000
,
0000
0000
0000
0000
,
0000
0000
0000
0000
,
0000
0000
0000
0000
,
1000
0100
0010
0001
0100
0000
0000
0000
,
0001
0010
0100
1000
0010
0000
0000
0000
,
1000
0100
0010
0001
0100
0000
0000
0000
,
0001
1000
0010
1000
0100
0000
0000
0000
,
1100
0100
1000
0001
,
0100
0001
1000
0100
,
1000
0001
0100
0001
1000
0100
1000
0001
,
0100
0001
0100
0001
1000
0100
1000
0100
0010
0000
0001
0000
0200
0000
0000
0300
,
0110
0000
0000
1000
0002
0000
0000
0000
0013
0200
0000
0000
1000
0000
0001
0000
,
0000
0000
1300
0001
0100
0010
1000
0002
0000
0000
0000
0000
0000
0000
0000
0003
,
0011
0000
0000
1001
0000
0000
0011
0000
0000
1000
0000
0000
0020
0000
0000
0030
,
0110
0000
0000
0101
0000
0000
1010
0000
0000
1000
0000
0000
0001
0010
0100
1000
,
0010
0000
0000
0000
1000
0001
0010
0100
0000
2000
0000
0000
0100
0000
0010
0000
,
0000
0000
3100
1000
0001
0100
0010
2000
0000
0000
0000
0000
0000
0000
0000
0000
,
3001
0100
0001
1000
0100
1000
0001
0100
0001
1000
0100
1000
0001
0100
0001
0010
,
0100
1000
0010
0100
0001
0010
0100
1000
0010
0100
0001
0010
0100
0010
2000
0000
,
3010
0100
1000
0001
0201
0000
0010
1000
,
0310
0100
0001
0010
0100
1000
0001
0100
,
0110
0000
0000
0110
0000
0000
0110
0000
0100
0000
0001
0000
1000
0000
0100
0000
,
0110
0000
0000
0110
0000
0000
0110
0000
0100
0000
1000
0000
0001
1000
0100
1000
,
0010
0000
0110
0000
0110
0000
0010
1000
0200
0000
0000
0000
0010
0000
0001
0000
,
0310
0100
1000
0010
0100
0010
1000
0100
,
1100
0000
0000
1100
0000
0000
1100
0000
0100
0000
0010
0000
0001
0000
0100
0000
,
0110
0000
0000
0110
0000
0000
0110
0000
0100
0000
0001
0000
1000
0000
0100
0000
,
0020
0000
0000
0130
1000
0100
1000
0001
0100
0000
0010
0000
0110
0000
0000
0000
,
0100
0000
0001
0000
1000
0000
0000
0000
1100
0000
0000
0000
0001
0010
0001
0010
,
0100
0000
1000
0001
0100
0000
0001
1000
,
0000
0000
1000
0000
0001
0000
0100
0000
0010
1000
0010
0000
0100
0001
1000
0100
,
0010
0000
0001
0000
1001
0000
1000
0001
,
0000
0000
0001
0000
0010
0000
0000
0000
0110
0000
0000
0000
0100
1000
0001
0100
,
0010
0000
1000
0001
0010
0000
0100
1000
,
0000
0000
1000
0000
0001
0000
0100
0000
0010
1000
0010
0000
0100
0001
1000
0100
,
0010
0000
0000
0001
0000
0000
0010
0000
0000
0001
0000
0000
0010
0000
0100
1000
,
0001
0000
0000
0100
0000
0000
0001
0000
0000
0100
0000
0000
0001
0000
1000
0100
,
0010
0000
0000
0001
0000
0000
0010
0000
0000
0001
0000
0000
0010
0000
0100
1000
,
0001
0000
0000
0100
0000
0000
0001
0000
0000
0100
0000
0000
0001
0000
1000
0100
,
0010
0000
0001
1000
0010
0000
0100
0000
0001
1000
0100
0000
0010
0000
0100
0000
,
1000
0000
0001
0100
0010
0000
1000
0000
0001
0010
0100
0000
1000
0000
0110
0000
,
1000
0000
0001
0100
0010
0000
1000
0000
0001
0010
0100
0000
0010
0000
0001
0000
,
1000
0010
1000
0010
0100
0001
0100
0001
1000
0100
1000
0100
0010
0001
0010
0001
,
2000
0000
3M00
0000
4000
0000
3010
4000
,
0000
0000
3100
0000
4000
0000
0000
0000
3010
0000
0000
1000
0010
0000
0100
0000
,
0001
0000
1000
0100
0020
0000
0000
0000
0034
0000
0000
0000
0103
0000
0004
0000
,
0000
0000
0013
0000
0004
0000
0000
0000
0103
0000
0000
0001
0100
0000
0010
0000
,
1000
0100
1000
0100
0010
0000
0000
0000
0004
0000
0000
0000
0013
0000
0004
0000
,
0000
0000
0103
0000
0004
0000
0000
0000
0013
0000
0000
0001
0010
0000
0100
0000
,
1000
0000
0001
0100
0020
0000
0000
0000
4030
0000
0000
0000
3100
0000
4000
0000
,
0000
0000
3010
0000
4000
0000
0000
0000
3100
0000
0000
1000
0100
0000
0010
0000
,
0001
0000
0000
0100
0000
0000
0001
0000
0000
0100
0000
0000
0010
0000
0000
1000
0000
0000
0001
0000
0000
0010
0000
0000
0001
0000
0000
0000
1000
0000
0000
0000
0001
0000
0000
0000
1000
0000
0000
0000
0100
0000
0000
0000
0010
0000
0000
0000
,
0001
1000
0001
1000
0010
0100
0002
0000
0000
0000
0000
0000
,
1000
0000
0000
0000
0100
0000
0010
0000
0000
0000
0000
0000
0000
0000
0100
0003
,
0001
0000
0000
0000
0000
0000
1000
0000
0000
0000
0000
0000
0100
0000
0000
0000
0010
0000
0000
0001
0000
0000
1000
0000
0000
0001
0000
0000
0200
0000
0000
0000
,
0000
0000
0000
0000
0000
0000
0000
0000
0000
0000
0000
0000
0000
0000
0000
0000
0000
0000
0000
0000
0000
0000
0000
0000
0010
0000
0000
0000
0000
0000
0000
0000
0000
0300
0000
0000
0100
0000
0000
0000
0001
0000
0000
0000
1000
0000
0000
0000
,
0200
0000
0000
0000
0320
0000
0000
0030
0011
0000
0000
0000
0001
1000
0010
0100
,
0000
0002
0000
0000
0100
0000
0010
0000
0000
0000
0103
0001
1000
0001
0010
0200
,
0000
0000
0000
1300
0020
0000
0000
0000
0100
0000
0000
0100
0000
0000
0100
0030
,
0010
0000
0000
0000
0000
0000
0000
0000
0000
0000
0000
0000
0000
0000
0000
0000
0000
0000
0000
0000
0000
0000
0000
0000
0000
0000
0000
0000
0000
0000
0000
0000
1000
0000
0000
0000
0000
0000
0000
0000
0000
0000
0000
0000
0000
0000
0000
0000
0000
0000
0000
0000
0000
0000
0000
0000
0000
0000
0000
0000
0000
0000
0000
0000
0001
0000
0000
0000
0000
0000
0000
0000
0000
0000
0000
0000
0000
0000
0000
0000
0000
0000
0000
0000
0000
0000
0000
0000
0000
0000
0010
0000
0000
0000
0000
0000
0000
0000
0000
0000
0000
0000
0000
0000
0000
0000
0000
0000
0000
0000
0000
0000
0000
0000
0000
0000
0100
0000
0000
0000
0000
0000
0000
0000
0000
0000
0000
0000
0000
0000
0000
0000
0000
0000
0000
0000
0000
0000
0000
0000
1000
0000
0000
0000
0000
0000
0000
0000
0000
0000
0000
0000
0000
0000
0000
0000
0000
0000
0000
0000
0001
0000
0000
0000
0000
0000
0000
0000
0000
0000
0000
0000
0000
0000
0000
0000
0400
0000
0000
0000
0000
0000
0000
0000
0000
0000
0000
0000
0000
0000
0000
0000
,
0000
0000
0310
4000
,
3200
0000
0010
0301
0000
0000
4000
0000
,
3002
0000
0000
0000
0000
0000
1003
0010
1000
0001
0010
0001
,
1000
0010
1000
0002
0000
0000
1003
0100
1000
0001
0100
0001
,
1000
0000
0000
0000
0100
0000
0000
0000
1000
0000
0000
0000
0001
0000
0000
0100
0000
0000
0010
0000
0000
1000
0000
0000
0100
0000
0000
0000
0000
0000
0110
0000
0000
0000
0000
0000
0110
0000
0000
0000
0000
0000
0100
0000
0000
1000
0000
0000
,
0020
0000
0100
0001
0000
0000
0000
0000
,
0130
0000
0001
0000
1000
0000
0100
0000
0110
0000
0000
0110
0000
0000
0110
0000
,
0001
0000
0000
1000
0000
0000
0020
0000
0100
0000
0000
0100
0000
0000
0100
0030
,
0010
1000
0010
1000
0001
0100
0001
1000
0200
0000
0000
0000
0000
0000
0000
0000
,
0000
0000
2300
0000
,
0000
0000
0000
0000
3001
0100
0001
0100
,
0001
0100
0001
0100
0010
1000
0010
1000
,
0010
1000
0010
0001
0000
0000
0000
0000
;

//---------------dance-single - Feraligatr----------------
#NOTES:
     dance-single:
     Feraligatr SM:
     Medium:
     7:
     0.359213,0.425362,0.115942,0.210145,0.101449,347.000000,331.000000,16.000000,29.000000,0.000000,0.000000,0.359213,0.425362,0.115942,0.210145,0.101449,347.000000,331.000000,16.000000,29.000000,0.000000,0.000000:
0000
0000
0000
0000
,
0000
0000
0000
0000
,
0000
0000
0000
0000
,
0000
0000
0000
0000
,
1000
0010
0100
0000
0000
0000
0000
0000
,
0001
0010
0100
0000
0000
0000
0000
0000
,
1000
0010
0100
0000
0000
0000
0000
0000
,
0001
0100
0010
0000
0000
0000
0000
0000
,
1000
0100
0010
0001
,
0100
0010
1000
0100
,
1000
0100
0010
0001
,
0100
0000
0000
0000
0010
0000
0000
0000
1000
0000
0100
0000
0020
0000
0000
0030
,
0011
0000
0000
0000
2000
0000
0000
0000
3001
0200
0000
0000
0010
0000
0010
0000
,
0000
0301
1000
0100
0020
0000
0000
0000
,
0031
0000
0000
1000
0000
0000
0001
0000
0000
0100
0000
0000
0020
0000
0000
0000
,
1030
0000
0000
0001
0000
0000
0010
0000
0000
0100
0000
0000
2000
0000
0000
3000
,
1001
0000
0000
0000
1000
0000
0000
0001
0000
0200
0000
0000
0010
0000
0010
0000
,
0000
0301
1000
0100
0020
0000
0000
0000
,
0032
0000
0000
1000
0000
0000
1000
0000
0100
0000
0000
0000
0000
0000
0000
0000
,
0023
0000
0000
0100
0000
0000
0100
0000
0032
0000
1000
0000
0203
0000
0000
0000
,
0310
0100
0001
1000
0100
0010
0001
0200
,
0000
0000
0010
0302
,
1003
0000
0000
0100
0000
0000
1000
0000
0001
0000
0100
0000
0100
0000
0000
0000
,
0001
0000
0000
0010
0000
0000
0001
0000
1000
0000
0000
0000
0020
0000
0000
0000
,
0130
0100
0100
0001
0020
0000
0100
0100
,
0030
0000
0000
0000
1000
0001
1000
0010
,
0100
0000
0000
0001
0000
0000
0100
0000
0010
0000
1000
0000
1000
0000
0000
0000
,
0001
0000
0000
0010
0000
0000
0001
0000
1000
0000
0000
0000
0010
0000
0000
0000
,
0200
0300
0000
0101
,
0000
0001
1000
0000
0100
0000
0000
0000
,
0110
0000
0000
0001
1000
0000
0010
0100
,
0000
0000
0100
0000
0001
0000
1000
0000
0100
0000
0000
0000
0020
0000
0000
0030
,
0011
0000
0000
0000
1000
0000
0010
0100
,
0000
0100
0001
0000
1001
0000
0000
0000
,
1000
0000
0000
0100
0010
0000
0000
0001
,
0000
0001
0100
0010
1000
0000
0000
0000
,
1001
0000
0000
0000
0001
0000
0000
0000
0000
0000
0000
0000
0000
0000
0100
0010
,
1000
0000
0000
0000
0100
0000
0000
0000
0000
0000
0000
0000
0000
0000
0010
0100
,
1000
0000
0000
0000
0001
0000
0000
0000
0000
0000
0000
0000
0000
0000
0100
0010
,
1000
0100
0000
0000
,
0110
0000
0001
1000
0010
0100
0001
0000
,
1000
0000
0100
0010
0001
1000
0010
0000
,
0100
0001
0100
0001
1000
0100
1000
0100
,
0010
0010
0001
0001
4000
0000
3040
0000
,
0230
0000
0300
0000
1001
0000
0001
0010
,
0000
0100
1000
0000
0001
0000
0010
0000
0200
0000
0000
0000
1300
0000
1000
0000
,
0001
0010
0002
0000
0103
0000
0010
1000
,
0000
0001
0100
0000
0010
0000
1000
0000
0002
0000
0000
0000
0103
0000
0100
0000
,
0010
0000
1010
0000
1001
0000
1000
0100
,
0000
0010
0001
0000
1000
0000
0100
0000
0020
0000
0000
0000
0031
0000
0001
0000
,
1000
0100
2000
0000
3010
0000
0100
0001
,
0000
1000
0010
0000
0100
0000
0001
0000
2000
0000
0000
0000
3010
0000
0010
0000
,
0400
0000
0300
0000
,
0000
0000
2001
0000
,
0100
0000
0001
0010
0000
0000
0000
0000
,
3100
0000
0000
0000
1000
0000
0001
0000
0100
0000
0000
0010
0000
0000
0100
0000
,
0001
0000
1000
0000
1000
0000
0000
0000
0100
0000
0000
0010
0000
0000
0100
0000
,
1000
0001
0001
0000
0101
0000
0000
0000
,
0100
0000
0010
1000
0000
0000
0000
0000
,
0001
0000
0000
0000
0020
0000
0000
0000
0100
0000
0000
0100
0000
0000
0100
0000
,
0031
0000
1000
0000
1000
0000
0000
0000
0010
0000
0000
0100
0000
0000
0010
0000
,
1000
0001
0010
0100
1000
0000
0000
0000
,
0000
0000
0001
0100
0000
0000
0000
0000
,
0000
0000
0010
0000
1000
0000
0000
0000
0001
0000
0000
0010
0000
0000
0001
0000
,
1000
0000
0010
0000
0010
0000
0000
0000
0100
0000
0000
0001
0000
0000
0100
0000
,
0010
1000
1000
0000
1001
1001
1001
0000
,
0002
0000
0010
1000
0000
0000
0000
0000
,
0103
0000
0001
0000
1000
0000
0100
0000
0010
0000
0000
0001
0000
0000
0010
0000
,
0100
0000
1000
0000
1000
0000
0000
0000
0001
0000
0000
0100
0000
0000
0001
0000
,
1000
0100
0010
0001
2000
0000
0100
0000
,
0000
3000
0000
0000
0100
0000
0000
0000
0000
0000
0000
0000
1000
0000
0000
0000
,
0000
0000
1000
0000
0001
0100
0001
0100
,
0001
0100
0001
0100
0010
1000
0010
1000
,
0010
1000
0010
0001
0000
0000
0000
0000
;

//---------------dance-single - Feraligatr----------------
#NOTES:
     dance-single:
     Feraligatr SE:
     Easy:
     4:
     0.211180,0.265851,0.050725,0.036232,0.000000,204.000000,197.000000,7.000000,5.000000,0.000000,0.000000,0.211180,0.265851,0.050725,0.036232,0.000000,204.000000,197.000000,7.000000,5.000000,0.000000,0.000000:
// measure 0
0000
0000
0000
0000
,  // measure 1
0000
0000
0000
0000
,  // measure 2
0000
0000
0000
0000
,  // measure 3
0000
0000
0000
0000
,  // measure 4
1000
0100
0000
0000
,  // measure 5
0001
0100
0000
0000
,  // measure 6
1000
0100
0000
0000
,  // measure 7
0001
0010
0000
0000
,  // measure 8
1000
0000
1000
0000
,  // measure 9
0001
0000
0001
0000
,  // measure 10
0010
0001
0010
0001
,  // measure 11
1000
0000
0000
0000
0010
0000
0000
0000
1000
0000
0000
0000
0200
0000
0000
0300
,  // measure 12
1001
0000
0000
0000
0001
0000
0100
0100
,  // measure 13
0000
0000
0010
0000
,  // measure 14
1000
0001
0010
0000
,  // measure 15
0100
1000
0001
0000
,  // measure 16
0101
0000
0000
0000
1000
0000
0100
0100
,  // measure 17
0000
0000
0010
0000
,  // measure 18
0001
1000
0001
1000
,  // measure 19
0010
0100
0010
0001
,  // measure 20
0010
0000
1000
0000
0100
0000
0010
0010
,  // measure 21
0000
0000
0001
0000
,  // measure 22
1000
0010
0100
0000
,  // measure 23
0001
1000
0100
0000
,  // measure 24
0010
0010
0010
0000
0002
0000
1000
1000
,  // measure 25
0003
0000
0001
0000
,  // measure 26
0100
0010
1000
0000
,  // measure 27
0001
0010
0100
1000
,  // measure 28
0001
0000
0000
0100
,  // measure 29
0000
0000
0010
1000
,  // measure 30
0001
0000
0010
0000
,  // measure 31
0100
1000
0001
0100
,  // measure 32
0010
0000
1000
0000
,  // measure 33
0001
0000
0010
0000
,  // measure 34
0100
0000
1000
0000
,  // measure 35
0001
0100
0010
1000
,  // measure 36
0001
0010
0000
0000
,  // measure 37
0010
0100
0000
0000
,  // measure 38
0100
1000
0000
0000
,  // measure 39
1000
0010
0000
0000
,  // measure 40
0100
0001
1000
0001
,  // measure 41
0010
0001
1000
0001
,  // measure 42
0100
0010
0100
0010
,  // measure 43
1000
1000
0001
0001
,  // measure 44
0020
0030
0110
1000
,  // measure 45
0001
0000
0100
0010
,  // measure 46
1000
0000
0001
0010
,  // measure 47
0100
0000
1000
0001
,  // measure 48
0100
0000
0110
0001
,  // measure 49
1000
0000
0100
0010
,  // measure 50
0001
0000
1000
0010
,  // measure 51
0100
0000
0001
1000
,  // measure 52
0200
0000
0300
0000
,  // measure 53
0000
0000
1001
0000
,  // measure 54
0001
0000
0100
0100
0000
0000
0000
0000
,  // measure 55
0010
0000
1000
0100
,  // measure 56
0010
0000
0001
1000
,  // measure 57
0010
0000
0110
0000
,  // measure 58
0001
0000
1000
1000
0000
0000
0000
0000
,  // measure 59
0100
0000
0010
0001
,  // measure 60
1000
0000
0010
0100
,  // measure 61
0001
0000
1001
0000
,  // measure 62
0000
0000
0001
0001
0000
0000
0000
0000
,  // measure 63
0000
0000
0010
0100
,  // measure 64
1000
0000
0001
0100
,  // measure 65
0010
0000
0000
0000
1000
1000
1000
0000
,  // measure 66
0100
0000
0010
0010
0000
0000
0000
0000
,  // measure 67
0001
0000
1000
0010
,  // measure 68
0100
0000
0001
1000
,  // measure 69
0100
0000
0020
0001
,  // measure 70
0000
0030
0000
0000
0001
0000
0000
0000
0000
0000
0000
0000
1000
0000
0000
0000
,  // measure 71
0000
1000
0010
0010
,  // measure 72
0100
0100
0010
0010
,  // measure 73
0100
0000
0100
0001
0000
0000
0000
0000
;

//---------------dance-single - Feraligatr----------------
#NOTES:
     dance-single:
     Feraligatr SN:
     Beginner:
     1:
     0.091097,0.186096,0.050725,0.021739,0.000000,88.000000,81.000000,7.000000,3.000000,0.000000,0.000000,0.091097,0.186096,0.050725,0.021739,0.000000,88.000000,81.000000,7.000000,3.000000,0.000000,0.000000:
// measure 0
0000
0000
0000
0000
,  // measure 1
0000
0000
0000
0000
,  // measure 2
0000
0000
0000
0000
,  // measure 3
0000
0000
0000
0000
,  // measure 4
1000
0000
0000
0000
,  // measure 5
0001
0000
0000
0000
,  // measure 6
0100
0000
0000
0000
,  // measure 7
0010
0000
0000
0000
,  // measure 8
1000
0000
0000
0000
,  // measure 9
0000
0000
0000
0000
,  // measure 10
0001
0000
0010
0000
,  // measure 11
0100
0000
1000
0000
,  // measure 12
1001
0000
0001
0000
,  // measure 13
0000
0000
0100
0000
,  // measure 14
0010
0000
0000
0000
,  // measure 15
1000
0000
0000
0000
,  // measure 16
0110
0000
1000
0000
,  // measure 17
0000
0000
0001
0000
,  // measure 18
0010
0000
0000
0000
,  // measure 19
0100
0000
0000
0000
,  // measure 20
1000
0000
0001
0000
,  // measure 21
0000
0000
0100
0000
,  // measure 22
0010
0000
0000
0000
,  // measure 23
1000
0000
0000
0000
,  // measure 24
1001
0000
0001
0000
,  // measure 25
0000
0000
0010
0010
,  // measure 26
0100
0000
0000
0000
,  // measure 27
1000
0000
0000
0000
,  // measure 28
0001
0000
0000
0100
,  // measure 29
0000
0000
0000
0000
,  // measure 30
0010
0000
0000
0000
,  // measure 31
0000
0000
0000
0000
,  // measure 32
1000
0000
0000
0000
,  // measure 33
0000
0000
0000
0000
,  // measure 34
0001
0000
0000
0000
,  // measure 35
0000
0000
0000
0000
,  // measure 36
0010
0100
0000
0000
,  // measure 37
0000
1000
0000
0000
,  // measure 38
0000
0001
0000
0000
,  // measure 39
0000
0100
0000
0000
,  // measure 40
0010
1000
0000
1000
,  // measure 41
0000
0001
0000
0001
,  // measure 42
0010
0010
0100
0100
,  // measure 43
2000
0000
0000
0000
,  // measure 44
3000
0000
0000
0001
,  // measure 45
0000
0000
0000
0001
,  // measure 46
0000
0000
0000
1000
,  // measure 47
0000
0000
0000
1000
,  // measure 48
0000
0000
0000
0010
,  // measure 49
0000
0000
0000
0010
,  // measure 50
0000
0000
0000
0100
,  // measure 51
0000
0000
0000
0100
,  // measure 52
0000
0000
0000
0000
,  // measure 53
0000
0000
1001
0000
,  // measure 54
1000
0000
0000
0000
,  // measure 55
0100
0000
0010
0000
,  // measure 56
0000
0000
0001
0000
,  // measure 57
0000
0000
0110
0000
,  // measure 58
1000
0000
0000
0000
,  // measure 59
0001
0000
0100
0000
,  // measure 60
0000
0000
0010
0000
,  // measure 61
0000
0000
1001
0000
,  // measure 62
0000
0000
0000
0000
,  // measure 63
0000
0000
1000
0000
,  // measure 64
0000
0000
0100
0000
,  // measure 65
0000
0000
0110
0000
,  // measure 66
0001
0000
0000
0000
,  // measure 67
1000
1000
0010
0000
,  // measure 68
0000
0000
0100
0000
,  // measure 69
0000
0000
0002
0000
,  // measure 70
0000
0003
0000
0000
0000
0000
0000
0000
1000
0000
0000
0000
0000
0000
0000
0000
,  // measure 71
0000
0000
0001
0000
,  // measure 72
0000
0000
0020
0000
,  // measure 73
0000
0000
0000
0030
0000
0000
0000
0000
;
