#VERSION:0.83;
#TITLE:Decay;
#SUBTITLE:;
#ARTIST:PSYQUI;
#TITLETRANSLIT:;
#SUBTITLETRANSLIT:;
#ARTISTTRANSLIT:;
#GENRE:;
#ORIGIN:;
#CREDIT:;
#BANNER:decay-bn.png;
#BACKGROUND:decay-bg-wide.png;
#PREVIEWVID:;
#JACKET:decay-jacket.png;
#CDIMAGE:;
#DISCIMAGE:decay-bg.png;
#LYRICSPATH:;
#CDTITLE:;
#MUSIC:Decay.ogg;
#OFFSET:0.010000;
#SAMPLESTART:14.101001;
#SAMPLELENGTH:13.710000;
#SELECTABLE:YES;
#BPMS:0.000=140.000;
#STOPS:;
#DELAYS:;
#WARPS:;
#TIMESIGNATURES:0.000=4=4;
#TICKCOUNTS:0.000=4;
#COMBOS:0.000=1;
#SPEEDS:0.000=1.000=0.000=0;
#SCROLLS:0.000=1.000;
#FAKES:;
#LABELS:0.000=Song Start;
#BGCHANGES:;
#KEYSOUNDS:;
#ATTACKS:
;

//---------------dance-single - ----------------
#NOTEDATA:;
#CHARTNAME:;
#STEPSTYPE:dance-single;
#DESCRIPTION:;
#CHARTSTYLE:;
#DIFFICULTY:Challenge;
#METER:12;
#RADARVALUES:0.876699,0.988528,0.460267,0.062764,1.297116,880.000000,814.000000,66.000000,9.000000,34.000000,5.000000,13.000000,0.000000,0.000000,0.876699,0.988528,0.460267,0.062764,1.297116,880.000000,814.000000,66.000000,9.000000,34.000000,5.000000,13.000000,0.000000,0.000000;
#CREDIT:Maxx;
#NOTES:
// measure 0
0000
0000
0000
0000
,  // measure 1
0000
0000
0000
0000
,  // measure 2
0000
0000
0000
0000
,  // measure 3
0000
0000
0000
0000
,  // measure 4
0000
0000
0000
0000
,  // measure 5
0000
0000
0000
0000
,  // measure 6
0000
0000
0000
0000
,  // measure 7
0000
0000
0000
0000
,  // measure 8
0000
0000
0000
0000
0001
0000
0001
1000
0000
0001
1000
0001
0010
0100
1000
0001
,  // measure 9
0000
0001
1000
0010
0100
0000
0100
0001
0000
0001
1000
0001
0010
0100
1000
0010
,  // measure 10
0000
0010
1000
0100
0001
0000
0100
0001
0000
0100
0010
0001
1000
0010
0100
0001
,  // measure 11
0000
0001
1000
0100
0010
0000
0010
0100
0000
0100
1000
0001
0100
0010
0100
0001
,  // measure 12
0010
0100
1000
0000
0001
0000
1000
0001
0000
1000
0001
1000
0100
0010
0001
1000
,  // measure 13
0000
1000
0001
0100
0010
0000
0010
1000
0000
1000
0001
1000
0010
0100
0001
0010
,  // measure 14
0000
0010
0001
0100
1000
0000
0100
1000
0000
0100
0010
1000
0100
0010
0100
0001
,  // measure 15
0000
0100
0001
0100
0010
0000
0001
1000
0000
0001
1000
0001
0100
0010
0100
0001
,  // measure 16
1000
0100
0010
0001
2000
0000
0000
0000
0001
0000
0000
0000
0010
0000
0000
0000
,  // measure 17
3001
0000
0100
0000
0010
0000
1000
0000
0001
1000
0100
0000
0010
0000
0001
0000
,  // measure 18
1000
0010
0100
0000
0001
0000
1000
0000
0100
0010
0001
0000
1000
0000
0010
0000
,  // measure 19
0100
0001
1000
0000
0100
0000
0010
0000
0001
1000
0010
0000
0100
0000
0001
0000
,  // measure 20
1000
0100
0010
0000
0001
0000
0100
0000
0001
0000
0100
0000
0010
0000
1000
0000
,  // measure 21
0010
1000
0001
0010
0001
0010
0100
1000
,  // measure 22
0100
0000
1000
0000
0001
1000
0001
0100
0010
1000
0001
0010
0100
1000
0001
0100
,  // measure 23
0040
0030
2000
0000
,  // measure 24
3000
0001
1010
0101
4000
0000
0000
0000
0000
0000
0000
0000
3011
1000
0001
0100
,  // measure 25
00M0
0100
1000
0000
0101
1000
0001
0010
0M00
0010
1000
0101
1010
0001
1000
0010
,  // measure 26
0100
0100
0100
0011
4000
0000
0000
0000
0000
0000
0000
0000
3101
1000
0001
0010
,  // measure 27
0M00
0010
1000
0000
0011
1000
0001
0100
00M0
0100
1000
0011
1100
0001
1000
0100
,  // measure 28
0010
1000
0010
0001
0100
0100
0100
0100
1000
0001
0100
0010
1100
0001
1000
0010
,  // measure 29
0M00
0010
0001
0000
1010
0001
1000
0100
00M0
0100
0001
1010
0101
1000
0010
0100
,  // measure 30
M000
0100
1000
0000
0011
1000
0001
0100
00M0
0100
1000
0000
0101
1000
0001
0010
,  // measure 31
0M00
0010
1000
0000
0011
1000
0001
0100
00M0
0100
1000
0001
0200
0000
0300
0000
,  // measure 32
0020
0000
0030
0000
4004
0000
0000
0000
0000
0000
0000
0000
3003
1000
0001
1000
,  // measure 33
0100
0010
0100
1000
0000
0001
1000
0001
0100
0010
0100
0001
1000
0101
1010
0001
,  // measure 34
1000
0001
1000
0000
0011
0000
1100
0000
0004
0000
0000
0000
0000
0000
0000
0000
0000
0000
0000
0000
0000
0000
0000
0000
1103
0000
0001
0000
1000
0000
0010
0000
,  // measure 35
0M00
0010
0001
0000
1010
0001
1000
0100
00M0
0100
0001
1100
0011
1000
0001
0010
,  // measure 36
0100
0001
0100
1000
0010
0010
0010
0010
0001
1000
0010
0100
0011
1000
0001
0100
,  // measure 37
00M0
0100
1000
0000
0101
1000
0001
0010
0M00
0010
1000
0101
1010
0001
0100
0010
,  // measure 38
000M
0010
0001
0000
1100
0001
1000
0100
00M0
0100
0001
0000
1010
0001
1000
0100
,  // measure 39
00M0
0100
0001
0000
1100
0001
1000
0010
0M00
0010
0001
0000
0100
0010
0100
0001
,  // measure 40
1000
0100
0010
0001
0200
0000
0310
1000
0000
0010
1000
0000
0001
0000
1000
0100
,  // measure 41
0000
1000
0100
0000
0010
0000
0001
1000
0000
0001
1000
0000
0010
0000
0100
0001
,  // measure 42
0000
0100
0001
0000
1000
0000
0001
0010
0000
0001
0010
0000
0100
0000
1000
0001
,  // measure 43
0000
1000
0001
0000
0100
0000
0010
1000
0000
0010
1000
0000
0001
0000
1000
0100
,  // measure 44
0000
1000
0100
0000
0010
0001
1000
0010
0000
1000
0001
0100
0010
0000
0010
1000
,  // measure 45
0000
0001
0010
0001
1000
0010
0100
0001
0000
1000
0100
1000
0001
0000
0100
0010
,  // measure 46
0000
0010
1000
0000
0001
0010
0100
1000
0000
0100
0010
0001
1000
0000
0010
0100
,  // measure 47
0000
0100
0001
0000
1000
0100
0010
0001
0000
0100
0010
1000
0001
0000
0010
0100
,  // measure 48
0000
0100
1000
0000
1001
0000
1000
0001
0000
1000
0001
1000
0100
0010
0001
1000
,  // measure 49
0000
1000
0001
0100
0010
0000
0010
1000
0000
1000
0001
1000
0100
0010
0001
0100
,  // measure 50
0000
0100
0001
0100
1000
0000
0100
1000
0000
0100
0001
1000
0100
0010
0001
1000
,  // measure 51
0000
1000
0001
0010
0100
0000
0100
0010
0000
0010
0001
1000
0010
0100
0010
1000
,  // measure 52
0100
0010
0001
0000
1000
0000
0001
1000
0000
0001
1000
0001
0010
0100
1000
0001
,  // measure 53
0000
0001
1000
0010
0100
0000
0100
0001
0000
1000
0010
0100
0001
1000
0001
0100
,  // measure 54
0000
0001
0010
0100
0001
0000
0100
0001
0000
0100
1000
0001
0100
0010
0100
1000
,  // measure 55
0000
0100
1000
0100
0010
0000
1000
0001
0000
0001
1000
0001
0010
0100
0010
0001
,  // measure 56
1000
0010
0100
0001
2000
0000
0000
0000
0001
0000
0000
0000
0010
0000
0000
0000
,  // measure 57
3001
0000
1000
0000
0010
0000
1000
0000
0001
0010
0100
0000
1000
0000
0001
0000
,  // measure 58
1000
0010
0100
0000
0001
0000
0010
0000
0100
1000
0001
0000
0100
0000
0010
0000
,  // measure 59
1000
0001
0010
0000
0100
0000
1000
0000
0001
0100
0010
0000
1000
0000
0001
0000
,  // measure 60
0010
0100
1000
0000
0001
0000
0100
0000
0001
0000
0100
0000
0010
0000
1000
0000
,  // measure 61
0010
1000
0001
0010
0001
0010
0100
1000
,  // measure 62
0100
0000
1000
0000
0001
1000
0001
0100
0010
1000
0001
0010
0100
1000
0001
0100
,  // measure 63
0040
0030
0000
0000
,  // measure 64
0000
1000
0011
1100
0004
0000
0000
0000
0000
0000
0000
0000
0003
1000
0001
1000
,  // measure 65
0100
0010
0100
1000
0000
0001
1000
0001
0100
0010
0100
0001
2010
0000
0000
0000
,  // measure 66
0000
0000
3000
0011
4000
0000
0000
0000
0000
0000
0000
0000
3101
1000
0001
0010
,  // measure 67
0M00
0010
1000
0000
0011
1000
0001
0100
00M0
0100
1000
0011
1100
0001
1000
0100
,  // measure 68
0010
1000
0010
0001
0100
0100
0100
0100
1000
0001
0100
0010
1100
0001
1000
0010
,  // measure 69
0M00
0010
0001
0000
1010
0001
1000
0100
00M0
0100
0001
1010
0101
1000
0010
0100
,  // measure 70
00M0
0100
1000
0000
0011
1000
0001
0100
00M0
0100
1000
0000
0101
1000
0001
0010
,  // measure 71
0M00
0010
1000
0000
0011
1000
0001
0100
00M0
0100
1000
0001
0200
0000
0300
0000
,  // measure 72
0020
0000
0030
0000
4004
0000
0000
0000
0000
0000
0000
0000
3003
1000
0001
1000
,  // measure 73
0100
0010
0100
1000
0000
0001
1000
0001
0100
0010
0100
0001
1000
0101
1010
0001
,  // measure 74
1000
0001
1000
0000
0011
0000
1100
0000
0004
0000
0000
0000
0000
0000
0000
0000
0000
0000
0000
0000
0000
0000
0000
0000
1103
0000
0001
0000
1000
0000
0010
0000
,  // measure 75
0M00
0010
0001
0000
1010
0001
1000
0100
00M0
0100
0001
1100
0011
1000
0001
0010
,  // measure 76
0100
0001
0100
1000
0010
0010
0010
0010
0001
1000
0010
0100
0011
1000
0001
0100
,  // measure 77
00M0
0100
1000
0000
0101
1000
0001
0010
0M00
0010
1000
0101
1010
0001
0100
0010
,  // measure 78
000M
0010
0001
0000
1100
0001
1000
0100
00M0
0100
0001
0000
1010
0001
1000
0100
,  // measure 79
00M0
0100
0001
0000
1100
0001
1000
0010
0M00
0010
0001
0000
0100
0010
0100
0001
,  // measure 80
1000
0100
0010
0001
1000
0010
0400
0000
0000
0000
0000
0000
0000
0000
0000
0000
,  // measure 81
0300
0000
0000
0000
;

//---------------dance-single - sangyule----------------
#NOTEDATA:;
#CHARTNAME:;
#STEPSTYPE:dance-single;
#DESCRIPTION:sangyule;
#CHARTSTYLE:;
#DIFFICULTY:Beginner;
#METER:1;
#RADARVALUES:0.094644,0.166847,0.181317,0.000000,0.000000,95.000000,69.000000,26.000000,0.000000,0.000000,0.000000,0.000000,0.000000,0.000000,0.094644,0.166847,0.181317,0.000000,0.000000,95.000000,69.000000,26.000000,0.000000,0.000000,0.000000,0.000000,0.000000,0.000000;
#CREDIT:sangyule;
#NOTES:
0000
0000
0000
0000
,
0000
0000
0000
0000
,
0000
0000
0000
0000
,
0000
0000
0000
0000
,
0000
0000
0000
0000
,
0000
0000
0000
0000
,
0000
0000
0000
0000
,
0000
0000
0000
0000
,
0000
0001
0000
0000
,
0000
1000
0000
0000
,
0000
0010
0000
0000
,
0000
0100
0000
0000
,
0000
0001
0000
0000
,
0000
1000
0000
0000
,
0000
0100
0000
0000
,
0000
0010
0000
0000
,
0000
0001
0000
0000
,
0000
0001
0000
0000
,
0000
1000
0000
0000
,
0000
1000
0000
0000
,
0000
0100
0000
0100
,
0000
0010
0000
0010
,
0000
0001
0000
1000
,
0000
0000
0000
0000
,
0000
0000
0000
1001
,
0000
0000
0000
1001
,
0000
0000
0000
0110
,
0000
0000
0000
0110
,
0000
0000
0000
1001
,
0000
0000
0000
1001
,
0000
0000
0000
0110
,
0000
0000
0000
1001
,
0000
0000
0000
0000
,
1000
0000
1000
0000
,
0000
0000
0000
1001
,
0000
0000
0000
1001
,
0000
0000
0000
0110
,
0000
0000
0000
0110
,
0000
0000
0000
1001
,
0000
0000
0000
1001
,
0000
0000
0000
0000
,
0000
0000
0000
0000
,
0000
0000
0000
0000
,
0000
0000
0000
0000
,
0000
0000
0000
0000
,
0000
0000
0000
0000
,
0000
0000
0000
0000
,
0000
0000
0000
0000
,
0000
1000
0000
0000
,
0000
0100
0000
0000
,
0000
0010
0000
0000
,
0000
0001
0000
0000
,
0000
1000
0000
0000
,
0000
0010
0000
0000
,
0000
0100
0000
0000
,
0000
0001
0000
0000
,
0000
1000
0000
0000
,
0000
1000
0000
0000
,
0000
0001
0000
0000
,
0000
0001
0000
0000
,
0000
0010
0000
0010
,
0000
0100
0000
0100
,
0000
1000
0000
0001
,
0000
0000
0000
0000
,
0000
0000
0000
1000
,
0000
0000
0000
1001
,
0000
0000
0000
0110
,
0000
0000
0000
0110
,
0000
0000
0000
1001
,
0000
0000
0000
1001
,
0000
0000
0000
0110
,
0000
0000
0000
1000
,
0000
0001
0000
0000
,
1000
0000
1000
0000
,
0000
0000
0000
1001
,
0000
0000
0000
1001
,
0000
0000
0000
0110
,
0000
0000
0000
0110
,
0000
0000
0000
1001
,
0000
0000
0000
1001
;

//---------------dance-single - sangyule----------------
#NOTEDATA:;
#CHARTNAME:;
#STEPSTYPE:dance-single;
#DESCRIPTION:sangyule;
#CHARTSTYLE:;
#DIFFICULTY:Hard;
#METER:9;
#RADARVALUES:0.553914,0.643589,0.069737,0.076711,0.659019,556.000000,546.000000,10.000000,11.000000,42.000000,0.000000,15.000000,0.000000,0.000000,0.553914,0.643589,0.069737,0.076711,0.659019,556.000000,546.000000,10.000000,11.000000,42.000000,0.000000,15.000000,0.000000,0.000000;
#CREDIT:sangyule;
#NOTES:
0000
0000
0000
0000
,
0000
0000
0000
0000
,
0000
0000
0000
0000
,
0000
0000
0000
0000
,
0000
0000
0000
0000
,
0000
0000
0000
0000
,
0000
0000
0000
0000
,
0000
0000
0000
0000
,
0000
0000
0000
0000
0001
0000
1000
0001
0000
1000
0001
0000
0010
0000
0100
1000
,
0000
0100
1000
0000
0001
0000
0100
0010
0000
0100
0010
0000
1000
0000
0001
1000
,
0000
0010
0100
0000
1000
0000
0100
0010
0000
0100
1000
0000
0100
0000
0001
1000
,
0000
0100
1000
0000
0001
0000
1000
0010
0000
1000
0010
0000
0100
0000
0001
0010
,
0000
0100
1000
0000
0010
0000
0100
0001
0000
0100
0001
0000
1000
0000
0100
0010
,
0000
0100
0010
0000
0001
0000
1000
0001
0000
1000
0001
0000
0100
0000
0010
1000
,
0000
0100
0010
0000
1000
0000
0010
0100
0000
0010
1000
0000
0010
0000
0100
0001
,
0000
0100
0010
0000
0100
0000
1000
0100
0000
1000
0001
0000
0100
0000
0010
1000
,
0000
0001
0010
0000
0011
0000
0000
0001
0000
0000
1000
0000
0010
0000
0000
0100
,
0000
0000
0001
0000
0100
0000
0000
0010
0000
0000
1000
0000
0001
0000
0000
0010
,
0000
0000
0100
0000
0001
0000
0000
0100
0000
0000
1000
0000
0001
0000
0000
0100
,
0000
0000
0010
0000
1000
0000
0000
0001
0000
0000
1000
0000
0100
0000
0000
0010
,
0000
0001
1000
0010
1000
0010
0100
0001
,
1000
0100
0010
0001
0010
0001
1000
0010
,
0100
0001
1000
0100
0010
0001
0100
0010
,
1000
0000
0100
0000
0000
0000
0000
0000
000M
000M
000M
000M
000M
000M
000M
000M
,
0000
1000
0010
1000
0004
0000
0000
0000
0000
0000
0000
0000
1003
0000
0001
0100
,
00M0
0100
1000
0000
0000
0000
0001
0100
00M0
0100
1000
0001
1000
0000
0001
0010
,
0100
1000
0100
1000
0040
0000
0000
0000
0000
0000
0000
0000
0130
0000
0001
0010
,
0M00
0010
1000
0000
0001
0000
1000
0010
0M00
0010
0001
1000
0001
0000
0100
0010
,
2000
0000
3002
0000
0043
0000
0000
0000
0000
0000
0000
0000
0130
0000
1000
0100
,
00M0
0100
0001
0000
1000
0000
0001
0100
00M0
0100
1000
0001
1000
0000
0001
0010
,
0M00
0010
1000
0000
1001
0000
0001
0010
0M00
0010
1000
0000
0100
0000
1000
0010
,
0M00
0010
0001
0000
1000
0000
0001
0100
00M0
0100
1000
0000
0010
0000
0000
0000
,
0100
0000
0004
0000
0000
0000
0003
1000
,
0100
0000
1000
0000
0000
0000
1000
0000
0001
0000
1000
0000
0010
0100
0010
1000
,
0001
1000
0100
0010
0400
0000
0000
0000
0000
0000
0000
0000
0310
0000
0001
0100
,
00M0
0100
1000
0000
0001
0000
1000
0100
00M0
0100
0001
1000
0001
0000
0010
0100
,
2000
0000
3020
0000
0430
0000
0000
0000
0000
0000
0000
0000
0301
0000
1000
0010
,
0M00
0010
0001
0000
1000
0000
0001
0010
0M00
0010
1000
0001
1000
0000
0001
0100
,
00M0
0100
1000
0000
1001
0000
0001
0010
0M00
0010
1000
0000
0100
0000
1000
0010
,
0M00
0010
0001
0000
1000
0000
0001
0100
00M0
0100
1000
0000
0040
0000
0000
0000
,
0000
0230
0000
0000
,
0000
0000
0000
0000
,
0000
0300
0000
0000
,
0000
0000
0000
0000
,
0000
0000
0000
0000
0001
0000
0000
1000
0000
0000
0100
0000
0010
0000
0000
0001
,
0000
0000
1000
0000
0010
0000
0000
0100
0000
0000
0001
0000
1000
0000
0000
0100
,
0000
0000
0010
0000
0001
0000
0000
1000
0000
0000
0001
0000
0100
0000
0000
0010
,
0000
0000
1000
0000
0001
0000
0000
0010
0000
0000
0001
0000
1000
0000
0000
0001
,
0000
0000
1000
0000
1001
0000
0001
0100
0000
0001
0100
0000
0010
0000
1000
0100
,
0000
1000
0100
0000
0010
0000
0001
1000
0000
0001
1000
0000
0010
0000
1000
0001
,
0000
0010
0100
0000
0001
0000
0100
0010
0000
0100
0001
0000
0100
0000
1000
0010
,
0000
0100
0001
0000
1000
0010
0000
1000
0010
0000
0100
0000
0001
0000
1000
0100
,
0000
0010
0001
0000
0100
0000
0010
1000
0000
0010
1000
0000
0001
0000
0010
0100
,
0000
0010
0100
0000
1000
0000
0001
0100
0000
0001
0100
0000
0010
0000
1000
0001
,
0000
1000
0010
0000
0001
0000
0010
0100
0000
0010
0001
0000
0010
0000
0100
1000
,
0000
0100
0010
0000
1000
0000
0001
0010
0000
0001
1000
0000
0010
0000
0100
0001
,
0000
0010
0100
0000
1100
0000
0000
1000
0000
0000
0001
0000
0100
0000
0000
0010
,
0000
0000
1000
0000
0001
0000
0000
0010
0000
0000
0001
0000
1000
0000
0000
0100
,
0000
0000
0010
0000
1000
0000
0000
0010
0000
0000
0001
0000
0100
0000
0000
0010
,
0000
0000
1000
0000
0001
0000
0000
0100
0000
0000
0010
0000
1000
0000
0000
0100
,
0000
0010
0011
0001
1000
0001
0100
0010
,
0100
0001
1000
0100
1000
0001
0010
0100
,
0010
0001
0100
0010
1000
0100
1000
0010
,
0100
0001
0000
0000
0000
0000
0000
0000
,
0000
1000
0001
1000
0400
0000
0000
0000
0000
0000
0000
0000
0300
0000
0010
0000
,
0001
0010
0000
0010
0100
0010
0014
0000
,
0000
0000
0003
1000
0040
0000
0000
0000
0000
0000
0000
0000
0130
0000
0001
0010
,
0M00
0010
1000
0000
0001
0000
1000
0010
0M00
0010
0001
1000
0001
0000
1000
0010
,
0200
0000
0302
0000
4003
0000
0000
0000
0000
0000
0000
0000
3010
0000
1000
0100
,
00M0
0100
0001
0000
1000
0000
0001
0100
00M0
0100
1000
0001
0100
0000
0001
0010
,
0M00
0010
1000
0000
1001
0000
0001
0100
00M0
0100
1000
0000
0001
0000
1000
0010
,
0M00
0010
0001
0000
0100
0000
0001
0010
0M00
0010
1000
0000
2001
0000
3000
0000
,
0002
0003
0400
0000
0000
0000
0300
0001
,
0010
0000
0001
0000
0000
0000
0001
0000
1000
0000
0001
0000
0100
0010
1000
0100
,
0010
0001
1000
0001
0400
0000
0000
0000
0000
0000
0000
0000
0301
0000
1000
0010
,
0M00
0010
0001
0000
1000
0000
0001
0010
0M00
0010
1000
0001
0010
0000
0001
0100
,
0020
0000
2030
0000
3004
0000
0000
0000
0000
0000
0000
0000
0013
0000
0001
0100
,
00M0
0100
1000
0000
0001
0000
1000
0100
00M0
0100
0001
1000
0100
0000
1000
0010
,
0M00
0010
0001
0000
1001
0000
1000
0100
00M0
0100
0001
0000
0010
0000
0001
0100
,
00M0
0100
1000
0000
0001
0000
1000
0010
0M00
0010
0001
0000
0400
0000
0000
0000
,
0000
0300
0000
0000
;

//---------------dance-single - sangyule----------------
#NOTEDATA:;
#CHARTNAME:;
#STEPSTYPE:dance-single;
#DESCRIPTION:sangyule;
#CHARTSTYLE:;
#DIFFICULTY:Medium;
#METER:7;
#RADARVALUES:0.301863,0.475696,0.230134,0.125527,0.125527,303.000000,252.000000,33.000000,18.000000,22.000000,26.000000,4.000000,0.000000,0.000000,0.301863,0.475696,0.230134,0.125527,0.125527,303.000000,252.000000,33.000000,18.000000,22.000000,26.000000,4.000000,0.000000,0.000000;
#CREDIT:sangyule;
#NOTES:
0000
0000
0000
0000
,
0000
0000
0000
0000
,
0000
0000
0000
0000
,
0000
0000
0000
0000
,
0000
0000
0000
0000
,
0000
0000
0000
0000
,
0000
0000
0000
0000
,
0000
0000
0000
0000
,
0000
0000
0000
0000
1000
0000
0000
0001
0000
0000
0100
0000
0001
0000
0000
1000
,
0000
0000
0100
0000
1000
0000
0000
0001
0000
0000
0010
0000
0001
0000
0000
1000
,
0000
0000
0010
0000
0001
0000
0000
0010
0000
0000
1000
0000
0001
0000
0000
1000
,
0000
0000
0100
0000
0010
0000
0000
0001
0000
0000
1000
0000
0010
0000
0000
0100
,
0000
0000
0001
0000
0010
0000
0000
0001
0000
0000
1000
0000
0010
0000
0000
0100
,
0000
0000
0001
0000
1000
0000
0000
0100
0000
0000
1000
0000
0001
0000
0000
1000
,
0000
0000
0100
0000
0001
0000
0000
0100
0000
0000
1000
0000
0010
0000
0000
0001
,
0000
0000
0010
0000
1000
0000
0000
0001
0000
0000
1000
0000
0100
0000
0000
0010
,
0000
0001
0101
0000
0100
0000
0010
0000
,
0010
1000
1000
0001
,
0001
0010
0010
0100
,
0100
1000
1000
0001
,
0001
0000
0100
0010
0100
0010
1000
0001
,
1000
0001
0010
0100
0010
0100
1000
0001
,
1000
0001
0400
0000
0000
0000
0000
0000
,
0000
0000
0000
0000
0300
0000
0000
0000
M000
M000
M000
M000
M000
M000
M000
M000
,
0000
0002
0000
1103
,
0000
1000
0000
0111
,
0001
1000
0200
0000
0000
0000
1301
0000
,
0000
0001
0000
1011
,
0001
1000
0M01
0000
0M00
0000
1011
0000
,
0000
1000
0000
0111
,
0000
1000
1002
0000
0000
0000
1013
0000
,
0000
0001
0000
1110
,
1000
0004
0000
00M3
,
0000
0000
00M0
0000
0000
0000
1000
0001
,
1000
0001
0200
0000
0000
0000
0311
0000
,
0000
0000
0010
0000
0000
0100
1101
0000
,
1000
0001
10M0
0000
00M0
0000
1101
0000
,
0000
0000
0001
0000
0000
1000
1110
0000
,
0000
2001
0000
3011
,
0000
0001
0000
1110
,
0000
0002
0000
0000
,
0000
2003
0000
0000
,
0000
3200
0000
0000
,
0000
0320
0000
0000
,
0000
0032
0000
0000
,
0000
2003
0000
0000
,
0000
3020
0000
0000
,
0000
0230
0000
0000
,
0300
0000
0000
0000
0001
0000
0000
0010
0000
0000
0001
0000
1000
0000
0000
0010
,
0000
0000
1000
0000
0001
0000
0000
0100
0000
0000
0001
0000
1000
0000
0000
0001
,
0000
0000
0010
0000
1000
0000
0000
0010
0000
0000
0001
0000
1000
0000
0000
0010
,
0000
0000
0100
0000
0001
0000
0000
1000
0000
0000
0001
0000
1000
0000
0000
0100
,
0000
0000
0010
0000
0100
0000
0000
1000
0000
0000
0001
0000
0100
0000
0000
0001
,
0000
0000
1000
0000
0100
0000
0000
0010
0000
0000
0001
0000
1000
0000
0000
0001
,
0000
0000
0100
0000
1000
0000
0000
0100
0000
0000
0001
0000
0010
0000
0000
1000
,
0000
0000
0010
0000
0001
0000
0000
1000
0000
0000
0001
0000
0100
0000
0000
0010
,
0000
1000
1001
0000
0001
0000
0010
0000
,
0010
0100
0100
1000
,
1000
0001
0001
0100
,
0100
0010
0010
1000
,
1000
0000
0001
0010
0001
0010
0100
1000
,
0100
1000
0001
1000
0001
1000
0010
0100
,
0010
0100
0004
0000
0000
0000
0000
0000
,
0000
0003
0000
0000
,
0000
2000
0000
30M1
,
0000
00M1
0000
1002
,
0000
0203
0000
1301
,
0000
0001
0000
1110
,
1000
0100
100M
0000
000M
0000
1110
0000
,
0000
1000
0000
0111
,
0000
0210
0000
0311
,
0000
0010
0000
1101
,
1000
0004
0000
0M03
,
0000
0000
0M00
0000
0000
0000
1000
0100
,
1000
0001
0100
0000
0000
0000
1011
0000
,
0000
1000
0000
0111
,
0001
0010
M001
0000
M000
0000
0111
0000
,
0000
0100
0000
1011
,
0000
2001
0000
3101
,
0000
0001
0000
1110
,
0000
1000
0000
0000
;

//---------------dance-single - sangyule----------------
#NOTEDATA:;
#CHARTNAME:;
#STEPSTYPE:dance-single;
#DESCRIPTION:sangyule;
#CHARTSTYLE:;
#DIFFICULTY:Easy;
#METER:3;
#RADARVALUES:0.167370,0.250270,0.146449,0.153422,0.000000,168.000000,147.000000,21.000000,22.000000,0.000000,0.000000,0.000000,0.000000,0.000000,0.167370,0.250270,0.146449,0.153422,0.000000,168.000000,147.000000,21.000000,22.000000,0.000000,0.000000,0.000000,0.000000,0.000000;
#CREDIT:sangyule;
#NOTES:
0000
0000
0000
0000
,
0000
0000
0000
0000
,
0000
0000
0000
0000
,
0000
0000
0000
0000
,
0000
0000
0000
0000
,
0000
0000
0000
0000
,
0000
0000
0000
0000
,
0000
0000
0000
0000
,
0000
1000
0000
0001
,
0100
0010
0000
1000
,
0100
0010
0000
0100
,
1000
0001
0000
0100
,
0020
1030
0000
0001
,
1000
0001
0000
0010
,
0100
1000
0000
0001
,
1000
0010
0000
0100
,
0001
1000
0000
1000
,
0000
0001
0000
0001
,
0000
0010
0000
0010
,
0000
0100
0000
0100
,
0000
1000
0001
1000
,
0001
0100
0010
0100
,
0010
2000
0000
0000
,
0000
3000
0000
0000
,
0000
0001
0000
1010
,
0000
0100
0000
0011
,
0000
2000
0000
3010
,
0000
0100
0000
0011
,
0001
2000
0000
3100
,
0000
0010
0000
1001
,
0000
0200
0000
0310
,
0000
2000
0000
3001
,
0001
0020
0000
0030
,
0000
0000
0000
0000
,
0000
2000
0000
3001
,
0000
0100
0000
1010
,
0000
0002
0000
0013
,
0000
0100
0000
1001
,
0000
0110
0000
1001
,
0000
1000
0000
0110
,
0000
0002
0000
0000
,
0000
0000
0000
0000
,
0000
0003
0000
0000
,
0000
0000
0000
0000
,
0000
0000
0000
0000
,
0000
0000
0000
0000
,
0000
0000
0000
0000
,
0000
0000
0000
0000
,
0000
1000
0000
0001
,
0100
0010
0000
1000
,
0001
0010
0000
0100
,
1000
0001
0000
0100
,
0002
0103
0000
0010
,
1000
0010
0000
0100
,
0001
1000
0000
0001
,
0010
0100
0000
1000
,
0002
1003
0000
1000
,
0000
0001
0000
0001
,
0000
0100
0000
0100
,
0000
0010
0000
0010
,
2000
3001
0010
0001
,
0010
0100
1000
0100
,
1000
0002
0000
0000
,
0000
0003
0000
0000
,
0000
2000
0000
3001
,
0000
0001
0000
0101
,
0000
1000
0000
0011
,
0000
0100
0000
1010
,
1000
0002
0000
0013
,
0000
1000
0000
1010
,
0000
0220
0330
1001
,
0000
0001
0000
1000
,
1000
0200
0000
0300
,
0000
0000
0000
0010
,
0000
0002
0000
0103
,
0000
1000
0000
0110
,
0000
0001
0000
1001
,
0000
0100
0000
1010
,
0000
2002
3003
0110
,
0000
0001
0000
1100
;
