#VERSION:0.83;
#TITLE:Dance with Silence;
#SUBTITLE:;
#ARTIST:Camellia;
#TITLETRANSLIT:;
#SUBTITLETRANSLIT:;
#ARTISTTRANSLIT:;
#GENRE:;
#ORIGIN:;
#CREDIT:;
#BANNER:Dance_with_Silence-bn.png;
#BACKGROUND:Dance_with_Silence-bg.png;
#PREVIEWVID:;
#JACKET:Dance_with_Silence-jacket.png;
#CDIMAGE:;
#DISCIMAGE:;
#LYRICSPATH:;
#CDTITLE:;
#MUSIC:Dance with Silence.ogg;
#OFFSET:0.009000;
#SAMPLESTART:29.990997;
#SAMPLELENGTH:15.000000;
#SELECTABLE:YES;
#BPMS:0.000=128.000;
#STOPS:;
#DELAYS:;
#WARPS:;
#TIMESIGNATURES:0.000=4=4;
#TICKCOUNTS:0.000=4;
#COMBOS:0.000=1;
#SPEEDS:0.000=1.000=0.000=0;
#SCROLLS:0.000=1.000;
#FAKES:;
#LABELS:0.000=Song Start;
#BGCHANGES:;
#KEYSOUNDS:;
#ATTACKS:
;

//---------------dance-single - ----------------
#NOTEDATA:;
#CHARTNAME:;
#STEPSTYPE:dance-single;
#DESCRIPTION:;
#CHARTSTYLE:Pad;
#DIFFICULTY:Challenge;
#METER:13;
#RADARVALUES:0.907939,1.099322,0.346534,0.501368,1.592580,862.000000,815.000000,47.000000,68.000000,10.000000,0.000000,2.000000,0.000000,0.000000,0.907939,1.099322,0.346534,0.501368,1.592580,862.000000,815.000000,47.000000,68.000000,10.000000,0.000000,2.000000,0.000000,0.000000;
#CREDIT:Benpai;
#NOTES:
0000
0000
0000
0000
,
0000
0000
0000
0000
,
0000
0000
0000
0000
,
0000
0000
0000
0000
,
0000
0000
0000
0000
,
0000
0000
0000
0000
,
0000
0000
0000
0000
,
0000
0000
0000
1100
,
1001
0000
0000
0000
0000
0000
0000
0000
1000
0000
0000
0000
0000
0000
0000
0000
0010
0000
0000
0000
0000
0000
0000
0000
0100
0000
0000
0000
0001
0100
0001
0100
,
0001
0000
0000
0000
1000
0000
0000
0000
0100
0000
0000
0000
1000
0100
00M0
0100
,
0001
0000
0000
0000
0000
0000
0000
0000
0100
0000
0000
0000
0000
0000
0000
0000
0010
0000
0000
0000
0000
0000
0000
0000
1000
0000
0000
0000
0001
1000
0001
1000
,
0001
0000
0000
0000
0010
0000
0000
0000
0100
0000
0000
0000
1000
0010
0M00
0010
,
0001
0100
0010
1000
0001
0010
0100
1000
0001
0100
0001
1000
0001
0010
0100
1000
,
0001
0100
0010
1000
0001
0010
0100
0010
0001
1000
0001
0100
0001
0010
0100
1000
,
0001
0100
0010
0100
0001
1000
0100
0010
0001
0100
0010
1000
0001
0010
0100
0010
0001
1000
0010
0100
0001
0010
0100
2000
,
0000
0000
0000
0000
0000
0000
0000
0000
0000
0000
0000
0000
0000
0000
3010
0000
0000
0000
0100
0010
0100
0000
0001
0000
1000
0000
0100
0000
0010
0000
0001
0000
,
1002
0000
0000
0000
0103
0010
1000
0100
0200
0000
0010
0000
2300
0000
0001
0000
,
3020
0000
0000
0000
0000
0000
0130
0000
0200
0000
0000
0000
0000
0000
0310
0000
1000
0000
0001
0100
0001
0000
0010
0000
0100
0000
1000
0000
0010
0000
0000
0000
,
0210
0000
0000
0000
0301
0100
0001
1000
2000
0000
0010
0000
3200
0000
0001
0000
,
0320
0000
0000
0000
0000
0000
0031
0000
0002
0000
0000
0000
0000
0000
1003
0000
0100
0000
1000
0000
0010
0000
0100
0001
0040
0000
0000
0000
0000
0000
0030
0000
,
0012
0000
0000
0000
1003
0100
1000
0001
0002
0000
1000
0000
0203
0000
0010
0000
,
0302
0000
0000
0000
0000
0000
1003
0000
2000
0000
0000
0000
0000
0000
3010
0000
1000
0000
0100
0010
0001
0000
1000
0000
0010
0000
0100
0000
0001
0000
0010
0100
,
2000
0000
0000
0000
0000
0000
3001
0100
0011
0000
0000
0000
1000
0000
0001
0100
0020
0000
0000
0000
0000
0000
1030
0001
1010
0000
0000
0000
0100
0000
0010
0001
,
2000
0000
0000
0000
0000
0000
3010
0100
0011
0000
0000
0000
0100
0000
0020
0000
0000
0000
1030
0000
0100
0000
0010
0100
1000
0000
0010
0000
0100
0000
0001
0000
,
1100
0000
0000
0000
0010
0000
1000
0001
0020
0000
0000
0000
0000
0000
0130
0000
1000
0000
0010
0000
0100
00M0
0100
0000
1000
0000
0001
0000
0010
0000
1000
0000
,
0010
0000
0100
0000
0001
0000
0100
0000
1000
0000
0010
0000
0000
0000
0100
0000
0100
0000
0001
0000
1000
0100
1000
0000
0001
0000
0010
0000
0100
0000
1000
0000
,
0011
0000
0000
0000
1100
0000
0001
0000
0020
0000
0000
0000
0000
0000
0031
0000
1000
0000
0010
0000
0002
0000
0000
0000
0013
0000
0100
0000
0001
0000
0010
0M00
,
0010
0000
0000
0000
0000
0000
0000
0000
0000
0000
0000
0000
0100
0000
0000
0000
0000
0000
0000
0000
0000
0000
0000
0000
0001
0000
0000
0000
0000
0000
1000
0000
0000
0000
0000
0000
0010
0000
0000
0000
0000
0000
0M00
0000
0000
0000
0000
0000
0010
0000
0000
0000
0000
0000
0000
0000
0000
0000
0000
0000
0001
0000
0000
0000
0000
0000
0000
0000
0000
0000
0000
0000
1000
0000
0000
0000
0000
0000
0000
0000
0000
0000
0000
0000
0000
0000
0000
0000
0000
0000
0000
0000
0000
0000
0000
0000
0200
0000
0000
0000
0000
0000
0000
0000
0000
0000
0000
0000
0000
0000
0000
0000
0000
0000
0000
0000
0000
0000
0000
0000
0000
0000
0000
0000
0000
0000
0000
0000
0000
0000
0000
0000
0000
0000
0000
0000
0000
0000
0000
0000
0000
0000
0000
0000
0310
0000
0000
0000
0000
0000
0000
0000
0001
0000
0000
0000
0000
0000
0000
0000
1000
0000
0000
0000
0000
0000
0000
0000
0010
0000
0000
0000
0000
0000
0000
0000
0000
0000
0000
0000
0100
0000
0000
0000
0000
0000
0000
0000
0000
0000
0000
0000
,
0011
0000
0000
0000
0100
0000
0010
1000
0002
0000
0000
0000
0000
0000
0013
0000
0100
0000
1000
0000
0010
0000
0000
0000
0100
0010
0100
0001
1000
0000
0000
0000
,
0200
0000
0000
0000
0301
0000
0100
0000
0020
0000
0000
0000
0031
0000
0100
0000
0010
1000
0010
0000
0100
0000
0001
0000
1000
0100
1000
0001
0100
0000
0010
0000
,
1100
0000
0001
0010
0200
0000
1300
0000
0001
0100
2000
0000
3200
0000
0301
0000
,
0010
0000
0000
0010
0000
0000
0100
0000
0000
0100
0000
0000
2100
0000
0000
0000
0000
0000
3010
0100
0001
0010
0100
1000
,
0011
0000
0000
0000
0100
0000
0001
1000
0200
0000
0000
0000
0000
0000
0310
0000
0001
0000
1000
0000
0100
00M0
0100
0000
0001
0000
1000
0000
0010
0000
0001
0000
,
0010
0000
0100
0000
1000
0000
0100
0000
0001
0000
0010
0000
0000
0000
0100
0000
0100
0000
1000
0000
0001
0100
0001
0000
1000
0000
0010
0000
0100
0000
0001
0000
,
1010
0000
0000
0000
0101
0000
1000
0000
0020
0000
0000
0000
0000
0000
1030
0000
0001
0000
0010
0000
2000
0000
0000
0000
3010
0000
0100
0000
1000
0000
0010
0M00
,
0010
0000
0000
0000
0000
0000
0000
0000
0000
0000
0000
0000
0100
0000
0000
0000
0000
0000
0000
0000
0000
0000
0000
0000
1000
0000
0000
0000
0000
0000
0001
0000
0000
0000
0000
0000
0010
0000
0000
0000
0000
0000
0M00
0000
0000
0000
0000
0000
0010
0000
0000
0000
0000
0000
0000
0000
0000
0000
0000
0000
1000
0000
0000
0000
0000
0000
0000
0000
0000
0000
0000
0000
0001
0000
0000
0000
0000
0000
0000
0000
0000
0000
0000
0000
0100
0000
0000
0000
0000
0000
0000
0000
0000
0000
0000
0000
0020
0000
0000
0000
0000
0000
0000
0000
0000
0000
0000
0000
0000
0000
0000
0000
0000
0000
0000
0000
0000
0000
0000
0000
0000
0000
0000
0000
0000
0000
0000
0000
0000
0000
0000
0000
0000
0000
0000
0000
0000
0000
0000
0000
0000
0000
0000
0000
0130
0000
0000
0000
0000
0000
0000
0000
0001
0000
0000
0000
0000
0000
0000
0000
0010
0000
0000
0000
0000
0000
0000
0000
0100
0000
0000
0000
0000
0000
0000
0000
1000
0000
0000
0000
0000
0000
0000
0000
0001
0000
0000
0000
0000
0000
0000
0000
,
0100
0000
00M0
0000
0100
0000
0000
0000
1010
0000
0000
0000
0001
0000
1000
0001
0200
0000
0000
0000
0310
0000
1000
0000
0001
0100
0001
0100
0001
0000
0000
0000
,
1000
0000
0100
0000
0001
0000
0100
0000
0010
0000
0000
0000
0001
0000
0100
0000
0010
1000
0010
0000
0100
0000
0001
0000
1000
0100
1000
0001
0100
0000
0010
0000
,
1100
0000
0000
0000
0000
0000
0001
1000
0100
0000
1010
0000
0000
0000
0101
0000
1010
0000
0000
0000
0000
0000
0001
1000
0010
0000
1100
0000
0000
0000
0011
0000
,
2000
0000
0000
0000
0000
0000
0000
0000
0000
0000
0000
0000
0000
0000
0000
0000
3001
0000
0100
0010
0100
0000
0001
0000
1000
0000
0100
0000
0010
0000
0001
0000
,
1002
0000
0000
0000
1003
0010
1000
0200
0000
0000
0310
0000
0001
0000
1000
0000
,
0020
0000
0000
0000
0000
0000
0230
0000
0000
0000
0000
0000
0300
0000
0110
0000
0000
0000
0001
0000
0010
0000
0100
0000
0000
0000
1000
0000
0010
0100
0001
1000
,
0002
0000
0000
0000
1003
0010
1000
0200
0000
0000
0310
0000
0001
0000
0100
0000
,
0020
0000
0000
0000
0000
0000
0000
0000
0000
2030
0000
0000
0000
0000
0000
0000
0000
0000
0000
0000
0000
3100
0000
0000
00M0
0000
0000
0100
0000
0000
0100
0000
0000
0100
0000
0000
0001
0000
0010
0000
0100
0000
1000
0000
0001
0000
0100
0000
,
0021
0000
0000
0000
1030
0001
1000
0200
0000
0000
0310
0000
0100
0000
1000
0000
,
0002
0000
0000
0000
0000
0000
0203
0000
0000
0000
0000
0000
0000
0000
0310
1000
0010
0000
0100
0000
0001
0000
0010
0000
0200
0000
0000
0000
1300
0000
0001
0100
,
0021
0000
0000
0000
0000
0000
0130
0001
1000
0000
0000
0000
0001
0000
0010
0100
2010
0000
0000
0000
0000
0000
3001
0010
0100
0000
0000
0000
1000
0000
0010
0100
,
0012
0000
0000
0000
0000
0003
1000
0010
0100
0000
0000
0000
0001
0000
0010
0000
0100
0000
0010
0000
0001
0000
0100
0000
0010
0000
1000
0001
1000
0000
0100
0000
,
0010
0000
0001
0000
0010
0000
0001
0000
1000
0000
0010
0000
0100
0000
0001
0000
1000
0000
0100
0000
1000
0000
0100
0000
0010
0000
0001
0000
1000
0001
1000
0000
,
0010
0100
0001
0010
0100
1000
0001
0100
0010
0100
0001
1000
0100
0010
0100
1000
,
0001
0100
0010
1000
0001
0010
0001
1000
0010
0100
0001
0010
0100
1000
0010
1000
0001
0010
0001
1000
0010
0100
0001
0020
,
0000
0000
0000
0000
0000
0000
0000
0000
0000
0000
0000
0000
0000
0000
0130
0000
0000
0000
1000
0001
1000
0000
0010
0000
0100
0000
0001
0000
0010
0000
0100
0000
,
1010
0000
0001
0000
0100
0000
0010
0000
0001
0000
0010
0100
0001
0000
1000
0000
0100
0000
0010
0000
1000
0000
0010
0000
0001
0000
0100
0000
0010
0000
1000
0001
,
1000
0000
0100
0000
0010
0000
0100
0000
1000
0000
0010
0000
0100
0000
0001
0000
0010
0000
0100
0010
0001
0000
1000
0000
0010
0000
1000
0000
0200
0000
0000
0000
,
1300
0000
0001
0000
0010
0000
0100
0000
0001
0000
0100
1000
0001
0000
1000
0000
0010
0000
1000
0000
0100
0000
0010
0000
0001
0000
0100
0000
0010
0000
1000
0001
,
1000
0000
0100
0000
0010
0000
0001
0000
0100
0000
0010
0000
0100
0000
0001
0000
1000
0000
0100
0000
0010
0000
0001
0100
0040
0000
0000
0000
0000
0000
0000
0000
,
0130
0000
0001
0000
1000
0000
0100
0000
0010
0000
1000
0010
0100
0000
1000
0000
0001
0000
1000
0000
0010
0000
0100
0000
0001
0000
1000
0000
0100
0000
0010
0000
,
0100
0000
1000
0000
0010
0000
0100
0000
0001
0000
0010
0000
0100
0000
1000
0000
0001
0000
1000
0010
1000
0000
0001
0000
0010
0000
0100
0000
1000
0000
0010
0100
,
0010
0000
1000
0000
0001
0000
0010
0100
1010
0000
0000
0000
0001
0000
1000
0100
0010
0000
0001
0000
1000
0000
0010
0100
0011
0000
0000
0000
1000
0000
0001
0100
,
0010
0000
1000
0000
0100
0000
0010
0100
1010
0000
0000
0000
0001
0000
1000
0100
0010
0000
0001
0000
0100
0000
0010
0100
0001
0000
1000
0000
0100
0000
0010
0000
,
0100
1000
0001
0000
0100
0000
0010
0000
1000
0000
0010
0000
0100
0000
0001
0000
1000
0100
1000
0001
0100
0010
1000
0001
0010
0000
0000
0000
0100
0000
0010
0001
,
2000
0000
0000
0000
0000
0000
3010
0000
0020
0000
0000
0000
0030
0000
0110
0000
0000
0000
0100
0001
1000
0000
0011
0000
0000
0000
0100
0000
0011
0000
0000
0000
,
2002
0000
0000
0000
3003
0000
1200
0000
0000
0000
0310
0000
0100
0000
0001
0000
1010
0000
0000
0000
0100
0000
0010
0001
1000
0000
0000
0000
0100
0000
0010
0100
,
2000
0000
0000
0000
3000
0000
1001
0000
0000
0000
0101
0000
1010
0000
0200
0000
0000
0000
1000
0000
1300
0000
0001
0000
1000
0100
0010
0000
0001
1000
0010
0000
,
1200
0000
0000
0000
0000
0000
0000
0000
0301
0000
0010
0000
0100
0000
1000
0000
0011
0000
0000
0000
0100
0000
0001
1000
0100
0000
0000
0000
0010
0000
0001
1000
,
0020
0000
0000
0000
0000
0000
1030
0000
0011
0000
1100
0000
0010
0000
1000
0000
0100
0000
0010
0000
0001
0000
0010
0000
2000
0000
0000
0000
3010
0000
0100
1000
,
0002
0000
0000
0000
0003
0000
0100
0010
1000
0000
0000
0000
0000
0000
0001
0010
0200
0000
0000
0000
0000
0000
0310
0001
1000
0000
0000
0000
0000
0000
0001
0100
,
0010
0000
1000
0000
0001
0000
0010
0000
0100
0000
1000
0000
0001
0000
0100
0000
0010
0000
0100
0000
0001
0000
1000
0000
0100
0000
0010
0000
0100
0000
1000
0000
0001
0000
0100
0000
0010
0000
0000
0000
0000
0000
0100
0000
0000
0001
0000
0000
,
2000
0000
0000
0000
,
0000
0000
0000
0000
,
0000
0000
0000
0000
,
3000
0000
0000
0000
;

//---------------dance-single - ----------------
#NOTEDATA:;
#CHARTNAME:;
#STEPSTYPE:dance-single;
#DESCRIPTION:;
#CHARTSTYLE:Pad;
#DIFFICULTY:Hard;
#METER:11;
#RADARVALUES:0.748892,1.073148,0.125342,0.744678,1.205494,711.000000,694.000000,17.000000,101.000000,8.000000,0.000000,3.000000,0.000000,0.000000,0.748892,1.073148,0.125342,0.744678,1.205494,711.000000,694.000000,17.000000,101.000000,8.000000,0.000000,3.000000,0.000000,0.000000;
#CREDIT:loodee;
#NOTES:
// measure 0
0000
0000
0000
0000
,  // measure 1
0000
0000
0000
0000
,  // measure 2
0000
0000
0000
0000
,  // measure 3
0000
0000
0000
0000
,  // measure 4
0000
0000
0000
0000
,  // measure 5
0000
0000
0000
0000
,  // measure 6
0000
0000
0000
0000
,  // measure 7
0000
0000
0000
0000
,  // measure 8
0101
0000
0000
0000
0000
0000
0001
0000
0000
0000
0000
0000
1000
0000
0000
0000
0000
0000
0100
0000
0000
1000
0001
1000
,  // measure 9
0001
0000
0000
0000
0100
0000
0000
0000
0010
0000
0000
0000
1000
0100
0000
0100
,  // measure 10
0010
0000
0000
0000
0000
0000
0001
0000
0000
0000
0000
0000
1000
0000
0000
0000
0000
0000
0010
0000
0000
0100
0001
0100
,  // measure 11
0001
0000
0000
0000
1000
0000
0000
0000
0100
0000
0000
0000
0010
0100
0000
0100
,  // measure 12
1000
0001
0010
0100
1000
0001
0100
0010
0100
0001
1000
0100
0010
0100
1000
0001
,  // measure 13
0100
0010
1000
0001
0100
0001
1000
0100
0010
0001
0010
0100
1000
0001
1000
0010
,  // measure 14
0100
0001
1000
0001
0010
0100
1000
0001
0100
0001
1000
0001
0010
0100
1000
0100
0010
0001
1000
0001
0100
0010
1000
0001
,  // measure 15
2000
0000
0000
0000
0000
0000
0000
3010
0000
0100
0001
1000
0100
1000
0010
0000
,  // measure 16
1020
0000
0000
0000
0130
0001
1000
0100
0020
0000
0001
0000
0230
0000
1000
0000
,  // measure 17
2300
0000
0000
3001
0200
0000
0000
0310
1000
0001
0010
0100
0010
0001
0100
0000
,  // measure 18
0210
0000
0000
0000
0301
1000
0100
0010
0200
0000
0010
0000
2300
0000
0001
0000
,  // measure 19
3002
0000
0000
0000
0000
0000
0103
0000
0020
0000
0000
0000
0000
0000
0130
0000
0001
0000
0010
0000
0001
0000
1000
0000
0400
0000
0000
0000
0000
0300
0000
0000
,  // measure 20
2100
0000
0000
0000
3001
0100
0010
0100
0020
0000
1000
0000
0230
0000
0001
0000
,  // measure 21
0320
0000
0000
1030
0200
0000
0000
0310
0100
1000
0010
0100
0001
0010
0100
0010
,  // measure 22
0002
0000
0000
1003
0010
0000
0000
01M0
2000
0000
0000
3001
0010
0000
0000
01M0
,  // measure 23
0002
0000
0000
1003
0010
0000
1000
0020
0000
0130
0001
0010
0100
1000
0001
1000
,  // measure 24
0020
0000
0130
0000
0201
0000
0000
0310
1000
0001
0010
0010
1000
0100
0010
0001
,  // measure 25
0100
0000
0010
0000
2000
0000
0000
0000
3001
0000
0010
0000
0M00
0000
0010
0000
1000
0000
0001
0000
1000
0001
1000
0000
0001
0000
0010
0000
0100
0000
1000
0000
,  // measure 26
0002
0000
0103
0000
0120
0000
0000
1030
0010
0100
2000
0000
3100
0010
1000
0010
,  // measure 27
0010
0000
0000
0001
0000
0000
1000
0000
0000
0010
0000
0000
0010
0000
0000
0001
0000
0000
1000
0000
0000
0000
0000
0000
0200
0000
0000
0000
0000
0000
0000
0000
0000
0000
0000
0000
1300
0000
0001
0000
1000
0000
0001
0000
1000
0000
0001
0000
,  // measure 28
0200
0000
0000
0000
0000
0000
0310
0000
0000
0000
0000
0000
1002
0000
0000
0000
0000
0000
0000
0000
0000
0013
0000
0000
0100
0000
0000
1000
0000
0000
0010
0000
0000
0000
0000
0000
1000
0000
0001
0000
1000
0000
0010
0000
0000
0000
0000
0000
,  // measure 29
0200
0000
0301
0010
0200
0000
0310
1000
000M
1000
0100
1000
0200
0000
0310
0001
,  // measure 30
2000
0000
0000
3000
1020
0000
0000
1030
0100
0100
0002
0000
0023
0000
0230
0000
,  // measure 31
1300
0000
1000
0000
0001
0000
0001
0000
1000
0000
1000
0000
0001
0100
0010
1000
,  // measure 32
0002
0000
0013
0000
0210
0000
0000
1300
0001
1000
0010
0010
0001
1000
0010
0100
,  // measure 33
0001
0000
0010
0000
0200
0000
0000
0000
1300
0000
0010
0000
0M00
0000
0010
0000
0001
0000
1000
0000
0010
1000
0010
0000
1000
0000
0001
0000
0010
0000
0100
0000
,  // measure 34
1000
0000
1010
0000
2001
0000
0000
3010
0100
0010
0002
0000
0013
1000
0001
0010
,  // measure 35
0010
0000
0000
1000
0000
0000
0100
0000
0000
0010
0000
0000
0010
0000
0000
1000
0000
0000
0001
0000
0000
1000
0000
0000
0002
0000
0000
0000
0000
0000
0000
0000
0000
0000
0000
0000
1003
0000
0010
0000
1000
0000
0010
0000
1000
0000
0010
0000
,  // measure 36
0100
0000
0000
0000
0000
0000
0100
0000
0000
0000
0000
0000
1002
0000
0000
0000
0000
0000
0000
0000
0000
0103
0000
0000
0020
0000
0000
0000
0000
0000
0030
0000
0000
1000
0000
0000
0001
0000
1000
0000
0001
0000
1000
0000
0000
0000
0000
0000
,  // measure 37
0200
0000
1300
0001
0200
0000
0310
0001
M000
0001
0100
0001
2000
0000
3100
0010
,  // measure 38
0002
0000
0000
1003
0010
0100
000M
0100
2000
0000
0000
3001
0100
0010
M000
0010
,  // measure 39
0002
0000
0000
0000
0000
0000
0000
0000
0013
0100
1000
0010
1000
0001
1000
0100
,  // measure 40
0020
0000
0000
0000
0031
1000
0001
0200
0000
0000
0320
0000
2030
0000
3002
0000
,  // measure 41
2003
0000
0000
0000
0000
0000
0000
0000
0000
3200
0000
0000
0000
0000
0000
0000
0000
0000
0000
0000
0000
0310
0000
0000
0000
0000
0000
0001
0000
0000
0100
0000
0000
0020
0000
0000
0000
0000
0000
1030
0000
0000
0001
0000
1000
0000
0100
0000
,  // measure 42
2000
0000
0000
0000
3001
0100
0010
0200
0000
0000
0302
0000
0023
0000
0230
0000
,  // measure 43
0320
0000
0000
0000
0000
0000
0000
0000
0000
0032
0000
0000
0000
0000
0000
0000
0000
0000
0000
0000
0000
1003
0000
0000
0000
0000
0000
1000
0000
0000
0010
0000
0000
1000
0000
0000
0001
0000
0010
0000
0100
0000
1000
0000
0100
0000
1000
0000
,  // measure 44
0002
0000
0000
0000
0103
0010
1000
0002
0000
0000
0023
0000
0032
0000
2003
0000
,  // measure 45
3020
0000
0000
0230
0000
0000
0000
0310
1000
0100
0010
0100
2000
0000
0000
3001
,  // measure 46
0200
0000
0000
0000
0000
0000
0310
1000
0010
0000
0000
0000
0000
0000
0100
0000
0002
0000
0000
0000
0000
0000
1003
0001
1000
0000
0000
0000
0000
0000
0100
0000
,  // measure 47
0020
0000
0000
0000
0000
0000
0031
0010
0002
0000
0000
0000
0000
0000
1003
0000
0000
0000
1000
0000
0010
0000
0100
0000
0001
0000
1000
0000
0100
0000
0010
0000
,  // measure 48
0100
1000
0001
1000
0010
0100
0001
1000
0100
0010
0100
0010
0001
1000
0010
1000
,  // measure 49
0001
0010
0001
0010
0100
1000
0010
1000
0001
0100
0010
1000
0100
0010
0001
0010
,  // measure 50
0100
1000
0001
1000
0010
1000
0001
0010
0100
1000
0001
1000
0010
0100
0001
1000
0010
1000
0001
1000
0100
0010
0001
1000
,  // measure 51
0020
0000
0000
0000
0000
0000
0000
0000
0000
0000
0000
0000
0000
0000
0130
0000
0000
0000
0001
1000
0001
0000
0010
0000
0001
0000
0000
0000
1000
0000
0000
0000
,  // measure 52
0010
0100
0001
1000
0001
0010
0100
1000
0010
1000
0001
1000
0100
0010
0001
0010
,  // measure 53
0100
0000
1000
0000
0001
0000
0100
0000
0010
0000
0100
0000
0001
0000
1000
0000
0100
0000
1000
0001
1000
0000
0001
0000
0100
0000
0100
0000
2000
0000
0000
0000
,  // measure 54
3010
0100
0001
1000
0100
0010
0001
0010
0100
1000
0001
1000
0010
0100
0001
1000
,  // measure 55
0010
0100
0001
0010
0001
0010
0100
1000
0010
1000
0002
0000
0043
0000
0000
0000
,  // measure 56
0130
1000
0001
0100
0010
1000
0100
1000
0001
0010
0001
0100
0001
1000
0010
0100
,  // measure 57
0001
0000
0010
0000
0100
0000
1000
0000
0100
0000
0010
0000
0001
0000
1000
0000
0010
0000
1000
0001
1000
0000
0001
0000
0010
0000
0010
0000
1000
0000
0001
0000
,  // measure 58
0100
0010
1000
0001
0020
0000
0000
0130
2000
0000
3010
1000
0002
0000
0000
0013
,  // measure 59
0100
1000
0100
0010
0002
0000
0000
1003
0010
0100
0001
0010
0100
0010
0001
1000
,  // measure 60
0040
0000
0000
0000
0000
0000
0000
0000
0000
0000
0000
0000
0130
0000
0000
0001
0000
0000
0100
0000
0000
0010
0000
0000
2000
0000
0000
0000
0000
0000
3001
0000
0010
0000
0001
0000
1000
0000
0000
0000
0000
0000
0001
0000
1000
0000
0001
0000
,  // measure 61
0200
0000
0000
0310
0020
0000
0000
1030
0000
1000
0001
0010
0000
0001
0100
0000
,  // measure 62
1001
0000
0000
0021
0000
0130
0010
0100
2000
0000
3010
0100
0001
0000
1000
0010
,  // measure 63
0100
0000
0000
0000
0000
0000
0000
0000
0000
0110
0000
0000
0000
0000
0000
0101
0000
0000
0001
0000
0000
1000
0000
0000
0000
0000
0000
1000
0000
0000
0100
0000
0000
0010
0000
0000
0100
0000
1000
0000
0001
0000
0100
0000
0001
0000
1000
0000
,  // measure 64
0020
0000
0000
0000
0000
0130
0010
0100
2000
0000
3100
0010
1000
0000
0001
0010
,  // measure 65
0200
0000
0000
1300
0001
0002
0000
1003
0010
0100
0000
0100
0002
0000
1003
0000
,  // measure 66
1200
0000
0000
0310
0002
0000
0000
1003
0020
0000
0000
0130
0002
0000
0000
1003
,  // measure 67
0200
0000
0000
0000
0000
0000
0310
0010
,  // measure 68
0002
0000
0000
0000
,  // measure 69
0000
0000
0000
0000
,  // measure 70
0000
0000
0000
0000
,  // measure 71
0003
0000
0000
0000
;

//---------------dance-single - ----------------
#NOTEDATA:;
#CHARTNAME:;
#STEPSTYPE:dance-single;
#DESCRIPTION:;
#CHARTSTYLE:;
#DIFFICULTY:Medium;
#METER:9;
#RADARVALUES:0.541393,0.863753,0.162207,0.693067,0.648829,514.000000,492.000000,22.000000,94.000000,6.000000,0.000000,5.000000,0.000000,0.000000,0.541393,0.863753,0.162207,0.693067,0.648829,514.000000,492.000000,22.000000,94.000000,6.000000,0.000000,5.000000,0.000000,0.000000;
#CREDIT:loodee;
#NOTES:
0000
0000
0000
0000
,
0000
0000
0000
0000
,
0000
0000
0000
0000
,
0000
0000
0000
0000
,
0000
0000
0000
0000
,
0000
0000
0000
0000
,
0000
0000
0000
0000
,
0000
0000
0000
0000
,
1100
0000
0000
0000
1000
0000
0000
0000
0001
0000
0000
0000
0100
0000
0010
1000
,
0001
0000
0000
0000
0010
0000
0000
0000
0100
0000
0000
0000
1000
0001
0000
0001
,
1000
0000
0000
0000
0010
0000
0000
0000
0100
0000
0000
0000
0001
0000
1000
0100
,
0010
0000
0000
0000
0100
0000
0000
0000
1000
0000
0000
0000
0001
1000
0000
1000
,
0001
0010
0001
0010
0001
0010
0001
0010
0100
1000
0001
0100
0010
1000
0001
0100
,
0010
1000
0001
1000
0001
1000
0001
1000
0100
0010
0001
1000
0100
0010
0001
1000
,
0040
0000
0000
0000
,
0230
0000
0000
0000
0000
0000
0000
0301
0000
1000
0001
0010
0100
1000
0001
0000
,
0201
0000
0000
0000
0310
1000
0001
0020
0000
0000
0130
0000
0020
0000
0031
0000
,
2000
0000
0000
3020
0000
0000
0000
0000
0130
0001
1000
0010
0100
0001
1000
0000
,
1200
0000
0000
0000
0310
0001
1000
0002
0000
0000
0103
0000
0002
0000
0013
0000
,
0200
0000
0000
2300
0000
0000
0000
0000
3001
0010
0100
1000
0020
0000
0000
0030
,
2010
0000
0000
0000
3001
0100
0010
0100
0002
0000
1003
0000
0200
0000
0310
0000
,
0002
0000
0000
2003
0000
0000
0000
0000
3010
0100
0001
1000
0100
0010
0100
1000
,
0002
0000
0000
0003
0101
0000
0000
0000
2000
0000
0000
3000
1100
0000
0000
0000
,
0002
0000
0000
0003
0101
0000
0000
0200
0000
0340
0000
0000
2030
0000
3000
0000
,
0001
0000
1000
0000
2001
0000
0000
0000
3010
0100
0001
0000
1000
0100
0010
0001
,
1000
0000
0010
0000
1000
0100
00M0
0100
0001
0000
1000
0010
1000
0001
1000
0001
,
1000
0000
0001
0000
0012
0000
0000
0000
1003
0010
0200
0000
0301
1000
0100
0010
,
0100
1000
0000
0100
0010
0001
0000
0000
0200
0000
0000
0000
0320
0000
0000
0000
,
1030
0000
0010
0000
1002
0000
0000
0000
0013
0001
0010
0000
0001
1000
0010
0000
,
0200
0000
0310
1000
0200
0000
1300
0010
0M00
0010
0001
1000
0001
0000
0100
0000
,
0020
0000
0000
0030
2010
0000
0000
0000
3001
0010
0200
0000
0320
0000
0032
0000
,
0103
0000
0010
0000
0100
0000
0010
0000
0100
0000
0010
0000
1000
0100
0010
0001
,
1000
0000
0001
0000
0201
0000
0000
0000
0310
1000
0001
0000
1000
0100
1000
0100
,
0010
0000
0001
0000
1000
0100
00M0
0100
0001
0000
1000
0001
0010
0100
0010
0100
,
0010
0000
0010
0000
0012
0000
0000
0003
1000
0010
0200
0000
0310
1000
0001
0010
,
0100
0010
0000
0001
1000
0001
1000
0001
0200
0000
0000
0000
0320
0000
0000
0000
,
1030
0000
1000
0000
1200
0000
0000
0000
0320
0030
0000
0001
1000
0000
0001
0000
,
0200
0000
0310
1000
0200
0000
1300
0010
0M00
0010
0001
1000
0001
0000
0100
0010
,
2000
0000
0000
0000
3100
0010
000M
0010
2000
0000
0000
0000
3100
0010
000M
0010
,
2000
0000
0000
0000
0000
0000
0000
0000
3001
0010
0001
0010
0100
0000
0100
0000
,
2000
0000
0000
0000
3001
0100
0010
0200
0000
0000
0302
0000
2003
0000
3200
0000
,
2300
0000
0000
3002
0000
0000
0000
0103
0000
0010
1000
0020
0000
1030
0001
0000
,
0020
0000
0000
0000
0130
1000
0001
2000
0000
0000
3020
0000
0230
0000
0302
0000
,
0023
0000
0000
0230
0000
0000
0000
1300
0000
0100
1000
0100
0040
0000
0000
0000
,
0032
0000
0000
0000
0103
0010
0100
0002
0000
0000
2003
0000
3200
0000
0320
0000
,
0230
0000
0000
2300
0000
0000
0000
3001
0100
0001
0000
1000
0200
0000
0000
0300
,
0120
0031
0102
1003
,
1200
0000
0000
0000
1300
0000
0000
1002
0000
0000
0000
0000
0000
0000
0000
0000
,
2000
0000
0000
0000
,
0000
0000
0000
0000
0000
0000
0000
0000
0000
0000
0000
0000
0000
0000
0000
0003
,
3040
0000
0430
0000
,
0302
0000
0000
0000
0000
0000
0000
0013
0000
0010
0100
1000
0100
0000
0000
0000
,
1000
0001
1000
0000
0010
0100
0001
0000
1000
0100
1000
0000
0001
0100
0010
0000
,
1000
0001
0010
0000
0100
1000
0001
0000
0100
0010
1000
0001
0100
0010
1000
0001
,
0010
0100
1000
0000
0100
0010
0001
0000
1000
0010
0100
0000
0001
1000
0001
0000
,
1000
0100
0010
0000
0100
1000
0001
0000
0100
0010
1000
0100
0020
0000
0000
0000
,
0130
1000
0010
0000
0100
0001
0010
0000
0001
1000
0001
0000
0100
0010
0100
0000
,
0001
0010
0100
0000
1000
0010
0100
0000
0001
0010
0100
1000
0001
0010
0100
1000
,
0001
0100
0001
0000
0020
0000
0000
0030
0100
1000
0100
0000
0020
0000
0000
0030
,
0001
1000
0010
0000
0200
0000
0000
0300
0001
1000
0001
1000
0200
0000
0000
0000
,
0320
0000
0000
0000
0031
0010
0100
1000
0020
0000
0130
0000
0101
0000
0001
0000
,
2000
0000
0000
3100
2000
0000
0000
3001
0000
1000
0000
0100
0000
0000
0100
0000
,
0110
0000
0000
0011
0000
0000
0001
1000
0002
0000
0103
0010
0100
0000
0001
1000
,
0001
0000
0000
0010
0000
0010
0100
1000
0000
0001
1000
0010
0000
0000
0010
0000
,
0200
0000
0000
0000
0301
1000
0100
0010
0002
0000
0013
0100
1000
0000
0001
0100
,
0002
0000
0000
1003
0001
2000
0000
3010
0000
0100
0000
0001
0000
0000
0001
0000
,
0021
0130
2000
3010
,
0200
0000
0000
0000
0000
0000
0301
1000
,
0002
0000
0000
0000
,
0000
0000
0000
0000
,
0000
0000
0000
0000
,
0003
0000
0000
0000
;

//---------------dance-single - ----------------
#NOTEDATA:;
#CHARTNAME:;
#STEPSTYPE:dance-single;
#DESCRIPTION:;
#CHARTSTYLE:;
#DIFFICULTY:Easy;
#METER:5;
#RADARVALUES:0.286496,0.444964,0.302295,0.265430,0.044238,272.000000,231.000000,41.000000,36.000000,0.000000,0.000000,1.000000,0.000000,0.000000,0.286496,0.444964,0.302295,0.265430,0.044238,272.000000,231.000000,41.000000,36.000000,0.000000,0.000000,1.000000,0.000000,0.000000;
#CREDIT:loodee;
#NOTES:
0000
0000
0000
0000
,
0000
0000
0000
0000
,
0000
0000
0000
0000
,
0000
0000
0000
0000
,
0000
0000
0000
0000
,
0000
0000
0000
0000
,
0000
0000
0000
0000
,
0000
0000
0000
0000
,
1001
0000
0001
0000
0100
0000
0001
1000
,
0001
0010
0100
0010
,
0010
0000
0001
0000
1000
0000
0001
0100
,
0001
1000
0100
0010
,
0010
0001
0010
0001
1000
0001
1000
0001
,
0100
0010
0100
0010
1000
0001
1000
0100
,
0020
0000
0000
0000
,
0032
0000
0000
0000
0000
0000
0000
1003
0000
0000
0000
0000
0000
0000
0000
0000
,
2000
0000
0010
0000
0001
0000
3100
0010
,
0100
0000
1000
0000
0001
0100
0001
1000
,
0200
0000
0010
0000
1000
0000
0310
0001
,
0010
0000
0001
0000
1000
0010
1000
0001
,
0200
0000
0010
0000
0001
0000
0310
1000
,
0010
0000
0100
0000
0001
1000
0001
0010
,
0100
1001
0010
1001
,
0100
0000
2001
0000
0000
0000
3002
0003
,
0010
0000
0011
0000
0001
0000
0001
0100
,
0010
0010
0010
0000
1000
0000
1000
0100
,
1000
0000
1001
0000
0001
0001
0010
0000
,
0110
1001
2000
3002
,
0103
0000
0110
0000
0010
0000
1000
0001
,
1000
1000
1000
0000
0100
0100
0010
0100
,
2000
3002
0103
0010
,
4000
0000
0000
3000
,
1100
0000
0011
0000
0001
0000
1000
0010
,
0100
0100
0100
0000
0001
0000
0001
0010
,
0100
0000
0100
0000
0100
0000
0000
0000
1100
0000
0000
0000
1000
0000
0000
0001
,
0000
0000
0000
0001
0000
0000
0000
0000
0200
0000
0000
0000
0320
0000
0000
0000
,
1030
1000
0001
0000
1001
0000
1000
0000
,
0100
0010
0001
0000
1000
1000
0001
1000
,
0020
0130
0020
0130
,
0020
0000
1030
0000
,
1002
0000
0000
0000
,
0000
0000
0000
0000
0000
0000
0000
0013
0000
0000
0000
0010
0000
0000
0000
0000
,
0210
0000
0000
0000
,
0000
0000
0000
0000
0000
0000
0000
2300
0000
0000
0000
0000
3000
0000
0000
0000
,
1020
0000
0000
0000
,
0000
0000
0000
0000
0000
0000
0000
0130
0000
0000
0000
0000
0000
0000
0000
0000
,
0011
0000
0110
0000
,
2002
0000
0000
0000
0000
0000
0000
0000
0000
0000
0000
0000
0000
0000
0000
3003
,
0220
0000
0000
0000
,
0000
0000
0000
0000
,
0000
0000
0000
0000
,
0330
0000
0000
0000
0000
0000
0000
1001
0000
0000
0000
0000
0000
0000
0000
0000
,
1100
1100
0101
0101
,
1100
0000
1100
0000
1000
0001
0100
0001
,
0010
0011
1010
1010
,
0011
0000
0011
0000
0001
1000
0010
1000
,
0100
1100
1001
1001
,
0101
0000
0101
0000
0001
0010
0001
0100
,
0010
0110
1000
1001
,
0001
0011
0200
0000
,
2300
0000
0000
0000
3001
0001
0100
0001
,
0002
0000
0000
0000
0013
0000
0000
0000
0000
0000
0000
0100
0000
0000
0100
0000
,
0200
0000
0000
0000
1300
1000
0001
1000
,
2000
0000
0000
3001
0000
0000
0000
0010
0000
0000
0000
0010
0000
0000
0010
0000
,
0200
0000
0000
0000
0000
0000
0000
0300
2100
0000
0000
0000
0100
0000
0000
0000
,
3200
0000
0310
0000
0000
0000
0000
0010
,
0020
0030
0002
0003
,
2000
0000
0000
3010
,
0200
0000
0000
0000
,
0000
0000
0000
0000
,
0000
0000
0000
0000
,
0300
0000
0000
0000
;

//---------------dance-single - ----------------
#NOTEDATA:;
#CHARTNAME:;
#STEPSTYPE:dance-single;
#DESCRIPTION:;
#CHARTSTYLE:;
#DIFFICULTY:Beginner;
#METER:1;
#RADARVALUES:0.056878,0.104697,0.007373,0.117969,0.000000,54.000000,53.000000,1.000000,16.000000,0.000000,0.000000,0.000000,0.000000,0.000000,0.056878,0.104697,0.007373,0.117969,0.000000,54.000000,53.000000,1.000000,16.000000,0.000000,0.000000,0.000000,0.000000,0.000000;
#CREDIT:loodee;
#NOTES:
0000
0000
0000
0000
,
0000
0000
0000
0000
,
0000
0000
0000
0000
,
0000
0000
0000
0000
,
0000
0000
0000
0000
,
0000
0000
0000
0000
,
0000
0000
0000
0000
,
0000
0000
0000
0000
,
2002
0000
0000
0000
,
0000
0000
0000
0000
,
0000
0000
0000
0000
,
0003
0000
0000
0000
,
3200
0000
0000
0000
,
0000
0000
0000
0000
,
0320
0000
0000
0000
,
0030
0000
0000
0000
,
0001
0000
0000
0000
,
0001
0000
0000
0000
,
1000
0000
0000
0000
,
1000
0000
0000
0000
,
0010
0000
0000
0000
,
0010
0000
0000
0000
,
1000
0000
1000
0000
,
1000
0000
0000
0000
,
0001
0000
0000
0000
,
0010
0000
0000
0000
,
0001
0000
0000
0000
,
0100
0000
0000
0000
,
0001
0000
0000
0000
,
0010
0000
0000
0000
,
0001
0000
0000
0000
,
2000
0000
0000
3000
,
0001
0000
0000
0000
,
0100
0000
0000
0000
,
0010
0000
0010
0000
,
0000
0000
0000
0000
,
0000
1000
0000
0000
,
1000
0000
0000
0000
,
0100
0000
0100
0000
,
0200
0000
0300
0000
,
2000
0000
0000
0000
,
0000
3000
0000
0000
,
0002
0000
0000
0000
,
0000
0003
0000
0000
,
2000
0000
0000
0000
,
0000
3000
0000
0000
,
0001
0000
0001
0000
,
0002
0000
0000
0000
,
2003
0000
0000
0000
,
0000
0000
0000
0000
,
0000
0000
0000
0000
,
3000
0000
0000
0000
,
0001
0000
0001
0000
,
0001
0000
0000
0000
,
1000
0000
1000
0000
,
1000
0000
0000
0000
,
0100
0000
0100
0000
,
0100
0000
0000
0000
,
1000
0000
1000
0000
,
1000
0000
0000
0000
,
0002
0000
0000
0000
,
0000
0000
0003
0000
,
0002
0000
0000
0000
,
0000
0003
0000
0000
,
0020
0000
0000
0000
,
0000
0030
0000
0000
,
0200
0300
0000
0000
,
0000
0000
0000
0000
,
2000
0000
0000
0000
,
0000
0000
0000
0000
,
0000
0000
0000
0000
,
3000
0000
0000
0000
;
