#TITLE:DOG BUS;
#SUBTITLE:;
#ARTIST:METAROOM & TELEMIST;
#TITLETRANSLIT:;
#SUBTITLETRANSLIT:;
#ARTISTTRANSLIT:;
#GENRE:;
#CREDIT:;
#BANNER:dogbus-bn.png;
#BACKGROUND:dogbus-bg.png;
#LYRICSPATH:;
#CDTITLE:;
#MUSIC:DOG BUS.ogg;
#OFFSET:-0.015000;
#SAMPLESTART:103.764999;
#SAMPLELENGTH:14.000000;
#SELECTABLE:YES;
#BPMS:0.000000=155.000000
;
#STOPS:
;
#BGCHANGES:;
#KEYSOUNDS:;
#ATTACKS:TIME=105.309998:LEN=0.100000:MODS=confusion:TIME=108.400002:LEN=0.100000:MODS=confusion:TIME=111.500000:LEN=0.100000:MODS=confusion:TIME=91.559998:LEN=0.300000:MODS=30% brake:TIME=114.599998:LEN=0.100000:MODS=confusion:TIME=119.629997:LEN=0.200000:MODS=50% stealth:TIME=119.050003:LEN=1.000000:MODS=beat:TIME=134.919998:LEN=0.300000:MODS=30% brake:TIME=136.080002:LEN=2.500000:MODS=brake,flip:TIME=41.630001:LEN=0.500000:MODS=200% beat;

//---------------dance-single - sangyule----------------
#NOTES:
     dance-single:
     :
     Beginner:
     1:
     0.099153,0.186219,0.064398,0.000000,0.000000,97.000000,88.000000,9.000000,0.000000,0.000000,0.000000,0.099153,0.186219,0.064398,0.000000,0.000000,97.000000,88.000000,9.000000,0.000000,0.000000,0.000000:
0000
0000
0000
0000
,
0000
0000
0000
0000
,
0000
0000
0000
0000
,
0000
0000
0000
0000
,
1000
0000
0000
0000
,
1000
0000
0000
0000
,
0001
0000
0000
0000
,
0010
0000
0000
0000
,
0100
0000
0000
0000
,
0100
0000
0000
0000
,
1000
0000
0000
0000
,
1000
0000
0000
0000
,
0001
0000
0000
0000
,
0001
0000
0000
0000
,
0001
0000
0000
0000
,
0100
0000
0000
0000
,
0010
0000
0000
0000
,
0010
0000
0000
0000
,
1000
0000
0000
0000
,
0001
0000
0000
0000
,
1000
0000
0000
0000
,
0100
0000
0000
0000
,
0010
0000
0000
0000
,
0001
0000
0000
0000
,
1000
0000
1000
0000
,
1000
0000
1000
0000
,
0001
0000
0001
0000
,
0000
0000
0000
0000
,
1001
0000
1000
0000
,
0010
0000
0000
0000
,
0100
0000
0001
0000
,
0001
0000
0000
0000
,
1000
0000
0000
0000
,
0100
0000
0000
0000
,
0010
0000
0001
0000
,
0001
0000
0000
0000
,
1000
0000
0000
0000
,
0010
0000
0000
0000
,
0100
0000
0000
0000
,
0001
0000
1000
0000
,
1000
0000
0000
0000
,
1000
0000
0000
0000
,
0001
0000
0000
0000
,
0010
0000
0000
0000
,
0100
0000
0000
0000
,
0000
0000
0000
0000
,
0000
0000
0000
0000
,
0000
0000
0000
0000
,
0000
0000
0000
0000
,
0000
0000
0000
0000
,
0000
0000
0000
0000
,
0000
0000
0000
0000
,
1000
0000
0000
0000
,
1000
0000
0000
0000
,
0010
0000
0000
0000
,
0010
0000
0000
0000
,
0100
0000
0000
0000
,
0100
0000
0000
0000
,
0001
0000
0000
0000
,
0001
0000
0000
0000
,
1000
0000
0000
0000
,
0100
0000
0000
0000
,
0010
0000
0000
0000
,
0001
0000
0000
0000
,
1000
0000
1000
0000
,
1000
0000
1000
0000
,
0001
0000
0001
0000
,
0001
0000
0000
0000
,
0100
0000
1001
0000
,
0000
0000
1001
0000
,
0000
0000
0110
0000
,
0000
0000
0110
0000
,
0000
0000
1001
0000
,
0000
0000
1001
0000
,
0000
0000
0110
0000
,
0000
0000
0110
0000
,
0000
0000
1000
0000
,
0001
0000
0000
0000
,
1000
0000
0000
0000
,
0010
0000
0000
0000
,
0100
0000
0000
0000
,
0001
0000
0000
0000
,
1000
0000
0000
0000
,
0100
0000
0010
0000
,
0001
0000
0000
1000
,
0000
0000
0000
0000
,
0010
0000
0000
0100
;

//---------------dance-single - sangyule----------------
#NOTES:
     dance-single:
     :
     Easy:
     5:
     0.335281,0.446406,0.078709,0.100175,0.032199,328.000000,317.000000,11.000000,14.000000,4.000000,0.000000,0.335281,0.446406,0.078709,0.100175,0.032199,328.000000,317.000000,11.000000,14.000000,4.000000,0.000000:
0000
0000
0000
0000
,
0000
0000
0000
0000
,
0000
0000
0000
0000
,
0000
0000
0000
0000
,
1000
1000
0100
0010
,
0001
0001
1000
0010
,
0100
0100
0001
1000
,
0100
0100
0010
0010
,
0001
0010
0001
1000
,
0001
0100
0001
1000
,
0001
0010
0001
1000
,
0010
0000
0100
0000
0001
0000
1000
0001
,
0100
0100
0010
1000
,
0001
0001
0010
0100
,
1000
1000
0010
0100
,
0001
0000
0001
0000
1000
0000
0100
0010
,
0100
0000
0010
0000
0100
0000
0010
0001
,
1000
0000
0001
0000
1000
0000
0010
0100
,
0001
0000
0100
0000
0001
0000
0100
0010
,
1000
0000
0001
0000
0020
0000
0130
1000
,
0100
0100
0010
0010
,
0001
0001
1000
1000
,
0010
0010
0100
0100
,
0001
0000
0001
0000
2000
0000
3100
0010
,
0001
1000
0001
0000
1000
0001
1000
0000
,
0010
0100
0010
0000
0100
0010
0100
0000
,
0004
0000
0000
0000
,
1MM3
0MM0
0200
0320
,
0031
0000
1000
0001
0100
0000
0100
0000
,
0010
1000
0010
0000
0100
0000
0001
0000
,
1000
0000
0001
0010
0100
0000
0100
0000
,
1000
0001
0010
0000
0001
0000
0001
0000
,
1000
0000
0010
0100
0001
0000
0001
0000
,
1000
0001
1000
0000
0100
0000
0010
0000
,
0001
0000
1000
0001
0100
0000
0100
0000
,
0010
0010
2000
3001
,
0000
1001
1000
0100
,
0100
0010
0010
0010
,
0001
0001
0001
1000
,
1000
0000
0010
0000
0100
0001
0100
0001
,
1000
0100
1000
0100
,
0010
0001
0010
0001
,
1000
1000
1000
0010
,
0010
0000
0200
0000
0301
0000
1000
1000
,
0002
0000
0000
0000
,
0000
0000
0000
0000
,
0003
0000
0000
0000
,
0000
0000
0000
0000
,
0000
0000
0000
0000
,
0000
0000
0000
0000
,
0000
0000
0000
0000
,
0000
0000
2000
0000
,
3001
0000
0010
0000
0000
0100
0000
1000
,
0001
0000
1000
0000
0000
0010
0000
0100
,
0001
0000
1000
0000
0000
0100
0000
0000
,
0010
0000
0010
0000
0000
0001
0000
1000
,
0001
0000
0100
0000
0000
0010
0000
1000
,
0001
0000
1000
0000
0000
0100
0000
1000
,
0001
0000
0010
0000
0001
1000
0001
0000
,
0200
0000
0300
0010
4000
0000
0000
0000
,
3001
0000
0001
0000
,
0010
0000
0010
0000
,
0110
0000
0100
0000
,
1000
0000
0004
0003
,
0100
0010
1000
0001
,
1000
0100
0010
0001
,
1000
0001
1000
0000
0001
1000
0001
0000
,
0100
0000
0000
0000
,
0110
0000
0000
0000
0010
0000
1000
0000
0001
0000
0000
0100
0000
0000
0000
0000
,
0110
0000
0000
0000
0001
0000
1000
0000
0100
0000
0000
0010
0000
0000
0000
0000
,
1001
0000
0000
0000
0001
0000
0100
0000
0010
0000
0000
1000
0000
0000
0000
0000
,
1001
0000
0000
0000
0001
0000
1000
0000
0100
0000
0000
0100
0000
0000
0000
0000
,
0110
0000
0000
0000
0010
0000
0001
0000
1000
0000
0000
0001
0000
0000
0000
0000
,
1001
0000
0000
0000
1000
0000
0010
0000
0100
0000
0000
0001
0000
0000
0000
0000
,
0110
0000
0000
0000
1000
0000
0100
0000
0010
0000
0000
0001
0000
0000
0000
0000
,
1001
1000
0010
0000
0200
0000
0301
0000
,
1000
0100
0010
0000
,
0001
0000
0000
0000
0001
0000
0000
0000
0000
1001
0000
0000
0000
0000
0000
0000
,
1000
0010
0010
0100
,
0100
0001
0100
0001
0000
0000
0000
0000
,
1000
0100
0010
0001
,
0001
1000
1000
1000
,
0010
0010
0010
0100
,
0100
0000
0001
0000
1000
0000
0100
0010
,
0200
0000
1300
0001
,
0000
1000
0001
0000
0100
0000
0010
1000
,
0002
0000
0013
0200
,
0000
0000
0300
0000
0000
0000
0000
0000
1000
0000
0000
0001
0000
0000
2000
0000
,
0000
0000
0000
0000
,
0000
3000
0000
0000
0000
0000
0000
0000
;

//---------------dance-single - sangyule----------------
#NOTES:
     dance-single:
     :
     Medium:
     7:
     0.483499,0.541304,0.193195,0.178884,0.143108,473.000000,446.000000,27.000000,25.000000,14.000000,0.000000,0.483499,0.541304,0.193195,0.178884,0.143108,473.000000,446.000000,27.000000,25.000000,14.000000,0.000000:
// measure 0
0000
0000
0000
0000
,  // measure 1
0000
0000
0000
0000
,  // measure 2
0000
0000
0000
0000
,  // measure 3
0000
0000
0000
0000
,  // measure 4
1000
0001
0000
0010
0000
0100
0000
1000
,  // measure 5
0001
1000
0000
0010
0000
0100
0000
0001
,  // measure 6
1000
0001
0000
1000
0000
0001
0000
0010
,  // measure 7
0100
0010
0000
0001
0200
0000
0310
0000
,  // measure 8
1000
0000
0001
0010
0000
0100
1000
0000
,  // measure 9
0001
0000
0000
0000
0100
0000
0010
0000
0000
0000
1000
0000
0000
0001
0000
0000
,  // measure 10
0100
0000
0010
1000
0000
0001
0010
0000
,  // measure 11
0100
0000
1000
0010
0200
0001
0301
1000
,  // measure 12
0001
0001
1000
1000
,  // measure 13
0010
0010
0100
0100
,  // measure 14
0001
0001
1000
1000
,  // measure 15
0002
0000
0000
0010
0000
0000
2000
0000
0000
3003
0000
0000
0001
0000
0100
0000
,  // measure 16
0010
0000
1000
0000
0001
0000
0010
0100
,  // measure 17
1000
0000
0100
0000
0010
0000
0001
1000
,  // measure 18
0001
0000
0100
0000
0010
0000
1000
0001
,  // measure 19
1000
0000
0000
0010
0000
0000
0002
0000
0000
0000
0000
0000
0013
0000
1000
0000
,  // measure 20
0001
0001
0100
0100
,  // measure 21
0010
0010
1000
1000
,  // measure 22
0100
0100
0010
0010
,  // measure 23
0001
0001
0040
0130
,  // measure 24
1000
0100
1000
0010
0100
0001
1000
0001
,  // measure 25
0010
0100
0010
0001
1000
0001
0100
0010
,  // measure 26
1000
0100
1000
0010
0100
0001
0010
0100
,  // measure 27
1000
1000
0004
0043
,  // measure 28
0130
0000
0000
1000
0000
0000
0001
0000
1001
0000
0000
0000
1010
0000
0000
0000
,  // measure 29
0001
0000
0010
0000
1000
0000
0000
0010
0000
0000
0002
0000
1000
0003
0000
0000
,  // measure 30
1001
0000
0000
0001
0000
0000
0100
0000
0110
0000
0000
0000
1001
0000
0000
0000
,  // measure 31
1000
0000
0100
0000
0001
0000
0000
0100
0000
1000
0000
0001
0000
0100
0000
0000
,  // measure 32
0101
0000
0000
0001
0000
0000
1000
0000
0400
0000
0000
0000
0310
0000
0000
0000
,  // measure 33
0001
0000
0100
0000
1000
0000
0000
0100
0000
0000
0002
0000
1003
0000
0000
0000
,  // measure 34
1001
0000
0000
0001
0000
0000
0010
0000
0110
0000
0000
0000
1100
0000
0000
0000
,  // measure 35
1000
0010
0100
0010
4000
0000
3001
0004
,  // measure 36
0003
0000
0000
0000
0011
0000
0010
0000
0001
0000
0100
0000
0010
0000
0000
1000
,  // measure 37
0000
0100
0010
0100
0010
0100
1000
0001
,  // measure 38
1000
0000
0010
0000
0100
0000
0001
0000
1000
0000
0100
0000
1000
0000
0000
0010
,  // measure 39
0000
1000
0010
0100
0004
0000
4003
0000
,  // measure 40
3001
0000
0010
0000
0001
0000
1000
0000
0010
0000
0100
0000
0001
0000
0000
1000
,  // measure 41
0000
0100
1000
0010
1000
0010
0100
0001
,  // measure 42
1000
0000
0100
0000
1000
0000
0001
0000
0100
0000
0010
0000
1000
0000
0000
0001
,  // measure 43
0000
0020
0000
0100
0031
0001
1000
1000
,  // measure 44
0020
0000
0000
0000
,  // measure 45
0000
0000
0030
0000
,  // measure 46
0100
0100
0100
0100
,  // measure 47
0001
0001
0001
1000
,  // measure 48
0100
0100
0100
0100
,  // measure 49
0010
0010
0010
0000
,  // measure 50
0001
0001
0001
0001
,  // measure 51
1000
0000
1000
0000
0040
0000
0130
0001
,  // measure 52
1001
1000
0100
0000
0000
0010
0000
0001
,  // measure 53
1000
1000
0010
0000
0000
0100
0000
0001
,  // measure 54
1000
0000
0100
0000
0010
0001
0000
1000
,  // measure 55
0001
0000
0100
0000
0010
1000
0010
0100
,  // measure 56
0001
0001
1000
0000
0000
0100
0000
0010
,  // measure 57
0001
0001
0100
0000
0000
0010
0000
1000
,  // measure 58
0001
0000
1000
0000
0100
0010
0000
0001
,  // measure 59
0200
0300
M00M
0000
0040
0000
1030
0001
,  // measure 60
1001
0000
0000
1000
0000
0000
0000
0000
1000
0000
0000
0000
0400
0000
0000
0000
,  // measure 61
0310
0000
0000
0010
0000
0000
0010
0000
0001
0000
0000
1000
0000
0000
0010
0000
,  // measure 62
0110
0000
0000
0100
0000
0000
0001
0000
4000
0000
0000
0000
3100
0000
0010
0000
,  // measure 63
0001
0000
1000
0000
0001
0000
1000
0000
0000
0000
0000
0000
0040
0000
0000
0000
0000
0000
0130
0000
0000
0001
0000
0000
,  // measure 64
1000
0100
0010
0001
,  // measure 65
1000
0010
0100
0001
,  // measure 66
1000
0100
0010
0001
1000
0001
0100
0010
,  // measure 67
100M
000M
000M
000M
000M
000M
00M0
0000
000M
0000
M000
000M
0000
000M
0000
0000
,  // measure 68
1001
0000
0001
0000
0010
0000
0000
0000
0110
0000
0000
0100
0000
0000
0000
0000
,  // measure 69
1000
0000
0100
0000
0100
0000
0010
0000
0011
0000
0000
0001
0000
0000
1000
0000
,  // measure 70
0020
0000
0000
0000
0130
0000
0001
0000
1001
0000
0000
1000
0000
0000
0000
0000
,  // measure 71
0100
0000
0010
0000
0010
0000
0001
0000
1001
0000
0000
1001
0000
0000
1000
0000
,  // measure 72
0020
0000
0000
0000
0130
0000
0001
0000
0101
0000
0000
0100
0000
0000
0000
0000
,  // measure 73
0001
0000
0010
0000
0010
0000
0100
0000
1100
0000
0000
1000
0000
0000
0002
0000
,  // measure 74
2003
0000
0000
0000
3010
0000
0100
0000
0101
0000
0000
0001
0000
0000
0000
0000
,  // measure 75
2000
3020
0032
0013
0210
0000
0301
0001
,  // measure 76
1000
0000
1000
0040
0130
0000
0000
0001
,  // measure 77
1000
0000
0000
0000
0010
0000
0000
0000
0000
0110
0000
0000
0100
0000
0001
0000
,  // measure 78
1000
0100
1000
0001
1000
0010
0100
0001
,  // measure 79
1000
1000
0100
0100
0040
0000
0034
0000
,  // measure 80
0103
0000
0010
0000
1000
0000
0010
0000
0100
0000
0001
0000
1000
0000
0000
0100
,  // measure 81
0000
0010
0001
0100
0001
0100
0010
1000
,  // measure 82
0001
0000
0100
0000
0010
0000
1000
0000
0001
0000
0010
0000
0100
0000
0000
1000
,  // measure 83
0000
0000
0000
0010
0000
0000
0100
0000
0001
0000
1000
0000
0400
0000
0000
0000
,  // measure 84
0320
0000
0030
0001
1000
0000
1020
0000
,  // measure 85
0000
0130
0200
0000
0302
0000
1003
0100
,  // measure 86
2100
0000
3000
0001
0100
0000
0120
0000
,  // measure 87
0000
0000
M030
0000
0000
0000
0000
0000
1000
0000
0001
0010
0000
0000
0002
0000
,  // measure 88
0000
0000
0000
0000
,  // measure 89
0003
0000
0000
0000
;

//---------------dance-single - sangyule----------------
#NOTES:
     dance-single:
     :
     Hard:
     11:
     0.803447,1.050767,0.150263,0.121641,1.098351,786.000000,765.000000,21.000000,17.000000,24.000000,1.000000,0.803447,1.050767,0.150263,0.121641,1.098351,786.000000,765.000000,21.000000,17.000000,24.000000,1.000000:
// measure 0
0000
0000
0000
0000
,  // measure 1
0000
0000
0000
0000
,  // measure 2
0000
0000
0000
0000
,  // measure 3
0M00
0000
0000
0M00
0000
0M00
0000
00M0
0000
0000
00M0
0000
0000
00M0
0000
0000
,  // measure 4
1000
0000
0000
0001
0000
1000
0100
0010
0000
0000
0010
0000
0000
0010
0000
0000
,  // measure 5
0001
0000
0000
1000
0000
0001
0100
0010
0000
0000
0010
0000
0000
0010
0000
0000
,  // measure 6
0100
0000
0000
0001
0000
0010
0100
1000
0000
0000
1000
0000
0000
1000
0000
0000
,  // measure 7
0001
0000
0000
1000
0000
0001
0100
0010
2000
0000
0000
3001
0000
0010
0100
0000
,  // measure 8
1100
0000
0000
1000
0001
0000
0100
0000
0010
1000
0010
0000
0100
0001
0000
0000
,  // measure 9
1000
0000
0000
0001
0010
0000
0100
0000
1000
0001
1000
0010
0000
0100
0000
0000
,  // measure 10
0001
0000
0000
1000
0001
0010
0000
0100
0010
0001
0010
0000
0001
0100
0000
0000
,  // measure 11
0010
0000
0000
1000
0001
0010
0001
1000
0200
0000
0000
1300
0000
0001
0100
0010
,  // measure 12
1000
0000
0000
1000
0000
0000
0100
0000
0000
0100
0000
0000
0010
0000
0000
0000
,  // measure 13
0001
0000
0000
0001
0000
0000
1000
0000
0000
1000
0000
0000
0010
0000
0000
0000
,  // measure 14
0100
0000
0000
0100
0000
0000
0001
0000
0000
0001
0000
0000
1000
0000
0001
0000
,  // measure 15
0010
0000
0000
0100
0000
0000
0020
0000
0000
0000
0000
0000
0031
0000
1000
0000
,  // measure 16
0001
0000
0000
0010
0000
0000
0001
0000
0000
1000
0000
0000
0010
0000
0100
0000
,  // measure 17
0001
0000
0000
1000
0000
0000
0100
0000
0000
1000
0000
0000
0010
0000
0100
0000
,  // measure 18
0001
0000
0000
1000
0000
0000
0100
0000
0000
0010
0000
0000
0001
0000
1000
0000
,  // measure 19
0001
0000
0000
0100
0000
0000
4000
0000
0000
0000
0000
0000
3100
0000
0001
0000
,  // measure 20
1001
0001
0100
0001
1000
0100
1000
0100
,  // measure 21
0010
0001
0010
0001
0100
0010
0100
0010
,  // measure 22
1000
0001
1000
0001
0010
0100
0010
0100
,  // measure 23
1000
0010
1000
0010
0400
0000
0301
0001
,  // measure 24
1000
0100
1000
0001
0100
0001
0010
0001
1000
0100
1000
0001
0010
0001
0100
0001
,  // measure 25
1000
0010
1000
0001
0100
0001
0010
0100
1000
0010
1000
0001
0010
0001
0100
0010
,  // measure 26
1000
0100
1000
0010
0100
0001
0010
0100
1000
0010
0100
0001
0010
0001
0100
0010
,  // measure 27
1000
0000
0000
0000
1000
0000
0000
0000
0001
0010
0001
0010
0100
1000
0100
1000
,  // measure 28
0010
0000
0000
0000
0000
0000
1000
0000
0000
0000
0000
0000
0100
00M0
0100
0000
0011
0000
0000
0000
1000
0000
0000
0000
0011
0000
0000
0000
0100
0000
0010
0000
,  // measure 29
1000
0000
1000
0000
0001
0000
0000
0010
0000
0000
0400
0000
1300
0001
0000
0000
,  // measure 30
0100
0000
0000
0010
0000
0000
1000
0001
1100
0000
0001
0000
1100
0000
0010
1000
,  // measure 31
0001
0000
0001
0000
0010
0000
0000
0100
0000
0001
0000
0100
0000
1000
0010
1000
,  // measure 32
0001
0000
0000
0000
0000
0000
0100
0000
0000
0000
0000
0000
0010
0000
1000
0000
0100
00M0
0100
0000
0001
0000
0000
0000
1100
0000
0000
0000
0010
0000
0000
0000
,  // measure 33
1000
0000
1000
0000
0100
0000
0000
0010
0000
0000
0004
0000
1003
0000
0100
0000
,  // measure 34
1000
0000
0000
0010
0000
0000
0100
0000
0011
0000
1000
0000
0011
0000
0000
0000
,  // measure 35
1000
0000
0000
0000
1000
0000
0000
0000
0010
0000
0000
0000
0010
0000
0000
0000
1000
0000
0001
0000
1000
0000
0001
0000
0010
0000
0000
0000
0100
M000
0100
0000
,  // measure 36
0001
0000
0000
0000
0100
0010
0100
0001
0000
1000
0100
1000
0000
0100
0010
0001
,  // measure 37
0000
0000
1000
0000
0010
0100
0001
0000
0010
0100
1000
0000
0010
0100
0001
1000
,  // measure 38
0001
0010
0100
1000
0000
0010
0100
0001
0000
0100
0010
1000
0000
0001
1000
0100
,  // measure 39
0000
0000
1000
0000
0010
0100
0010
0000
1000
0100
1000
0100
0010
0001
0010
0001
,  // measure 40
1000
0000
0001
0000
0010
0000
0100
0000
1000
0000
0010
0000
0100
0000
0001
1000
,  // measure 41
0000
0100
0010
0001
0010
0001
1000
0010
,  // measure 42
0100
0001
1000
0100
0000
0010
0100
0010
0000
0001
0100
0010
0000
1000
0001
1000
,  // measure 43
0000
0000
0010
0200
0000
0301
1000
0002
0000
1003
0100
1000
0001
0010
0001
0010
,  // measure 44
0200
0000
0000
0000
,  // measure 45
0000
0000
0000
0000
0000
0000
0000
0300
,  // measure 46
1000
0000
0000
1000
0000
0000
0001
1000
0001
0000
0010
0000
0010
0000
0100
0000
,  // measure 47
1000
0000
0000
1000
0000
0000
0001
0100
0010
0001
0000
0010
0100
0000
0001
0000
,  // measure 48
1000
0000
0000
0100
0000
0000
0010
0000
0001
1000
0001
0000
1000
0010
0100
0001
,  // measure 49
0000
1000
0000
1000
0000
0000
0100
0010
0001
0000
0000
1000
0000
0001
1000
0001
,  // measure 50
0100
0000
0000
0100
0010
1000
0001
0010
0001
0000
0010
0000
0010
0000
0100
0000
,  // measure 51
1000
0000
0000
0000
1000
0000
0000
0000
0004
0000
0000
0000
1003
0100
1000
0001
,  // measure 52
0100
00M0
0100
1000
0000
0001
0000
0010
0100
1000
0100
1000
0000
0001
0000
0000
,  // measure 53
0100
0000
0100
0000
0010
1000
0001
0010
0100
M000
0100
0001
0000
0010
0001
1000
,  // measure 54
0010
0M00
0010
0001
0000
0100
0010
1000
0010
0100
0001
1000
0000
0100
0000
0000
,  // measure 55
0010
0000
0010
0001
0000
1000
0001
1000
0100
00M0
0100
0001
0000
0010
0000
0000
,  // measure 56
0100
M000
0100
0001
0000
0010
0000
0000
0100
1000
0100
0010
0000
0000
0001
0000
,  // measure 57
1000
0000
1000
0010
0000
0100
0001
1000
0010
0M00
0010
0001
0000
1000
0000
0000
,  // measure 58
0010
0M00
0010
0001
0000
1000
0001
1000
0100
0010
0100
1000
0000
0010
0000
0000
,  // measure 59
0200
M301
0000
1000
0400
0000
0310
0001
,  // measure 60
1000
0000
0010
1000
0000
0000
0002
0000
4003
0000
3000
0000
0400
0000
0000
0000
,  // measure 61
0340
0030
0001
0040
0030
0100
0000
0000
1000
0000
0000
0001
0000
0100
0010
1000
,  // measure 62
0040
0030
1000
0040
0030
0000
0100
0001
4000
0000
0000
0000
3100
0010
0000
0001
,  // measure 63
1000
0000
0000
0000
0100
0000
0000
0000
1000
0000
0000
0000
0001
0000
0000
0000
0100
0000
0000
0000
0001
0000
0000
0000
0040
0000
0000
0000
0000
0000
0030
0000
0000
0100
0000
0000
1000
0000
0000
0000
0000
0000
0001
0000
0000
1000
0000
0000
,  // measure 64
0001
0100
0001
0100
0010
1000
0010
1000
,  // measure 65
0001
0010
0001
0010
0100
1000
0100
1000
,  // measure 66
0001
0100
0001
1000
0001
0010
0001
1000
0100
0010
0100
1000
0001
0010
0100
1000
,  // measure 67
0010
0100
0010
0100
0010
0100
0001
0000
1000
0001
0000
0010
0000
0200
0000
0000
,  // measure 68
1300
0000
0001
1000
0001
0000
0100
0000
0011
0000
1000
0010
0M00
0010
0001
0000
,  // measure 69
1000
0001
0100
0000
0100
0000
0001
1000
0101
0000
0010
0100
M000
0100
0001
0000
,  // measure 70
2000
0000
3000
0000
0010
0000
0100
0000
0011
0000
1000
0100
00M0
0100
0001
0000
,  // measure 71
0010
0100
1000
0000
1000
0000
0100
0010
0101
0000
0000
0101
0000
0000
1000
0001
,  // measure 72
0200
0310
0000
1000
0000
0000
0100
0000
1010
0000
0001
0100
00M0
0100
1000
0000
,  // measure 73
0010
0100
0001
0000
0001
0000
0010
0100
1010
0000
0100
0010
000M
0010
1000
0000
,  // measure 74
0002
0000
0003
0000
0010
0000
0100
0000
1010
0000
0001
0100
00M0
0100
1000
0000
,  // measure 75
0010
0000
0000
0000
0200
0000
0000
0000
0302
0000
0000
0000
0023
0000
0000
0000
0131
0000
1000
0000
0100
00M0
0100
0000
0001
0000
0000
0000
0004
0000
0000
0000
,  // measure 76
1003
0000
0000
0000
0010
0100
0010
1000
0001
0010
0100
0000
0100
0000
1000
0001
,  // measure 77
1000
0001
0100
0000
0010
1000
0001
0000
0000
0011
0000
0010
0100
1000
0100
0010
,  // measure 78
0001
1000
0001
0100
0000
0010
1000
0001
0000
0010
0100
1000
0000
0010
0100
0000
,  // measure 79
0001
0000
0001
0000
1000
0000
1000
0000
0100
0010
0100
0010
0001
1000
0001
1000
,  // measure 80
0010
0000
1000
0000
0100
0000
0010
0000
0001
0000
0100
0000
0010
0000
1000
0001
,  // measure 81
0000
0010
0100
0010
0100
1000
0010
0100
,  // measure 82
0001
1000
0001
0010
0000
0100
1000
0010
0000
0100
0001
1000
0000
0100
0010
0001
,  // measure 83
0000
0000
1000
0020
0000
0130
0001
2000
0000
3001
0100
0001
1000
0100
1000
0100
,  // measure 84
0010
0001
0001
1000
1010
0010
0100
0000
,  // measure 85
0001
0000
0001
0000
1000
0000
0100
0010
0000
0001
1000
0001
0100
0000
0100
0000
,  // measure 86
0010
1000
1000
0001
0011
0010
0100
0000
,  // measure 87
1000
0000
1000
0000
0000
0000
0010
0000
0100
0000
0001
0010
0000
0000
0400
4000
,  // measure 88
0000
0000
0000
0000
,  // measure 89
3300
0000
0000
0000
;

//---------------dance-single - ----------------
#NOTES:
     dance-single:
     :
     Challenge:
     13:
     1.120328,1.215073,0.186040,0.407857,1.710136,1096.000000,1070.000000,26.000000,57.000000,9.000000,4.000000,1.120328,1.215073,0.186040,0.407857,1.710136,1096.000000,1070.000000,26.000000,57.000000,9.000000,4.000000:
0000
0000
0000
0000
,
0000
0000
0000
0000
,
0000
0000
0000
0000
,
2000
0000
3000
0001
0100
0001
0000
1000
0100
0000
0010
0000
0001
1000
0000
0000
,
2001
0000
3000
0001
0100
0010
0100
0001
1000
0100
0010
0000
0001
1000
0000
0000
,
1002
0000
0003
1000
0100
0010
0100
1000
0001
0000
0100
0000
0001
1000
0000
0000
,
2001
0000
3000
0001
1000
0100
0010
0001
1000
0000
0010
0000
1000
0001
0000
0000
,
0012
0000
0003
1000
0010
1000
0001
0010
0100
0001
0100
0010
0001
1000
0010
0000
,
2010
0000
3000
0001
0010
0100
0010
0001
1000
0010
0100
0000
0001
1000
0000
0000
,
2100
0000
3000
0001
0100
0010
1000
0001
0100
0000
0001
0010
0100
0010
0000
0000
,
1002
0000
0003
0100
0010
1000
0001
0010
0100
0000
0010
0000
0001
1000
0000
0000
,
0102
0000
0003
0010
0001
1000
0001
0100
0010
0001
0010
1000
0001
0010
0100
1000
,
0001
0100
0000
0001
0100
0000
0010
1000
0000
0010
1000
0000
0002
0000
2003
0000
,
3100
1000
0000
0100
1000
0000
0001
0010
0000
0001
0010
0100
2000
0000
3002
0000
,
1003
0010
0000
1000
0010
0000
0100
0001
0000
0100
0001
1000
0100
0010
0100
1000
,
0002
0000
0000
2003
0000
0000
3020
0000
0100
0000
0000
0000
1030
0000
0001
1000
,
0010
0100
0000
0001
0100
0000
0001
1000
0000
0001
0010
0000
0002
0000
2003
0000
,
3100
0010
0000
0100
1000
0000
0001
1000
0000
0010
0100
0001
1000
0100
0010
0001
,
1000
0000
0000
0010
0000
0000
0000
0000
0000
0100
0000
0000
0010
0000
0000
0000
0000
0000
1000
0000
0000
0001
0000
0000
0000
0000
0000
0010
0000
0000
0100
0000
0000
0001
0000
0000
0100
0000
0000
1000
0000
0000
0001
0000
1000
0000
0010
0000
,
0200
0000
0000
0000
0000
0000
0000
0000
0000
0302
0000
0000
0010
0000
0000
0000
0000
0000
2003
0000
0000
0000
0000
0000
3001
0000
1000
0000
0001
0000
1000
0000
0001
0000
1000
0000
0010
0000
0000
0000
0000
0000
0100
0000
0000
0000
0000
0000
,
0001
1000
0100
0010
0001
1000
0010
0100
,
0001
0010
0100
1000
0010
0100
0010
1000
,
0001
0010
0100
1000
0001
0100
0010
1000
,
0001
0000
0000
0010
0000
0000
0100
0000
0000
1000
0000
0000
0001
1000
0001
1000
0001
1000
0010
0000
0000
0100
0000
0000
,
0001
1000
0100
0010
0001
0100
0010
0100
0001
1000
0100
0010
0001
1000
0010
1000
,
0001
0010
0100
1000
0010
0100
0010
1000
0001
0010
0100
1000
0001
0100
0001
1000
,
0100
0010
0001
1000
0010
0100
0001
1000
0100
0010
0001
1000
0010
0100
0001
1000
,
0200
0000
0300
0000
0000
0000
0000
0000
0200
0000
0300
0000
0000
0000
0000
0000
0010
0M00
0010
0000
1000
0000
0001
0000
0100
00M0
0100
0000
1000
0000
0001
0000
,
0020
0000
0000
0000
0130
0000
1000
0000
0001
0000
0000
0000
0100
0000
0001
1000
0002
0000
0000
0000
0013
0000
0100
0000
1000
0000
0000
0000
0001
0000
1000
0000
,
0010
0000
0100
0000
0010
0000
1000
0000
0001
0000
0010
0000
0100
0000
1000
0000
0002
0000
0000
0000
0103
00M0
0100
0000
1000
0000
0001
0000
0100
0000
0010
0000
,
2000
0000
3001
0010
0100
0000
0010
0001
1000
0000
0010
0100
0002
0000
1003
0100
,
1000
0001
0100
0010
1000
0001
0010
0100
0010
0001
1000
0010
0M00
0010
0001
1000
,
0020
0000
0000
0000
0130
0000
0001
0000
1000
0000
0000
0000
0100
0000
0000
0000
0010
0000
0001
1000
0001
0000
0100
0000
0020
0000
0000
0000
1030
0000
0001
0000
,
1000
0000
0100
0000
0010
0000
0001
0000
1000
0000
0010
0000
0100
0000
0010
0000
2000
0000
0000
0000
3100
00M0
0100
0000
0001
0000
1000
0000
0100
0000
1000
0000
,
0002
0000
0103
0010
1000
0000
0001
0000
0020
0000
0130
1000
0002
0000
0103
0010
,
1000
0000
0000
0000
0001
0000
0000
0000
0010
0000
0100
0000
1000
0000
0001
0000
0100
0000
0100
0000
0100
0000
0100
0000
1000
0000
0000
0000
0001
0010
0001
0000
,
2000
0000
0100
0000
3001
0010
0100
1000
0001
0100
0010
1000
0100
0010
0001
1000
,
0010
0100
0010
1000
0001
0010
0100
1000
0001
0100
0001
1000
0100
0010
0100
1000
,
0001
0100
0010
1000
0001
0010
0100
1000
0001
0100
0001
1000
0100
0010
0001
1000
,
0010
0100
0010
1000
0001
0010
0100
1000
0001
0100
0001
0100
1000
0100
1000
0100
,
0010
1000
0001
1000
0100
0010
0001
1000
0001
0100
0010
1000
0001
0010
0100
0010
,
0001
1000
0010
0100
0001
1000
0100
1000
0001
0100
0001
1000
0100
0010
0100
1000
,
0010
0100
0001
1000
0100
0010
0001
1000
0010
0100
0010
1000
0001
0010
0100
1000
,
0001
0100
0010
1000
0001
0010
0100
0010
0001
1000
0001
1000
0100
0100
0100
0100
,
0002
0000
0000
2003
0000
0000
3020
0000
0000
0230
0000
0000
0301
1000
0100
0010
,
0001
0000
2000
0000
0000
3020
0000
0000
0130
0000
0000
0010
1000
0001
0010
0100
,
2000
0000
0000
3002
0000
0000
0103
0010
0100
0000
0001
0000
0010
0000
0100
0000
,
1000
0000
0000
0001
1000
0000
0001
0100
0010
0001
0000
0010
1000
0100
0010
0000
,
0002
0003
0000
1000
0020
0030
1000
0000
0001
0010
0100
0000
1000
0001
0100
0001
,
0000
1000
0000
0100
0000
0000
0010
0001
0100
0000
0000
0010
0000
1000
0001
0010
,
0100
0000
0000
1000
0010
0100
0010
1000
0001
0000
0010
0000
0001
0000
1000
0000
,
0010
0000
0000
0000
0000
0000
0000
0000
0000
0000
0000
0000
0010
0000
0000
0000
0000
0000
0000
0000
0000
0000
0000
0000
1000
0000
0001
0000
1000
0000
0001
0000
1000
0000
0001
0000
0100
0000
0000
0010
0000
0000
1000
0000
0000
0001
0000
0000
,
1000
0100
0010
0001
1000
0010
0000
1000
0100
1000
0001
0100
0000
0010
1000
0000
,
0100
0010
0100
1000
0001
0100
0010
1000
0001
0000
1000
0100
0000
0010
0001
1000
,
0010
0100
0010
1000
0001
0100
0000
0001
1000
0100
0010
0100
0000
1000
0000
0000
,
0001
0100
0010
1000
0001
0010
0001
1000
0010
0000
1000
0001
0000
0010
0100
0000
,
1000
0001
0100
0010
0100
0001
0000
1000
0001
0010
0100
1000
0000
0001
0100
0000
,
0010
1000
0001
0010
0100
1000
0001
0100
0001
0000
1000
0010
0000
1000
0100
0000
,
0010
0001
1000
0010
0100
0001
0000
1000
0100
1000
0001
0100
0000
0010
1000
0001
,
0010
0000
0000
0000
0000
0000
0002
0000
0000
0000
0000
0000
0000
0000
0000
0000
0000
0000
1003
0000
0000
0000
0000
0000
0001
0000
1000
0000
0001
0000
1000
0000
0001
0000
1000
0000
0010
0000
0000
0100
0000
0000
0010
0000
0000
1000
0000
0000
,
0001
0000
0000
0000
0000
0000
0000
0000
0000
0000
0000
0000
0010
0000
0000
0000
0000
0000
0M00
0000
0000
0000
0000
0000
0010
0000
0000
0000
0000
0000
0000
0000
0000
0000
0000
0000
1000
0000
0000
0000
0000
0000
0000
0000
0000
0000
0000
0000
0001
0000
0000
0000
0000
0000
0000
0000
0000
0000
0000
0000
0010
0000
0000
0000
0000
0000
0000
0000
0000
0000
0000
0000
0100
0000
0000
0000
0000
0000
0000
0000
0000
0000
0000
0000
0000
0000
0000
0000
0000
0000
0000
0000
0000
0000
0000
0000
1000
0000
0000
0000
0000
0000
0000
0000
0000
0000
0000
0000
0001
0000
0000
0000
0000
0000
0100
0000
0000
0000
0000
0000
0001
0000
0000
0000
0000
0000
0000
0000
0000
0000
0000
0000
1000
0000
0000
0000
0000
0000
0000
0000
0000
0000
0000
0000
0100
0000
0000
0000
0000
0000
0000
0000
0010
0000
0000
0000
0000
0000
0000
0000
0001
0000
0000
0000
0000
0000
0000
0000
1000
0000
0000
0000
0000
0000
0000
0000
0010
0000
0000
0000
0000
0000
0000
0000
0100
0000
0000
0000
0000
0000
0000
0000
,
0001
0000
1000
0000
0100
0000
0010
0001
0010
0000
0001
0000
1000
0000
0010
0000
0100
0000
0000
0000
0010
0000
1000
0000
0001
0000
0010
0000
0001
0000
1000
0000
,
0010
0000
0000
0000
0000
0000
0000
0000
0000
0000
0000
0000
1000
0000
0000
0000
0000
0000
0001
0000
0000
0000
0000
0000
1000
0000
0000
0000
0000
0000
0000
0000
0000
0000
0000
0000
0100
0000
0000
0000
0000
0000
0000
0000
0000
0000
0000
0000
0010
0000
0000
0000
0000
0000
0000
0000
0000
0000
0000
0000
0001
0000
0000
0000
0000
0000
0000
0000
0000
0000
0000
0000
1000
0000
0000
0000
0000
0000
0000
0000
0000
0000
0000
0000
0010
0000
0000
0000
0000
0000
0000
0000
0000
0000
0000
0000
0100
0000
0000
0000
0000
0000
0000
0000
0000
0000
0000
0000
0001
0000
0000
0000
0000
0000
1000
0000
0000
0000
0000
0000
0001
0000
0000
0000
0000
0000
0000
0000
0000
0000
0000
0000
0010
0000
0000
0000
0000
0000
0000
0000
0000
0000
0000
0000
0100
0000
0000
0000
0000
0000
0000
0000
1000
0000
0000
0000
0000
0000
0000
0000
0001
0000
0000
0000
0000
0000
0000
0000
0100
0000
0000
0000
0000
0000
0000
0000
0010
0000
0000
0000
0000
0000
0000
0000
0000
0000
0000
0000
0000
0000
0000
0000
,
1000
0000
0000
0000
1000
0000
0000
0000
1000
0000
0000
0000
1000
0000
0000
0000
0100
0000
0000
0000
0010
0000
0000
0000
0001
0000
1000
0000
0001
0000
1000
0000
0001
0000
1000
0000
0100
0000
0000
0010
0000
0000
0001
0000
0000
0000
0000
0000
,
1000
0001
0010
0000
0001
1000
0010
0000
1000
0010
0100
0000
0001
0010
0100
0000
,
1000
0001
0100
0000
0001
1000
0100
0000
1000
0010
0100
0000
0001
0010
0100
0000
,
1000
0001
0100
0010
1000
0100
0010
0100
1000
0010
0100
0001
1000
0100
0010
0001
,
0000
1000
0010
1000
0001
0100
0001
1000
0100
0000
0010
0001
0000
1000
0020
0000
,
1130
0000
0001
1000
0100
0000
1000
0010
1100
0000
0001
0100
0001
1000
0200
0000
,
1310
0000
0001
0000
0100
0000
0010
1000
0101
0000
1000
0100
0000
0010
0001
0100
,
0011
0000
1000
0001
0100
0000
0001
1000
0101
0000
1000
0100
1000
0001
0200
0000
,
0311
0000
1000
0000
0100
0000
0010
0001
1100
0000
0001
1010
0000
0001
1000
0010
,
1100
0000
0001
1000
0100
0000
0010
0001
1100
0000
0001
1000
0100
1000
0002
0000
,
1013
0000
0001
0000
0100
0000
0010
1000
0101
0000
1000
0010
0000
1000
0001
0100
,
0011
0000
1000
0001
0100
0000
0010
1000
0101
0000
1000
0001
0010
0100
2000
0000
,
3001
0000
0000
0000
0000
0000
0100
0000
0000
0000
0000
0000
0001
0000
0000
0000
0000
0000
1000
0000
0000
0000
0000
0000
0100
0000
0000
0010
0000
0000
0100
0000
0000
1000
0000
0000
0001
0000
0000
0000
0000
0000
1000
0000
0001
0000
1000
0000
,
0010
0000
0000
0100
0000
0000
0010
0000
0000
1000
0000
0000
0002
0000
0000
0000
0000
0000
0013
0000
0001
0000
1000
0000
0010
0000
0000
0100
0000
0000
0002
0000
0000
0000
0000
0000
1003
0000
0000
0100
0000
0000
0010
0000
0000
0001
0000
0000
,
0100
00M0
0100
0000
2000
0000
0000
0000
3010
0000
0100
0000
0000
0000
0010
0000
0000
0000
1100
0000
0001
0000
0010
0M00
0010
0000
1000
0000
0100
00M0
0100
0000
,
0001
0010
0100
1000
0001
0100
0010
1000
0001
0010
0001
1000
0010
0100
0001
1000
,
0100
1000
0002
0000
0203
0000
0320
0000
1030
0100
1000
0100
0001
0100
0001
0100
,
0010
0001
1000
0010
0100
0001
1000
0100
1000
0001
0100
0001
1000
0010
0100
0001
,
1000
0100
0010
0001
1000
0010
0100
0010
1000
0001
0010
0100
1000
0001
0100
0010
,
0100
0001
1000
0100
0010
0001
1000
0010
1000
0001
0010
0001
1000
0010
0100
0001
,
1000
0100
1000
0001
0100
0001
1000
0100
0010
0001
1000
0001
0100
0100
0100
0100
,
1000
0000
0001
0000
0100
0000
0010
0000
1000
0000
1000
0000
0001
0000
0010
0001
,
1000
0000
0100
0000
0100
0000
0010
0001
1000
0000
1000
0010
0100
0000
0100
0000
,
0101
0000
0001
0000
0001
0000
1000
0000
0100
0010
0001
0000
1000
0000
0010
0100
,
0010
0000
1000
0000
0000
0000
0001
0000
1000
0000
0100
0010
0000
0000
0440
0000
,
0000
0000
0000
0000
,
0000
0000
0000
0330
0000
0000
0000
0000
;
