#VERSION:0.83;
#TITLE:Chase the Shadow;
#SUBTITLE:(2021 rework);
#ARTIST:影虎。;
#TITLETRANSLIT:;
#SUBTITLETRANSLIT:;
#ARTISTTRANSLIT:Kagetora.;
#GENRE:;
#ORIGIN:;
#CREDIT:;
#BANNER:;
#BACKGROUND:Chase_the_Shadow-bg-wide.png;
#PREVIEWVID:;
#JACKET:;
#CDIMAGE:;
#DISCIMAGE:;
#LYRICSPATH:;
#CDTITLE:;
#MUSIC:Chase the Shadow.ogg;
#OFFSET:0.009000;
#SAMPLESTART:44.923199;
#SAMPLELENGTH:22.268000;
#SELECTABLE:YES;
#BPMS:0.000=175.000;
#STOPS:;
#DELAYS:;
#WARPS:;
#TIMESIGNATURES:0.000=4=4;
#TICKCOUNTS:0.000=4;
#COMBOS:0.000=1;
#SPEEDS:0.000=1.000=0.000=0;
#SCROLLS:0.000=1.000;
#FAKES:;
#LABELS:0.000=Song Start;
#BGCHANGES:;
#KEYSOUNDS:;
#ATTACKS:
;

//---------------dance-single - sangyule----------------
#NOTEDATA:;
#CHARTNAME:;
#STEPSTYPE:dance-single;
#DESCRIPTION:sangyule;
#CHARTSTYLE:;
#DIFFICULTY:Challenge;
#METER:12;
#RADARVALUES:0.963057,1.275806,0.480303,0.283036,1.402314,786.000000,730.000000,56.000000,33.000000,29.000000,1.000000,4.000000,0.000000,0.000000,0.963057,1.275806,0.480303,0.283036,1.402314,786.000000,730.000000,56.000000,33.000000,29.000000,1.000000,4.000000,0.000000,0.000000;
#CREDIT:sangyule;
#NOTES:
// measure 0
0000
0000
0000
0001
,  // measure 1
2001
0000
0000
0000
3010
0100
0001
0021
,  // measure 2
0000
0001
0130
2000
0000
0010
0002
3003
,  // measure 3
2001
0000
0000
0000
0000
0000
3001
0010
0001
0000
1000
0000
0010
0000
2000
0000
,  // measure 4
0000
0000
0001
0000
0000
0000
3200
0000
0010
0000
0010
0000
1000
0000
1300
0001
,  // measure 5
0010
0100
1000
0010
0100
0001
1000
0001
0010
0100
0010
0001
1000
0010
0100
0001
,  // measure 6
1000
0100
1000
0001
0100
0010
1000
0100
0010
0001
1000
0001
0100
0010
1000
0100
,  // measure 7
0010
0000
0000
0010
0000
0000
0001
0000
0000
0001
0000
0000
0200
0000
0000
0000
,  // measure 8
0310
0000
1000
0000
0001
0010
0000
0010
0000
0100
1000
0001
1000
0000
0010
0000
,  // measure 9
0110
0001
1000
0001
,  // measure 10
0010
0000
0100
0000
1000
0010
0100
0001
,  // measure 11
0100
0010
1000
0001
,  // measure 12
0010
0000
0000
0000
0100
0000
0000
0000
1000
0001
1000
0001
0000
0100
0010
0000
,  // measure 13
1010
1000
0001
0010
0100
1000
0001
1000
,  // measure 14
1010
0010
0100
0001
1000
0100
1000
0010
,  // measure 15
0100
0001
1000
0100
0010
0100
1000
0001
1000
0010
0100
0001
0010
0100
1000
0001
,  // measure 16
0100
0000
0001
0100
0000
0001
0100
0000
0010
1000
0001
0000
0020
0000
0000
0030
,  // measure 17
0101
0000
0000
0000
1000
0000
0011
0000
0011
0000
0000
1100
0000
0011
0000
0000
,  // measure 18
1000
0100
0010
0001
1000
0001
0100
0010
1000
0100
1000
0001
0100
0001
1000
0010
,  // measure 19
1100
0000
0001
1100
0000
0001
1010
0000
0001
1010
0000
0001
1100
0000
0011
0000
,  // measure 20
1000
0100
0001
0100
1010
0001
2000
0000
,  // measure 21
3011
0000
0100
0000
0100
0000
0011
0000
1100
0000
0000
0011
0000
1100
0000
0000
,  // measure 22
0001
0010
0100
1000
0001
0100
0001
1000
0100
1000
0001
0010
0100
1000
0010
0100
,  // measure 23
0001
1000
0100
0010
0001
1000
0001
0100
0010
0010
0000
2000
0000
3001
0010
0100
,  // measure 24
M000
0100
0001
0000
1000
0001
0000
0010
0100
1000
0001
1000
0100
0100
0100
1000
,  // measure 25
0002
0000
0000
0000
0103
0010
1100
0000
,  // measure 26
0001
1000
0100
0010
0001
1000
0001
0100
0010
1000
0001
0010
0001
1000
0100
0010
,  // measure 27
0101
0000
1000
0101
0000
1000
0011
0000
1000
0011
0000
1000
0101
0000
1010
0000
,  // measure 28
0001
0100
1000
0100
0011
0100
0001
0001
,  // measure 29
1010
0000
0000
0101
0000
0000
1010
0000
0000
0101
0000
0000
1000
0000
0010
0000
,  // measure 30
1100
0000
0000
0011
0000
0000
1100
0000
0000
0011
0000
0000
2000
0000
0000
0000
,  // measure 31
3001
0000
0000
0010
0000
0000
0001
0000
0000
0000
0000
0000
0100
0000
0000
0010
0000
0000
1000
0000
0000
0000
0000
0000
0001
0000
0000
1000
0000
0000
0001
0000
0000
0010
0000
0000
0100
0000
0000
0000
1000
0000
0000
0000
0100
0000
0000
0000
,  // measure 32
1000
0000
0001
0000
0100
0010
0200
0000
0000
0301
1000
0001
,  // measure 33
0100
0000
0010
0000
1000
0000
0001
0000
0010
0M00
0010
0000
1000
0000
0100
0000
1000
0000
0001
0000
1000
0000
0010
0000
,  // measure 34
0100
0000
0001
0000
1000
0000
0100
0000
0010
M000
0010
0000
1000
0000
0001
0000
0100
0000
0001
0000
0010
0000
0100
0000
,  // measure 35
1000
0000
0001
0000
1000
0000
0010
0000
0100
000M
0100
0000
1000
0000
0001
0000
0010
0000
0001
0000
0100
0000
0010
0000
,  // measure 36
1000
0000
0001
0000
1000
0000
0010
0000
0100
000M
0100
0000
1000
0000
0010
0000
0100
0000
0001
0000
0010
0000
0100
0000
,  // measure 37
1000
0000
0010
0000
1000
0000
0001
0000
0010
0M00
0010
0000
1000
0000
0100
0000
1000
0000
0001
0000
1000
0000
0010
0000
,  // measure 38
0100
0000
0010
0000
1000
0000
0001
0000
0100
00M0
0100
0000
1000
0000
0001
0000
0010
0000
0001
0000
0100
0000
0010
0000
,  // measure 39
1000
0000
0100
00M0
0100
0000
0001
0000
0010
0M00
0010
0000
0100
0000
1000
0000
0100
0000
0001
0000
0010
0000
0100
0000
,  // measure 40
1000
0001
1000
0044
0000
0033
1000
0001
1000
0100
0010
0001
,  // measure 41
1000
0000
0010
0000
1000
0000
0100
0000
0010
000M
0010
0000
1000
0000
0010
0000
0100
0000
0001
0000
1000
0000
0001
0000
,  // measure 42
0010
0000
0100
0000
1000
0000
0001
0000
0100
M000
0100
0000
0010
0000
0100
0000
0001
0000
0100
0000
0010
0000
0100
0000
,  // measure 43
1000
0000
0001
0000
1000
0000
0001
0000
0010
0M00
0010
0000
1000
0000
0001
0000
1000
0000
0010
0000
0100
0000
0001
0000
,  // measure 44
1000
0000
0100
0000
0010
0000
0001
0000
0100
00M0
0100
0000
1000
0000
0010
0000
0100
0000
0001
0000
1000
0000
0001
0000
,  // measure 45
1010
0000
0100
0000
1000
0000
0001
0000
0010
0M00
0010
0000
1000
0000
0100
0000
1000
0000
0010
0000
0100
0000
0001
0000
,  // measure 46
1100
0000
0001
0000
1000
0000
0100
0000
0010
000M
0010
0000
1000
0000
0010
0000
0001
0000
0010
0000
0100
0000
0001
0000
,  // measure 47
1000
0100
1000
0010
0100
0001
0010
1000
0010
0001
0100
0010
,  // measure 48
1100
0000
0000
1100
0000
0000
0011
0000
2200
0000
0000
0000
0000
0000
3300
0000
,  // measure 49
1002
0000
0000
0000
,  // measure 50
0000
0000
0000
0000
,  // measure 51
0003
0000
0000
0000
,  // measure 52
0000
0000
0000
0000
0000
0000
0000
0000
0000
0000
0000
0000
1000
0100
0010
0001
,  // measure 53
0100
0000
0000
0010
0000
0000
0000
0000
1000
0000
0001
0000
,  // measure 54
0010
0000
0000
0000
0100
1000
0100
0010
,  // measure 55
0001
0000
0000
1000
0000
0000
0010
0000
,  // measure 56
0000
0100
0000
0000
0001
0000
0000
0000
,  // measure 57
1000
0100
1000
0001
0000
0010
0001
1000
,  // measure 58
0000
0010
0000
0100
0000
0000
0001
1000
,  // measure 59
0100
0000
0000
0001
0000
0000
0100
0000
,  // measure 60
1100
0000
1000
0000
0004
0000
0403
0000
0310
1000
0010
0100
0001
0000
1000
0000
,  // measure 61
0001
0010
0100
1000
0001
0100
0010
1000
0100
0010
0001
1000
0010
0100
0010
0100
,  // measure 62
0001
0000
1000
0000
0100
0000
1000
0000
0001
0000
0100
0000
0010
0000
1000
0000
0010
0000
0100
0000
0001
0000
1000
0000
0100
0000
0100
0000
0100
00M0
0100
0000
,  // measure 63
0001
0000
0000
1000
0000
0000
0010
0000
0000
1000
0000
0000
0001
0000
0000
0010
0000
0000
0100
0000
0000
0010
0000
0000
0001
0000
1000
0000
0001
0000
1000
0000
0000
0010
0000
0000
0100
0000
0001
0000
0100
0000
0001
0000
0000
1000
0000
0000
,  // measure 64
0100
0000
0000
0000
00MM
0000
0000
0000
M0MM
0000
0000
0000
1000
0001
1000
0100
,  // measure 65
0020
0000
0000
0001
0000
1000
000M
0000
0130
0001
0000
1000
0000
1000
0001
0000
,  // measure 66
0200
0000
0000
0001
0000
1000
000M
0000
0310
0000
0001
0000
0100
0000
0010
0000
,  // measure 67
1000
0000
0100
0010
0000
1000
0000
0010
0000
0100
1000
0000
0001
0000
1000
0000
,  // measure 68
0020
0000
0000
0100
0000
2030
0000
0100
0000
3001
0100
0000
0010
0000
1000
0000
,  // measure 69
0200
0000
0000
1000
0000
0001
M000
0000
0310
1000
0000
0001
0000
0001
1000
0000
,  // measure 70
0020
0000
0000
1000
0000
0001
M000
0000
0130
0000
1000
0000
0001
0000
0100
0000
,  // measure 71
0010
1000
0100
0020
0000
0001
0100
0000
0000
1000
0130
0000
0010
0000
0001
0000
,  // measure 72
1100
0000
0000
0000
0000
0000
0011
0000
0000
0M00
0000
0000
1010
0000
0000
0000
0000
0000
0101
0000
0000
0000
0000
0000
1000
0000
0000
0000
0010
0000
0000
0000
,  // measure 73
1020
0000
0000
0100
0000
0001
0M00
0000
0130
1000
0000
0001
0000
0001
1000
0000
,  // measure 74
0200
0000
0000
1000
0000
0010
M000
0000
0301
0000
1000
0000
0100
0000
0010
0000
,  // measure 75
0001
0000
1000
0010
0000
0100
0000
1000
0000
0100
0010
0000
0100
0000
0001
0000
,  // measure 76
0020
0000
0000
0100
0000
0032
0000
1000
0000
0103
0010
0000
1000
0000
0001
0000
,  // measure 77
0021
0000
0000
0001
0000
0100
000M
0000
1030
0100
0000
0010
0000
0010
0001
0000
,  // measure 78
0200
0000
0000
0001
0000
0010
0000
0000
1300
0000
0001
0000
0100
0000
0010
0000
,  // measure 79
1000
0000
1000
0000
0001
0000
0001
0000
0010
0100
1000
0010
0100
0001
1000
0100
,  // measure 80
0020
0000
0000
0000
0031
0000
0100
0000
0011
1000
0001
0010
0100
1000
0001
0100
,  // measure 81
0010
1000
0001
1000
0100
0010
0001
1000
0001
0100
0010
1000
0001
0010
0200
0000
,  // measure 82
1000
0010
0000
0000
0001
0010
0000
0000
1000
0010
0000
0000
0301
0000
2001
0000
,  // measure 83
0000
0000
0000
0000
,  // measure 84
0000
0000
0000
0000
,  // measure 85
3000
0000
0000
0000
;

//---------------dance-single - sangyule----------------
#NOTEDATA:;
#CHARTNAME:;
#STEPSTYPE:dance-single;
#DESCRIPTION:sangyule;
#CHARTSTYLE:;
#DIFFICULTY:Beginner;
#METER:1;
#RADARVALUES:0.111499,0.213242,0.094345,0.000000,0.000000,91.000000,80.000000,11.000000,0.000000,0.000000,0.000000,0.000000,0.000000,0.000000,0.111499,0.213242,0.094345,0.000000,0.000000,91.000000,80.000000,11.000000,0.000000,0.000000,0.000000,0.000000,0.000000,0.000000;
#CREDIT:sangyule;
#NOTES:
0000
0000
0000
0000
,
0000
0000
0000
0000
,
0000
0000
0000
0000
,
0000
0000
0000
0000
,
0000
0000
0000
0000
,
1000
0000
0000
0000
,
0001
0000
0000
0000
,
0010
0000
0000
0000
,
0000
0000
0000
0000
,
0001
0000
0000
0000
,
0001
0000
0000
0000
,
1000
0000
0000
0000
,
1000
0000
0000
0000
,
0001
0000
0001
0000
,
0001
0000
0001
0000
,
0001
0000
0000
0000
,
1000
0000
0000
0000
,
1001
0000
0000
0000
,
0001
0000
0000
0000
,
0010
0000
0000
0000
,
0100
0000
0000
0000
,
1000
0000
0000
0000
,
0001
0000
0000
0000
,
1000
0000
1000
0000
,
0010
0000
0010
0000
,
0100
0000
0000
0000
,
0001
0000
0000
0000
,
1000
0000
0000
0000
,
0100
0000
0000
0000
,
0010
0000
0000
0000
,
0010
0000
0000
0000
,
0001
0000
0000
0000
,
0000
0000
0000
0000
,
1001
0000
0000
0000
,
1000
0000
0000
0000
,
0010
0000
0000
0000
,
0100
0000
0000
0000
,
0001
0000
0000
0000
,
1000
0000
0000
0000
,
0100
0000
0000
0000
,
0001
0000
0000
0000
,
0110
0000
0000
0000
,
0100
0000
0000
0000
,
1000
0000
0000
0000
,
0001
0000
0000
0000
,
1001
0000
0000
0000
,
1001
0000
0000
0000
,
1001
0000
0000
0000
,
0110
0000
0000
0000
,
1000
0000
0000
0000
,
0000
0000
0000
0000
,
0000
0000
0000
0000
,
0000
0000
0000
0000
,
0000
0000
0001
0000
,
0000
0000
0010
0000
,
0000
0000
0100
0000
,
0000
0000
1000
0000
,
0000
0000
0001
0000
,
0000
0000
0100
0000
,
0000
0000
0010
0000
,
1000
0000
0000
0000
,
0001
0000
0000
0000
,
0001
0000
0000
0000
,
1000
0000
1000
0000
,
1000
0000
0000
0000
,
0001
0000
0000
0000
,
1000
0000
0000
0000
,
0100
0000
0000
0000
,
0010
0000
0000
0000
,
0001
0000
0000
0000
,
1000
0000
0000
0000
,
0010
0000
0000
0000
,
0001
0000
0000
0000
,
0010
0000
0010
0000
,
1000
0000
0000
0000
,
0001
0000
0001
0000
,
0010
0000
0000
0000
,
0110
0000
0000
0000
,
0100
0000
0000
0000
,
1001
0000
0000
0000
,
0001
0000
0000
0000
,
1001
0000
0000
0000
,
0000
0000
0000
0000
0000
0000
0000
1001
;

//---------------dance-single - sangyule----------------
#NOTEDATA:;
#CHARTNAME:;
#STEPSTYPE:dance-single;
#DESCRIPTION:sangyule;
#CHARTSTYLE:;
#DIFFICULTY:Easy;
#METER:4;
#RADARVALUES:0.248728,0.400967,0.034307,0.154383,0.000000,203.000000,199.000000,4.000000,18.000000,0.000000,0.000000,0.000000,0.000000,0.000000,0.248728,0.400967,0.034307,0.154383,0.000000,203.000000,199.000000,4.000000,18.000000,0.000000,0.000000,0.000000,0.000000,0.000000;
#CREDIT:sangyule;
#NOTES:
0000
0000
0000
0000
,
0000
0000
0000
0000
,
0000
0000
0000
0000
,
0000
0000
0000
0000
,
0000
0000
0000
0000
,
1000
0000
0000
1000
0001
0000
0010
0000
,
0010
0000
0000
0010
0100
0000
1000
0000
,
1001
0000
0000
1001
0000
0000
1001
0000
,
0002
0000
0000
0103
,
0020
0000
0000
0000
,
0030
0000
1000
0000
,
0001
0000
0001
0000
,
0010
0000
0010
0000
,
0100
1000
0100
1000
,
0001
0100
0001
0100
,
0010
1000
0001
1000
,
0002
0000
0000
0013
,
0010
0000
0100
0000
,
1000
0001
1000
0010
,
0100
0000
0000
0001
0000
0000
0100
0000
,
0020
0000
1030
0001
,
0001
0000
1000
0000
,
0100
0010
0100
0010
,
0001
1000
0001
0100
,
0010
1000
0010
0000
,
2000
0000
3000
0001
,
0010
0100
0010
0100
,
1000
0000
0000
0001
0000
0000
1000
0000
,
0020
0000
0030
0100
,
0001
0000
0000
0001
0000
0000
1000
0000
,
0010
0000
0000
0010
0000
0000
0100
0000
,
0002
0000
0000
0000
,
2003
0000
0000
3000
,
0000
0001
0000
1000
,
0000
0100
0000
0010
,
0000
0001
0000
1000
,
0000
0010
0000
0100
,
0000
0001
0000
1000
,
0000
0001
0000
0010
,
0000
0100
0000
1000
,
0000
2020
3030
0002
,
0003
1000
0000
0001
,
0000
1000
0000
0100
,
0000
0010
0000
0001
,
0000
1000
0000
0001
,
0100
0000
0100
0000
,
0010
0000
0010
0000
,
1000
0000
0001
0000
,
1000
0000
0000
0001
2000
0000
0000
0000
,
3020
0000
0000
0000
,
0000
0000
0000
0000
,
0030
0000
0000
0000
,
0000
0000
0000
0000
,
0100
0000
0001
0000
,
1000
0000
0001
0000
,
0010
0000
0100
0000
,
1000
0000
0001
0000
,
0100
0000
0010
0000
,
1000
0000
0001
0000
,
1000
0000
0001
0000
,
1000
0000
0000
0000
,
0001
0010
0002
0003
,
1000
0010
0200
0300
,
0001
1000
0001
0001
,
1000
0000
0000
0000
,
0001
0000
0010
0001
,
0010
0000
0100
1000
,
0100
0000
1000
0001
,
0100
0000
0010
1000
,
0010
0000
0100
0001
,
1000
0000
0001
0010
,
0100
0000
1000
0001
,
0100
0000
0000
0100
0000
0000
0010
0000
,
1000
0001
1000
0001
,
0010
0100
0010
0100
,
1000
0001
1000
0010
,
0100
0001
0100
0001
,
1000
0100
1000
0100
,
0010
0001
0010
0001
,
1000
0010
0100
0001
,
2000
0000
3001
0010
,
0020
0000
0000
0000
0130
0000
0000
1000
,
0000
0001
0000
1000
0000
0001
0000
0200
,
0000
0000
0000
0000
,
0000
0000
0000
0000
,
0300
0000
0000
0000
;

//---------------dance-single - sangyule----------------
#NOTEDATA:;
#CHARTNAME:;
#STEPSTYPE:dance-single;
#DESCRIPTION:sangyule;
#CHARTSTYLE:;
#DIFFICULTY:Medium;
#METER:7;
#RADARVALUES:0.490105,0.546774,0.128653,0.111499,0.300190,400.000000,385.000000,15.000000,13.000000,0.000000,0.000000,1.000000,0.000000,0.000000,0.490105,0.546774,0.128653,0.111499,0.300190,400.000000,385.000000,15.000000,13.000000,0.000000,0.000000,1.000000,0.000000,0.000000;
#CREDIT:sangyule;
#NOTES:
0000
0000
0000
0000
,
1001
0000
0000
0000
1000
0000
0000
0010
,
0000
0100
0000
0010
0000
0010
1000
0000
,
1001
0000
0000
0000
0001
0000
0000
0010
,
0000
0100
0000
0020
0000
0000
0030
0000
,
0001
0000
0000
0001
0100
0000
0010
0000
,
1000
0000
0000
1000
0100
0000
0010
0000
,
0001
0000
0000
0001
0000
0000
1000
0000
0000
1000
0000
0000
0200
0000
0000
0000
,
1300
0000
0000
0001
,
0100
0010
1000
0001
,
0010
0000
0100
0000
1000
0100
0010
0001
,
1000
0001
0100
0010
,
1000
0000
0001
0000
0010
0000
0100
1000
,
0001
0000
0001
0000
0100
0000
0010
1000
,
0010
0000
0010
0000
0100
0000
0100
0001
,
1000
0100
0010
0001
,
0100
0000
0000
0010
0000
0000
0100
0000
0010
0000
1000
0000
0001
0000
0000
0000
,
1001
0000
0000
0000
0000
0000
1000
0000
0001
0000
0000
0010
0000
0001
0000
0000
,
1000
1000
0010
0010
,
0100
0000
0000
0100
0000
0000
0001
0000
0000
0001
0000
0000
1000
0000
0001
0000
,
1000
0100
0001
0100
,
1000
0000
0000
0000
0000
0000
1000
0000
0010
0000
0000
0100
0000
0010
0000
0000
,
1000
1000
0100
0100
,
0001
0100
0010
1000
,
0010
0000
0100
0000
1000
0000
0001
1000
,
0020
0000
0130
0101
,
0001
0001
1000
1000
,
0100
0000
0000
0100
0000
0000
1000
0000
0000
1000
0000
0000
0001
0000
0010
0000
,
0001
0100
1000
0100
,
0001
0000
0000
1000
0000
0000
0001
0000
0000
1000
0000
0000
0001
0000
0000
0000
,
0010
0000
0000
0100
0000
0000
0010
0000
0000
0100
0000
0000
2000
0000
0000
0000
,
3001
0001
0100
0010
,
1010
1000
0001
0020
,
0130
0000
0000
1000
0000
0000
0001
0000
0100
0000
0010
0000
,
1000
0000
0000
0010
0000
0000
0100
0000
0001
0000
1000
0000
,
0001
0000
0000
0010
0000
0000
0100
0000
1000
0000
0010
0000
,
0100
0000
0000
0001
0000
0000
1000
0000
0001
0000
1000
0000
,
0100
0000
0000
0010
0000
0000
0001
0000
0100
0000
0010
0000
,
1000
0000
0000
0001
0000
0000
0010
0000
0100
0000
1000
0000
,
0010
0000
1000
0000
0001
0000
0010
0000
1000
0000
0010
0000
,
0001
0102
1003
2010
,
3001
0000
0000
0010
0000
0000
0100
0000
1000
0000
0010
0000
,
0100
0000
0000
0001
0000
0000
1000
0000
0001
0000
0010
0000
,
0001
0000
0000
0100
0000
0000
0010
0000
1000
0000
0001
0000
,
1000
0000
0000
0100
0000
0000
0010
0000
0100
0000
1000
0000
,
0010
0000
0000
0100
0000
0000
0001
0000
0010
0000
0001
0000
,
1000
0000
0000
0001
0000
0000
0100
0000
0010
0000
1000
0000
,
0100
0000
0010
0000
0001
0000
0100
0000
1000
0000
0100
0000
,
0001
0000
0000
1000
0000
0000
0001
0000
2001
0000
0000
0000
0000
0000
0000
0000
,
3100
0000
0010
0000
0000
0001
0000
0000
,
1000
0000
0000
0001
0000
0000
0100
0000
,
0000
0000
0010
0000
0000
1000
0000
0000
,
0010
0000
0000
0100
0000
0000
0001
0000
,
1000
0000
0000
1000
0100
0000
0010
0000
,
0001
0000
0000
0001
1000
0000
0010
0000
,
0100
0000
0000
0100
0001
0000
1000
0000
,
0001
0000
0000
0001
0010
0000
0100
0000
,
1000
0000
0000
1000
0010
0000
0100
0000
,
0001
0000
0000
0001
0010
0000
0100
0000
,
1000
0000
0000
1000
0001
0000
0100
0000
,
0110
0040
1030
0001
,
1000
0000
0100
0000
0010
0001
1000
0000
,
0001
0000
0100
0000
0010
1000
0010
0000
,
0100
0000
0001
0000
1000
0001
1000
0001
,
0010
0000
0000
0002
,
0103
0000
0000
0010
0000
0000
0100
0000
0001
0000
0000
1000
0000
0000
0001
0000
,
1000
0000
0000
0100
0000
0000
0010
0000
0001
0000
1000
0000
0001
0000
1000
0000
,
0010
0000
0000
0100
0000
0000
0001
0000
0000
1000
0000
0000
0100
0000
0010
0000
,
0100
0000
0000
1000
0000
0000
0001
0000
0000
1000
0000
0000
0010
0000
0100
0000
,
0001
0000
0000
1000
0000
0000
0001
0000
0010
0000
0000
0100
0000
0000
1000
0000
,
0001
0000
0000
0100
0000
0000
0010
0000
1000
0000
0100
0000
1000
0000
0001
0000
,
0100
0000
0010
0000
1000
0000
0001
0010
,
0100
0000
0000
0100
0000
0000
1000
0000
0000
1000
0000
0000
0002
0000
0000
0000
,
0103
0000
0000
0010
0000
0000
1000
0000
0001
0000
0000
0010
0000
0000
0100
0000
,
0010
0000
0000
0001
0000
0000
1000
0000
0001
0000
0100
0000
0001
0000
1000
0000
,
0010
0000
0000
0100
0000
0000
0001
0000
0000
1000
0000
0000
0001
0000
0010
0000
,
0100
0000
0000
1000
0000
0000
0100
0000
0000
0010
0000
0000
0001
0000
1000
0000
,
1001
0000
0000
0001
0000
0000
0010
0000
0100
0000
0000
1000
0000
0000
0001
0000
,
0100
0000
0000
0010
0000
0000
0100
0000
0001
0000
1000
0000
0001
0000
1000
0000
,
0100
0000
0010
0000
0001
1000
0001
1000
,
0020
0000
0130
0001
1000
0000
0100
0000
,
0010
0000
0000
0010
0001
0000
0100
0110
,
0000
1001
0000
0101
0000
1100
0000
0022
,
0000
0000
0000
0000
,
0000
0000
0000
0000
,
0033
0000
0000
0000
;

//---------------dance-single - sangyule----------------
#NOTEDATA:;
#CHARTNAME:;
#STEPSTYPE:dance-single;
#DESCRIPTION:sangyule;
#CHARTSTYLE:;
#DIFFICULTY:Hard;
#METER:9;
#RADARVALUES:0.709428,0.765483,0.420265,0.308766,0.673282,579.000000,530.000000,49.000000,36.000000,8.000000,0.000000,7.000000,0.000000,0.000000,0.709428,0.765483,0.420265,0.308766,0.673282,579.000000,530.000000,49.000000,36.000000,8.000000,0.000000,7.000000,0.000000,0.000000;
#CREDIT:sangyule;
#NOTES:
0000
0000
0000
0001
,
2001
0000
0000
0000
3010
0100
0001
0020
,
0000
0030
0001
0020
0000
0000
0130
0000
,
1200
0000
0000
0000
0000
0000
1300
0001
1000
0000
0010
0000
0100
0000
0001
0000
,
0000
0000
1000
0000
0000
0000
0200
0000
0000
0000
0000
0000
0300
0000
0010
0001
,
0010
0100
1000
0001
0100
0010
1000
0001
,
0010
0001
0100
0010
1000
0100
0010
0001
,
1001
0000
0000
0101
0000
0000
1001
0000
0000
1100
0000
0000
0011
0000
0000
0000
,
0001
0000
1000
0000
0010
0100
0000
0100
0000
0001
1000
0000
0001
0000
0000
0000
,
0011
0010
0100
0100
,
1000
0000
1000
0000
0001
0100
0001
0100
,
0010
0010
1000
1000
,
0100
0000
0100
0000
0010
0000
0001
1000
,
0001
0100
0010
1000
0100
0010
0001
1000
,
1001
0001
0010
0001
0100
0010
1000
0001
,
0011
0010
0100
1000
0010
0100
0001
0010
,
0100
0000
1000
0001
0000
1000
0001
0000
0010
0100
1000
0000
1001
0000
0000
0000
,
1100
0000
0000
0000
0000
0000
0100
0000
0010
0000
0000
0001
0000
0001
0000
0000
,
1000
0010
1000
0001
0010
0100
1000
0010
,
1010
0000
0000
1010
0000
0000
0011
0000
0000
0011
0000
0000
1001
0000
1100
0000
,
0100
0010
0001
0100
0010
1000
0002
0000
,
0013
0000
0000
0000
0000
0000
0100
0000
1000
0000
0000
0001
0000
0001
0000
0000
,
0100
0010
0100
0001
1000
0001
0010
0100
,
0001
0000
0100
0000
1000
0000
0001
0000
1000
0010
0000
0100
0000
0001
1000
0000
,
0000
0001
0010
0000
0001
0010
0000
0100
1000
0000
0001
0000
4000
0000
0000
0000
,
3020
0000
0000
0030
0110
0100
0001
0000
,
1000
0100
1000
0001
0100
0001
1000
0100
,
1100
0000
0000
1100
0000
0000
0101
0000
0000
0101
0000
0000
1001
0000
1000
0000
,
0010
0100
0001
1000
0001
0010
0100
0000
,
1100
0000
0000
1100
0000
0000
1100
0000
0000
1100
0000
0000
0001
0000
1000
0000
,
1010
0000
0000
1010
0000
0000
1010
0000
0000
1010
0000
0000
0002
0000
0000
0000
,
0013
0000
0000
0100
0000
0000
1000
0000
0000
0001
0100
0010
,
1000
0000
0000
0100
0000
0000
0010
0000
0000
0001
0010
0001
,
2000
0000
0000
3010
0100
0001
0010
0000
0100
0000
1000
0000
,
0002
0000
0000
0013
0001
0100
0010
0000
1000
0000
0010
0000
,
0200
0000
0000
0301
1000
0001
0010
0000
0100
0000
0010
0001
,
2000
0000
0000
3001
0100
0010
1000
0000
0001
0000
1000
0100
,
0120
0000
0000
0031
0010
0100
1000
0000
0010
0000
0100
0000
,
0002
0000
0000
0103
0010
1000
0100
0000
1000
0000
0001
0000
,
1001
0000
1000
0000
0100
0000
0010
1000
0010
0001
1000
0010
,
1000
0000
0100
00M0
0100
0000
0001
0000
0000
0000
0000
0000
0001
0000
0100
00M0
0100
0000
1000
0000
0001
0000
1000
0000
,
0020
0000
0000
0130
0001
1000
0100
0000
1000
0000
0010
0000
,
0200
0000
0000
0301
1000
0001
0010
0000
0100
0000
1000
0000
,
0002
0000
0000
0103
0001
1000
0001
0000
0010
0000
0100
1000
,
0002
0000
0000
0103
0010
1000
0001
0000
0010
0000
0100
1000
,
2100
0000
0000
3001
0010
0001
0100
0000
0010
0000
1000
0000
,
2001
0000
0000
3100
1000
0010
0100
0000
0001
0000
0100
0000
,
0110
0000
0010
0000
1000
0000
0100
0001
0100
1000
0001
0100
,
0010
0000
0000
0010
0000
0000
1000
0000
0002
0000
0000
0000
0000
0000
0000
0000
,
2003
0000
0000
0000
,
0000
0000
0000
0000
,
3000
0000
0000
0000
,
0000
0000
0000
0000
0000
0000
0000
0000
0000
0000
0000
0000
0001
1000
0001
1000
,
0100
0000
0000
0010
0000
0000
0000
0000
0100
0000
1000
0000
,
0001
0000
0000
0000
1000
0001
1000
0100
,
0010
0000
0000
0001
0000
0000
0100
0000
,
0000
0010
0000
0000
1000
0000
0000
0000
,
0001
0010
0001
1000
0000
0100
1000
0001
,
0000
0100
0000
0010
0000
0000
1000
0001
,
0010
0000
0000
0100
0000
0000
1000
0000
,
1001
0000
0001
0000
1000
0000
0004
0000
0013
0000
0100
0000
1000
0001
1000
0001
,
0100
0010
1000
0100
0010
0001
0400
0000
,
0310
1000
0001
0010
0100
1000
0004
0000
,
0103
0010
1000
0001
0040
0000
0000
0000
,
M130
0000
0000
0000
M00M
0000
0000
0000
M0MM
0000
0000
0000
1000
0001
1000
0000
,
0002
0000
0000
0103
0000
0010
1000
0000
0001
0010
0000
0001
0000
1000
0001
0000
,
0200
0000
0000
0310
0000
1000
0100
0000
0010
0000
0001
0000
0010
0000
0100
0000
,
1000
0000
0001
1000
0000
0010
0000
0100
0000
0001
1000
0000
0001
0000
0010
0000
,
0200
0000
0000
1300
0000
0001
0000
1000
0000
0010
0100
0000
0001
0000
0010
0000
,
0200
0000
0000
1300
0000
0001
1000
0000
0010
0100
0000
0001
0000
1000
0001
0000
,
2000
0000
0000
3100
0000
0010
0001
0000
0100
0000
0010
0000
1000
0000
0001
0000
,
0010
1000
0010
0001
0100
0010
1000
0001
,
1001
0000
0000
0011
0000
0000
1001
0000
0000
1010
0000
0000
0020
0000
0000
0000
,
0230
0000
0000
0301
0000
1000
0100
0000
0010
0100
0000
1000
0000
0001
1000
0000
,
0020
0000
0000
0130
0000
0001
1000
0000
0001
0000
0010
0000
0100
0000
1000
0000
,
0010
0000
0100
0001
0000
0010
0000
0001
0000
0100
0010
0000
1000
0000
0001
0000
,
2000
0000
0000
3100
0000
0010
0000
0001
0000
1000
0001
0000
0100
0000
0010
0000
,
1020
0000
0000
0130
0000
0001
1000
0000
0100
1000
0000
0001
0000
0100
0010
0000
,
2000
0000
0000
3001
0000
0010
0100
0000
0010
0000
0001
0000
1000
0000
0100
0000
,
0010
0000
0001
0000
0010
0000
0100
0000
4000
0004
0000
0000
0000
0000
3000
0003
,
0200
0000
0310
1000
1001
0000
0001
0010
,
0100
1000
0010
0100
0001
0010
0100
1100
,
0000
1001
0000
0011
0000
0101
0000
2020
,
0000
0000
0000
0000
,
0000
0000
0000
0000
,
3030
0000
0000
0000
;
